Juliette Greco - Portrait (1993)

Posted By: Speedyclick
Juliette Greco - Portrait (1993)

Juliette Greco - Portrait (1993)
EAC Rip | FLAC (image & cue & log) | tracks: 20 | ~ 272 Mb | 1:02:24 | Scans
Label: Sarabandas | Genre: Chanson Francaise

A sensational singer, a remarkable performer and a superb interpreter, Juliette Greco, has her own story in the french musical world. Full of passion in her life and in her songs, her voice "encompasses millions of poems". This is a CD with 20 of her great songs. Let her guide you with her bohemian way, to Saint-Germain-des-Prés of '50s. Enjoy a rare CD.

Juliette Gréco (born 7 February 1927) is a French actress and popular chanson singer. She was born in Montpellier to a Corsican father and a mother who became active in the Résistance, in the Hérault département of southern France. She was raised by her maternal grandparents. Gréco also became involved in the Résistance, and was caught but not deported because of her young age. She moved to Saint-Germain-des-Prés in 1946 after her mother left the country for Indochina. Gréco became a devotee of the bohemian fashion of some intellectuals of post-war France. A famous description of Gréco is that her voice "encompasses millions of poems". She was known to many of the writers and artists working in Saint-Germain-des-Prés, such as Jean-Paul Sartre and Boris Vian.

Gréco spent the post liberation years frequenting the Saint Germain cafes, immersing herself in political and philosophical Bohemian culture. As a regular figure at music and poetry venues like Le Tabou on Rue Dauphine, Greco became acquainted with Miles Davis and Jean Cocteau, even being given a role in Cocteau’s film Orphee in 1949. That same year, she began a new singing career with a number of well-known French writers writing lyrics; Raymond Queneau's "Si Tu T’Imagines" was one of her earliest songs to become popular. She is a very good actress and remarkable interpreter of the well-known TV serial Belphegor, Phantom of the Louvre in the late 60s. This gloomy character was so strongly connected with Juliette Greco, that she brought it with herself for the rest of her life and in 2001 she was included in the cast of the famous movie remake with the same title Belphegor, Phantom of the Louvre. In 2009 her newest album, Je Me Souviens De Tout, was released. To mark the occasion, Gréco, accompanied by her husband Gérard Jouannest on the piano, and Jean-Louis Matinier on the accordion gave four concerts at the Théâtre des Champs-Élysées in early June.
TRACKLIST
01. Mon homme
02. Paris canaille
03. L'ame des poetes
04. Les enfants qui s'aiment
05. La valse brune
06. La mer
07. Parlez-moi d'amour
08. Clopin clopant
09. Les feuilles mortes
10. La cuisine
11. Si tu t'imagines
12. Les pas reunis
13. Chanson pour l'Auvergnat
14. C'etait bien
15. Accordιon
16. Je hais les dimanches
17. La fete aux copains
18. Il n'y a plus d'apres
19. Paname
20. Jolie Mome

Exact Audio Copy V0.99 prebeta 5 from 4. May 2009

EAC extraction logfile from 4. December 2010, 1:57

Juliette Grιco / Juliette Grιco - The Entertainers

Used drive : HL-DT-STDVDRAM GH10N Adapter: 1 ID: 0

Read mode : Secure
Utilize accurate stream : Yes
Defeat audio cache : No
Make use of C2 pointers : No

Read offset correction : 667
Overread into Lead-In and Lead-Out : No
Fill up missing offset samples with silence : Yes
Delete leading and trailing silent blocks : No
Null samples used in CRC calculations : No
Used interface : Native Win32 interface for Win NT & 2000

Used output format : Internal WAV Routines
Sample format : 44.100 Hz; 16 Bit; Stereo


TOC of the extracted CD

Track | Start | Length | Start sector | End sector
––––––––––––––––––––––––––––-
1 | 0:00.00 | 3:12.48 | 0 | 14447
2 | 3:12.48 | 3:02.15 | 14448 | 28112
3 | 6:14.63 | 3:11.47 | 28113 | 42484
4 | 9:26.35 | 3:22.10 | 42485 | 57644
5 | 12:48.45 | 2:46.65 | 57645 | 70159
6 | 15:35.35 | 2:40.03 | 70160 | 82162
7 | 18:15.38 | 3:15.47 | 82163 | 96834
8 | 21:31.10 | 3:44.48 | 96835 | 113682
9 | 25:15.58 | 4:00.02 | 113683 | 131684
10 | 29:15.60 | 1:53.30 | 131685 | 140189
11 | 31:09.15 | 2:43.13 | 140190 | 152427
12 | 33:52.28 | 3:11.15 | 152428 | 166767
13 | 37:03.43 | 3:27.67 | 166768 | 182359
14 | 40:31.35 | 4:02.10 | 182360 | 200519
15 | 44:33.45 | 2:23.73 | 200520 | 211317
16 | 46:57.43 | 3:13.47 | 211318 | 225839
17 | 50:11.15 | 2:37.23 | 225840 | 237637
18 | 52:48.38 | 3:15.07 | 237638 | 252269
19 | 56:03.45 | 6:26.13 | 252270 | 281232
20 | 59:47.13 | 2:42.45 | 269038 | 281232


Range status and errors

Selected range

Filename M:\EAC Rips\Juliette Greco\Juliette Greco - Juliette Greco - The Entertainers.wav

Peak level 91.1 %
Range quality 100.0 %
Copy CRC 4FC143AB
Copy OK

No errors occurred


AccurateRip summary

Track 1 not present in database
Track 2 not present in database
Track 3 not present in database
Track 4 not present in database
Track 5 not present in database
Track 6 not present in database
Track 7 not present in database
Track 8 not present in database
Track 9 not present in database
Track 10 not present in database
Track 11 not present in database
Track 12 not present in database
Track 13 not present in database
Track 14 not present in database
Track 15 not present in database
Track 16 not present in database
Track 17 not present in database
Track 18 not present in database
Track 19 not present in database
Track 20 not present in database

None of the tracks are present in the AccurateRip database

End of status report