Subcategories

John Paul Jones - The Thunderthief (2001) {Discipline Global Mobile / JPJ}

Posted By: ruskaval
John Paul Jones - The Thunderthief (2001) {Discipline Global Mobile / JPJ}

John Paul Jones - The Thunderthief (2001) {Discipline Global Mobile / JPJ}
EAC rip (secure mode) | FLAC+CUE+LOG -> 326 Mb | MP3 @320 -> 107 Mb
Full Artwork @ 300 dpi (jpg) -> 13 Mb
© 2001 Discipline Global Mobile / JPJ | DGM0104
Rock / Hard Rock / Instrumental / Alternative


John Paul Jones - The Thunderthief (2001) {Discipline Global Mobile / JPJ}

As in his previous solo album, The Thunderthief makes it very clear exactly what John Paul Jones brought to Led Zeppelin: driving bass, epic compositions, and impeccable musicianship. It's also very clear what he wasn't doing for Zeppelin: writing the lyrics. The tracks with words on the album are awkward and occasionally laughable, particularly the title track, which sounds suspiciously like a jab at Robert Plant, and "Angry Angry," a presumably mock punk song.

Both detract from what is otherwise a very impressive album. Jones plays nearly every instrument on the record and mixes sounds from seemingly every continent and era he could think of. The Thunderthief's best moments are its surprises, like "Down to the River to Pray," a beautiful rendition of the bluegrass standard, and "Hoediddle," which starts off a classic rock jam and works its way into an Irish jig. On "Freedom Song," Jones mixes Eastern sounds in with Western philosophy and somehow makes its work. At the very least, The Thunderthief is evidence that Jones continues to experiment and brave new territory – encouraging news from a man who could just rest on the greatest of laurels.
Personnel: John Paul Jones (vocals, acoustic & electric guitars, mandolin, mandola, ukulele, autoharp, koto, piano, organ, synthesizer); Robert Fripp, Adam Bomb (guitar); Nick Beggs (Chapman stick); Terl Bryant (drums, percussion).

tracklist:
01. "Leafy Meadows" – 5:10
02. "The Thunderthief" – 5:58
03. "Hoediddle" – 7:00
04. "Ice Fishing at Night" – 4:31
05. "Daphne" – 4:50
06. "Angry Angry" – 5:54
07. "Down to the River to Pray" – 4:17
08. "Shibuya Bop" – 5:56
09. "Freedom Song" – 2:37

John Paul Jones - The Thunderthief (2001) {Discipline Global Mobile / JPJ}

John Paul Jones - The Thunderthief (2001) {Discipline Global Mobile / JPJ}

Exact Audio Copy V0.99 prebeta 5 from 4. May 2009

EAC extraction logfile from 24. October 2009, 18:18

John Paul Jones / The Thunderthief

Used drive : TSSTcorpCD/DVDW TS-H552L Adapter: 3 ID: 0

Read mode : Secure
Utilize accurate stream : Yes
Defeat audio cache : Yes
Make use of C2 pointers : No

Read offset correction : 6
Overread into Lead-In and Lead-Out : No
Fill up missing offset samples with silence : Yes
Delete leading and trailing silent blocks : No
Null samples used in CRC calculations : Yes
Used interface : Native Win32 interface for Win NT & 2000
Gap handling : Appended to previous track

Used output format : User Defined Encoder
Selected bitrate : 1024 kBit/s
Quality : High
Add ID3 tag : No
Command line compressor : C:\Program Files\FLAC\flac.exe
Additional command line options : -6 -V -T "ARTIST=%a" -T "TITLE=%t" -T "ALBUM=%g" -T "DATE=%y" -T "TRACKNUMBER=%n" -T "GENRE=%m" -T "COMMENT=EAC FLAC -6" %s


TOC of the extracted CD

Track | Start | Length | Start sector | End sector
––––––––––––––––––––––––––––-
1 | 0:00.00 | 5:11.10 | 0 | 23334
2 | 5:11.10 | 5:58.61 | 23335 | 50245
3 | 11:09.71 | 7:00.13 | 50246 | 81758
4 | 18:10.09 | 4:35.56 | 81759 | 102439
5 | 22:45.65 | 4:50.22 | 102440 | 124211
6 | 27:36.12 | 5:56.72 | 124212 | 150983
7 | 33:33.09 | 4:20.46 | 150984 | 170529
8 | 37:53.55 | 5:59.08 | 170530 | 197462
9 | 43:52.63 | 2:40.30 | 197463 | 209492


Track 1

Filename C:\John Paul Jones - The Thunderthief (2001)\01 - Leafy Meadows.wav

Pre-gap length 0:00:02.00

Peak level 100.0 %
Track quality 99.9 %
Test CRC 212A44C6
Copy CRC 212A44C6
Accurately ripped (confidence 5) [BEB6380C]
Copy OK

Track 2

Filename C:\John Paul Jones - The Thunderthief (2001)\02 - The Thunderthief.wav

Peak level 100.0 %
Track quality 100.0 %
Test CRC A11B1155
Copy CRC A11B1155
Accurately ripped (confidence 5) [F2CDA52E]
Copy OK

Track 3

Filename C:\John Paul Jones - The Thunderthief (2001)\03 - Hoediddle.wav

Pre-gap length 0:00:01.38

Peak level 100.0 %
Track quality 100.0 %
Test CRC 4F1D2883
Copy CRC 4F1D2883
Accurately ripped (confidence 5) [84526001]
Copy OK

Track 4

Filename C:\John Paul Jones - The Thunderthief (2001)\04 - Ice Fishing At Night.wav

Pre-gap length 0:00:00.24

Peak level 100.0 %
Track quality 100.0 %
Test CRC 650F8575
Copy CRC 650F8575
Accurately ripped (confidence 5) [6CAFCFA7]
Copy OK

Track 5

Filename C:\John Paul Jones - The Thunderthief (2001)\05 - Daphne.wav

Pre-gap length 0:00:00.61

Peak level 100.0 %
Track quality 100.0 %
Test CRC 4A8EEC5C
Copy CRC 4A8EEC5C
Accurately ripped (confidence 5) [85E9730E]
Copy OK

Track 6

Filename C:\John Paul Jones - The Thunderthief (2001)\06 - Angry Angry.wav

Peak level 100.0 %
Track quality 99.9 %
Test CRC EBCA6785
Copy CRC EBCA6785
Accurately ripped (confidence 4) [2EE9955E]
Copy OK

Track 7

Filename C:\John Paul Jones - The Thunderthief (2001)\07 - Down To The River To Pray.wav

Pre-gap length 0:00:01.65

Peak level 100.0 %
Track quality 100.0 %
Test CRC C21F7AB0
Copy CRC C21F7AB0
Accurately ripped (confidence 5) [239DF476]
Copy OK

Track 8

Filename C:\John Paul Jones - The Thunderthief (2001)\08 - Shibuya Bop.wav

Peak level 100.0 %
Track quality 100.0 %
Test CRC 44BA8487
Copy CRC 44BA8487
Accurately ripped (confidence 5) [3E83B218]
Copy OK

Track 9

Filename C:\John Paul Jones - The Thunderthief (2001)\09 - Freedom Song.wav

Pre-gap length 0:00:02.08

Peak level 97.9 %
Track quality 99.9 %
Test CRC 26A92CA4
Copy CRC 26A92CA4
Accurately ripped (confidence 5) [4E9005C8]
Copy OK


All tracks accurately ripped

No errors occurred

End of status report

HF Linkz

or

FSonic Linkz

p.s. the files are interchangeable…

No Mirror, plz!