Subcategories

John McLaughlin - Molom: A Legend Of Mongolia (1995) {Verve}

Posted By: ruskaval
John McLaughlin - Molom: A Legend Of Mongolia (1995) {Verve}

John McLaughlin - Molom: A Legend Of Mongolia (1995) {Verve}
EAC rip (secure mode) | FLAC+CUE+LOG -> 306 Mb | MP3 @320 -> 130 Mb
Full Artwork @ 400 dpi (jpg) -> 26 Mb
© 1995 Polydor / PolyGram / Verve | 529 034-2
Jazz / Soundtrack / Fusion / Ethnic

Several years ago, Verve Records released this limited edition soundtrack, composed by none other than famed jazz guitarist and Mahavishnu Orchestra leader John McLaughlin. Molom apparently is a film that was released in a very limited fashion… I remember the day I saw this in the record store, and instantly snatched it up, thinking about the prospect of hearing McLaughlin incorporating yet another cultural tradition into his already astonishing repertoire, and wondering if he would pull it off as seamlessly as everything else. Well, unfortunately this was not to be, as the advertisement on the album cover is a bit misleading. The 'traditional Mongolian Songs' are performed by other artists. Luckily, however, these are done quite well and act as poignant interludes. All this aside, McLaughlin contributes some delicate, ringing acoustic guitar backed by sparse keyboard accompaniment and tasteful percussive offerings from drum master Trilok Gurtu. Think along the lines of the track "Amy and Joseph" off of McLaughlin's solo album The Promise, and you'll have some sense of what this album is all about. Also, while I recognize this as a logical extension of it being a soundtrack, I still must marvel that McLaughlin hasn't been as restrained as he is on here in years. A dearth of 32nd notes and wild arpeggio runs tell us this is someone who knows when to let loose and when to hold back, the mark of the wise musician. Molom is a beautiful album that can very much be enjoyed apart from its context as soundtrack work. While not a counter-pounding priority, it is strongly recommended if you can manage to locate it.
tracklist:
01 Un Mani Padme Hum
02 Molom Theme Song 1
03 The Boy's Theme 1
04 Breakfast - Cave
05 The Four Seasons
06 Horses
07 Boudamchou
08 Little Girl's Theme 1
09 Cows in the Water
10 The Man Hunts
11 The Camel Walk
12 Hunting - Witch
13 The Boy Walks
14 Melody
15 The Dream of the Boy
16 The Boy Cries
17 Traditional Song
18 Introduction of the Boy to the Monk
19 The Little Girl Says Goodbye to the Boy
20 The Boy Leaves
21 National Song
22 Molom Theme Song End

John McLaughlin - Molom: A Legend Of Mongolia (1995) {Verve}

Exact Audio Copy V0.99 prebeta 5 from 4. May 2009

EAC extraction logfile from 22. August 2009, 0:22

John McLaughlin / Molom - A Legend Of Mongolia

Used drive : PIONEER DVD-RW DVR-111L Adapter: 3 ID: 0

Read mode : Secure
Utilize accurate stream : Yes
Defeat audio cache : Yes
Make use of C2 pointers : No

Read offset correction : 48
Overread into Lead-In and Lead-Out : No
Fill up missing offset samples with silence : Yes
Delete leading and trailing silent blocks : No
Null samples used in CRC calculations : Yes
Used interface : Native Win32 interface for Win NT & 2000
Gap handling : Appended to previous track

Used output format : User Defined Encoder
Selected bitrate : 1024 kBit/s
Quality : High
Add ID3 tag : No
Command line compressor : C:\Program Files\FLAC\flac.exe
Additional command line options : -8 -V -T "ARTIST=%a" -T "TITLE=%t" -T "ALBUM=%g" -T "DATE=%y" -T "TRACKNUMBER=%n" -T "GENRE=%m" -T "COMMENT=EAC FLAC -8" %s


TOC of the extracted CD

Track | Start | Length | Start sector | End sector
––––––––––––––––––––––––––––-
1 | 0:00.32 | 1:19.13 | 32 | 5969
2 | 1:19.45 | 3:19.25 | 5970 | 20919
3 | 4:38.70 | 2:19.12 | 20920 | 31356
4 | 6:58.07 | 5:48.25 | 31357 | 57481
5 | 12:46.32 | 0:33.25 | 57482 | 59981
6 | 13:19.57 | 4:21.50 | 59982 | 79606
7 | 17:41.32 | 2:07.13 | 79607 | 89144
8 | 19:48.45 | 2:56.12 | 89145 | 102356
9 | 22:44.57 | 1:09.00 | 102357 | 107531
10 | 23:53.57 | 1:43.00 | 107532 | 115256
11 | 25:36.57 | 1:02.13 | 115257 | 119919
12 | 26:38.70 | 4:40.62 | 119920 | 140981
13 | 31:19.57 | 1:01.63 | 140982 | 145619
14 | 32:21.45 | 4:02.00 | 145620 | 163769
15 | 36:23.45 | 1:55.62 | 163770 | 172456
16 | 38:19.32 | 1:25.50 | 172457 | 178881
17 | 39:45.07 | 2:59.00 | 178882 | 192306
18 | 42:44.07 | 3:42.25 | 192307 | 208981
19 | 46:26.32 | 1:09.63 | 208982 | 214219
20 | 47:36.20 | 5:01.37 | 214220 | 236831
21 | 52:37.57 | 1:36.13 | 236832 | 244044
22 | 54:13.70 | 4:17.50 | 244045 | 263369


Track 1

Filename C:\John McLaughlin - Molom. A Legend Of Mongolia (1995) {Verve}\01 - Um Mani Padme Hum.wav

Pre-gap length 0:00:02.32

Peak level 51.0 %
Track quality 100.0 %
Test CRC 3F3CD782
Copy CRC 3F3CD782
Track not present in AccurateRip database
Copy OK

Track 2

Filename C:\John McLaughlin - Molom. A Legend Of Mongolia (1995) {Verve}\02 - Molom Theme Song 1.wav

Peak level 94.0 %
Track quality 100.0 %
Test CRC EFE2C76C
Copy CRC EFE2C76C
Track not present in AccurateRip database
Copy OK

Track 3

Filename C:\John McLaughlin - Molom. A Legend Of Mongolia (1995) {Verve}\03 - The Boy's Theme 1.wav

Peak level 99.7 %
Track quality 99.9 %
Test CRC C9C6E2B7
Copy CRC C9C6E2B7
Track not present in AccurateRip database
Copy OK

Track 4

Filename C:\John McLaughlin - Molom. A Legend Of Mongolia (1995) {Verve}\04 - Breakfast - The Cave.wav

Peak level 94.3 %
Track quality 99.9 %
Test CRC C3C5210B
Copy CRC C3C5210B
Track not present in AccurateRip database
Copy OK

Track 5

Filename C:\John McLaughlin - Molom. A Legend Of Mongolia (1995) {Verve}\05 - The Four Seasons.wav

Peak level 64.0 %
Track quality 100.0 %
Test CRC BA1393B2
Copy CRC BA1393B2
Track not present in AccurateRip database
Copy OK

Track 6

Filename C:\John McLaughlin - Molom. A Legend Of Mongolia (1995) {Verve}\06 - Horses.wav

Peak level 100.0 %
Track quality 99.9 %
Test CRC 9CC796C8
Copy CRC 9CC796C8
Track not present in AccurateRip database
Copy OK

Track 7

Filename C:\John McLaughlin - Molom. A Legend Of Mongolia (1995) {Verve}\07 - Boudamchou.wav

Peak level 74.8 %
Track quality 99.9 %
Test CRC 857B9A28
Copy CRC 857B9A28
Track not present in AccurateRip database
Copy OK

Track 8

Filename C:\John McLaughlin - Molom. A Legend Of Mongolia (1995) {Verve}\08 - Little Girl's Theme 1.wav

Peak level 87.2 %
Track quality 100.0 %
Test CRC 6A675BE7
Copy CRC 6A675BE7
Track not present in AccurateRip database
Copy OK

Track 9

Filename C:\John McLaughlin - Molom. A Legend Of Mongolia (1995) {Verve}\09 - Cows in the Water.wav

Peak level 99.6 %
Track quality 100.0 %
Test CRC 08EDE8D7
Copy CRC 08EDE8D7
Track not present in AccurateRip database
Copy OK

Track 10

Filename C:\John McLaughlin - Molom. A Legend Of Mongolia (1995) {Verve}\10 - The Man Hunts.wav

Peak level 90.5 %
Track quality 100.0 %
Test CRC 7C055EA4
Copy CRC 7C055EA4
Track not present in AccurateRip database
Copy OK

Track 11

Filename C:\John McLaughlin - Molom. A Legend Of Mongolia (1995) {Verve}\11 - The Camel Walk.wav

Peak level 69.3 %
Track quality 100.0 %
Test CRC 2B74E4E9
Copy CRC 2B74E4E9
Track not present in AccurateRip database
Copy OK

Track 12

Filename C:\John McLaughlin - Molom. A Legend Of Mongolia (1995) {Verve}\12 - Hunting - The Witch.wav

Peak level 91.7 %
Track quality 100.0 %
Test CRC FC4A5380
Copy CRC FC4A5380
Track not present in AccurateRip database
Copy OK

Track 13

Filename C:\John McLaughlin - Molom. A Legend Of Mongolia (1995) {Verve}\13 - The Boy Walks.wav

Peak level 86.1 %
Track quality 100.0 %
Test CRC DD7A8E83
Copy CRC DD7A8E83
Track not present in AccurateRip database
Copy OK

Track 14

Filename C:\John McLaughlin - Molom. A Legend Of Mongolia (1995) {Verve}\14 - Melody.wav

Peak level 78.4 %
Track quality 100.0 %
Test CRC F9F66E48
Copy CRC F9F66E48
Track not present in AccurateRip database
Copy OK

Track 15

Filename C:\John McLaughlin - Molom. A Legend Of Mongolia (1995) {Verve}\15 - The Dream of the Boy.wav

Peak level 54.0 %
Track quality 100.0 %
Test CRC FBB9A1D2
Copy CRC FBB9A1D2
Track not present in AccurateRip database
Copy OK

Track 16

Filename C:\John McLaughlin - Molom. A Legend Of Mongolia (1995) {Verve}\16 - The Boy Cries.wav

Peak level 25.6 %
Track quality 99.8 %
Test CRC B9F5D08C
Copy CRC B9F5D08C
Track not present in AccurateRip database
Copy OK

Track 17

Filename C:\John McLaughlin - Molom. A Legend Of Mongolia (1995) {Verve}\17 - Traditional Song.wav

Peak level 90.9 %
Track quality 99.9 %
Test CRC 79B60B5A
Copy CRC 79B60B5A
Track not present in AccurateRip database
Copy OK

Track 18

Filename C:\John McLaughlin - Molom. A Legend Of Mongolia (1995) {Verve}\18 - Introduction of the Boy to the Monk.wav

Peak level 82.1 %
Track quality 100.0 %
Test CRC 47550005
Copy CRC 47550005
Track not present in AccurateRip database
Copy OK

Track 19

Filename C:\John McLaughlin - Molom. A Legend Of Mongolia (1995) {Verve}\19 - The Little Girl Says Goodbye to the Boy.wav

Peak level 88.6 %
Track quality 100.0 %
Test CRC 94061C54
Copy CRC 94061C54
Track not present in AccurateRip database
Copy OK

Track 20

Filename C:\John McLaughlin - Molom. A Legend Of Mongolia (1995) {Verve}\20 - The Boy Leaves.wav

Peak level 100.0 %
Track quality 99.9 %
Test CRC 52683719
Copy CRC 52683719
Track not present in AccurateRip database
Copy OK

Track 21

Filename C:\John McLaughlin - Molom. A Legend Of Mongolia (1995) {Verve}\21 - National Song.wav

Peak level 34.3 %
Track quality 100.0 %
Test CRC 4AFBF603
Copy CRC 4AFBF603
Track not present in AccurateRip database
Copy OK

Track 22

Filename C:\John McLaughlin - Molom. A Legend Of Mongolia (1995) {Verve}\22 - Molom Theme Song End.wav

Peak level 92.4 %
Track quality 100.0 %
Test CRC E14B9FAE
Copy CRC E14B9FAE
Track not present in AccurateRip database
Copy OK


None of the tracks are present in the AccurateRip database

No errors occurred

End of status report