Subcategories

Jefferson Airplane - Original Album Classics (8CD: 1966-1972) [2x Box Sets '2008 & 2011] RE-UP

Posted By: perfecta
Jefferson Airplane - Original Album Classics (8CD: 1966-1972) [2x Box Sets '2008 & 2011] RE-UP

Jefferson Airplane - Original Album Classics (8CD: 1966-1972) [2x Box Sets '2008 & 2011]
8x EAC-FLAC Images with CUEs & LOGs - 2,72 GB | Full PNG Scans | MP3 CBR 320 Kbps - 1,04 GB
Psychedelic Rock / Acid Rock / Folk Rock / Blues-Rock | TT - 467:49 minutes | Label: RCA Records/Legacy

Jefferson Airplane was an American rock band formed in San Francisco in 1965. A pioneer of the psychedelic rock movement, Jefferson Airplane was the first band from the San Francisco scene to achieve mainstream commercial and critical success. This sets from the American Classic rockers features the albums Jefferson Airplane Takes Off (1966), Surrealistic Pillow (1967), After Bathing At Baxters (1967), Crown Of Creation (1968), Bless Its Pointed Little Head (1969), Volunteers (1969), Bark (1971), and Long John Silver (1972).

Jefferson Airplane @ Wikipedia

Jefferson Airplane - Original Album Classics (8CD: 1966-1972) [2x Box Sets '2008 & 2011] RE-UP

allmusic.com biography: Jefferson Airplane was the first of the San Francisco psychedelic rock groups of the 1960s to achieve national recognition. Although the Grateful Dead ultimately proved more long-lived and popular, Jefferson Airplane defined the San Francisco sound in the 1960s, with the acid rock guitar playing of Jorma Kaukonen and the soaring twin vocals of Grace Slick and Marty Balin, scoring hit singles and looking out from the covers of national magazines. They epitomized the drug-taking hippie ethos as well as the left-wing, antiwar political movement of their time, and their history was one of controversy along with hit records. Their personal interactions mirrored those times; the group was a collective with shifting alliances, in which leaders emerged and retreated. But for all the turmoil, Jefferson Airplane was remarkably productive between 1965 and 1972. They toured regularly, being the only band to play at all the major '60s rock festivals – Monterey, Woodstock, even Altamont – and they released seven studio albums, five of which went gold, plus two live LPs and a million-selling hits collection that chronicled their eight chart singles. Rather than formally breaking up, they mutated into other configurations, Hot Tuna and Jefferson Starship, and went on to further success in the 1970s and '80s, before reuniting for an album and tour in 1989.

The initial idea for the group that became Jefferson Airplane came from 23-year-old Marty Balin (born Martyn Jerel Buchwald in Cincinnati, OH, January 30, 1942), a San Francisco-raised singer who had recorded unsuccessfully for Challenge Records in 1962 and been a member of a folk group called the Town Criers in 1963-1964. With the Beatles-led British Invasion of 1964, Balin saw the merging of folk with rock in early 1965 and decided to form a group to play the hybrid style as well as open a club for the group to play in. He interested three investors in converting a pizza restaurant on Fillmore Street into a 100-seat venue called the Matrix, and he began picking potential bandmembers from among the musicians at a folk club called the Drinking Gourd. His first recruit was rhythm guitarist/singer Paul Kantner (born Paul Lorin Kantner in San Francisco, CA, March 17, 1941), who in turn recommended lead guitarist/singer Jorma Kaukonen (born Jorma Ludwik Kaukonen in Washington, D.C., December 23, 1940). Balin, who possessed a keening tenor, wanted a complementary powerful female voice for the group and found it in Signe Toly (born Signe Ann Toly in Seattle, WA, September 15, 1941). The six-piece band was completed by bass player Bob Harvey and drummer Jerry Peloquin. The group's unusual name was suggested by Kaukonen, who had once jokingly been dubbed "Blind Thomas Jefferson Airplane" by a friend in reference to the blues singer Blind Lemon Jefferson.

Jefferson Airplane made their debut at the Matrix on August 13, 1965, and began performing at the club regularly. They attracted favorable press attention, which – at a time when folk-rock performers like Sonny & Cher, We Five, Bob Dylan, the Byrds, the Beau Brummels, and the Turtles were all over the charts – led to record company interest. By September, Jefferson Airplane was being wooed by several labels. At the same time, the band was already undergoing changes. Peloquin was fired and replaced by Skip Spence (born Alexander Lee Spence, Jr. in Windsor, Ontario, Canada, on April 18, 1946; died in Santa Cruz, CA, April 16, 1999). Spence considered himself a guitarist, not a drummer, but he had some drumming experience. Also in September, Signe Toly married Jerry Anderson, who handled lights at the Matrix, becoming known as Signe Anderson. In October, Harvey was fired and replaced by Jack Casady (born John William Casady in Washington, D.C., April 13, 1944), a friend of Kaukonen's. On November 15, 1965, this lineup – Balin, Kantner, Anderson, Kaukonen, Spence, and Casady – signed to RCA Victor Records. They had their first recording session in Los Angeles on December 16, and RCA released their debut single, Balin's composition "It's No Secret," in February 1966; it did not chart. Meanwhile, Jefferson Airplane began to appear at more prestigious venues in San Francisco and even to tour outside the Bay Area. In May 1966, Anderson gave birth to a daughter, and caring for the child while performing with the band became a challenge. Meanwhile, Spence became increasingly unreliable as his appetite for drugs increased, and he was replaced in June by session drummer Spencer Dryden (born Spencer Dryden Wheeler in New York, April 7, 1938; died in Petaluma, CA, January 11, 2005). Spence went on to form the band Moby Grape.

Following a second non-charting single, Balin and Kantner's "Come Up the Years," in July, Jefferson Airplane released their debut LP, Jefferson Airplane Takes Off, on August 15, 1966, just over a year after the band's debut. The album had modest sales, peaking at only number 128 during 11 weeks on the Billboard chart. (A third single, Balin and Kantner's "Bringing Me Down," was released from the album, but did not chart.) At this point, Anderson's commitment to her family caused her departure from the group. Jefferson Airplane was able to find a strong replacement for her in Grace Slick (born Grace Barnett Wing in or near Chicago, IL, October 30, 1939), the lead singer for the San Francisco rock band the Great Society, which happened to be in the process of breaking up at the same time. Slick joined Jefferson Airplane in mid-October 1966, and by the end of the month was with them in the recording studio. She brought with her two songs from the Great Society repertoire: the rock tune "Somebody to Love," written by her brother-in-law Darby Slick, the Great Society's guitarist, and her own composition, the ballad "White Rabbit," set to a bolero tempo, which used imagery from Alice in Wonderland to discuss the impact of psychedelic drugs. Both songs were recorded for Jefferson Airplane's second album, Surrealistic Pillow.

RCA did not release either of them as the advance single from the album, opting instead for the departed Spence's "My Best Friend" in January 1967; it became the group's fourth single to miss the charts. Surrealistic Pillow followed in February. It debuted in the charts the last week of March, and its progress was speeded by the release of "Somebody to Love," the first Jefferson Airplane single to feature Grace Slick as lead vocalist. By early May, both the album and single were in the Top 40 of their respective charts; a month later, both were in the Top Ten. With that, RCA released "White Rabbit" as a single, and it too reached the Top Ten. Surrealistic Pillow became Jefferson Airplane's first gold album in July.

Meanwhile, the band, which, naturally, had attracted national media attention (much of it focusing on Slick's photogenic looks), began recording a new album and continued to tour. On June 17, 1967, they performed at the Monterey International Pop Festival, which was celebrated for introducing many of the new San Francisco rock bands (as well as the Jimi Hendrix Experience) and launching the "Summer of Love" that the season was touted to be in 1967. Jefferson Airplane's performance was filmed and recorded. Two songs from their show, "High Flying Bird" and "Today," were featured in the documentary film Monterey Pop, released in 1968. The concert recording was heavily bootlegged and over the years has turned up on numerous gray-market releases as well.

The nature of Jefferson Airplane's commercial breakthrough, and the nature of the band itself, restricted their commercial appeal thereafter. AM Top 40 radio, in particular, became wary of a group that had scored a hit with a song widely derided for its drug references, and Jefferson Airplane never again enjoyed the kind of widespread radio support they would have needed to score more Top Ten hits. At the same time, the group did not think of itself as a hitmaking machine, and its recordings were becoming more adventurous. Kantner's "The Ballad of You and Me and Pooneil," the band's new single released in August, featured him as lead singer with Slick and Balin harmonizing. It reached number 42 on the strength of the band's prominence, but they never again crossed the halfway mark in the Hot 100. At the same time, the rise of FM radio, attracted to longer cuts and the kind of experimental work the group was starting to do, gave them a new way of exposing their music. Nevertheless, their third album, After Bathing at Baxter's, its songs arranged into lengthy suites, was not as successful as Surrealistic Pillow when it appeared on November 27, 1967, reaching the Top 20 but failing to go gold. Also notable was the diminished participation of Marty Balin, who co-wrote only one song, and now was being marginalized in the group he had founded.

After Kantner's "Watch Her Ride," released as a single from After Bathing at Baxter's, stalled at number 61, RCA released a new Jefferson Airplane single written and sung by Slick in the spring of 1968. But radio was even more resistant, and "Greasy Heart" stopped at number 98. It was included in the band's fourth album, Crown of Creation, released in August. The title track got to number 64 as a single, and the LP, which featured more concise, less experimental tracks than After Bathing at Baxter's, marked a resurgence in the group's commercial success, reaching the Top Ten and eventually going gold. Jefferson Airplane's live appeal was chronicled on the concert album Bless Its Pointed Little Head, released in February 1969. In August, the group appeared at the Woodstock festival, and it was featured on the million-selling triple-LP soundtrack album to the resulting film in 1970, though it did not appear onscreen in the version initially released. The band's fifth studio album, Volunteers, appeared in October 1969 as its title song became a minor singles chart entry. Volunteers stopped short of the Top Ten, but it went gold in three months. On December 6, 1969, the band played at the Rolling Stones' disastrous Altamont free concert in California, its performance (complete with Balin's beating at the hands of Hell's Angels) captured in the 1970 documentary film Gimme Shelter.

Jefferson Airplane released one more single, the non-charting marijuana anthem "Mexico," in 1970 in its familiar configuration, but the turn of the 1970s brought great changes in the group. Already, Kaukonen and Casady, with assorted sidemen, had begun to play separately as Hot Tuna while maintaining their membership in Jefferson Airplane; they had recorded shows the previous September for a self-titled debut album issued in May 1970. Spencer Dryden was fired early in the year and replaced by drummer Joey Covington (born Joseph Michno in Johnston, PA, in 1945). At shows performed in October 1970, violinist Papa John Creach, who had been performing with Hot Tuna, first played with Jefferson Airplane. Creach (born John Henry Creach in Beaver Falls, PA, May 18, 1917; died February 22, 1994) was a journeyman musician decades older than any of the other members of Jefferson Airplane, and his recruitment was evidence of the ways in which the band's approach was changing. An even more radical change was the departure of Marty Balin, who left the band at the end of the fall tour in November. (His resignation was formally announced in April 1971.)

Jefferson Airplane did not have a new album ready for release in 1970, and RCA filled the gap with a compilation, sarcastically dubbed The Worst of Jefferson Airplane and released in November. The album went gold quickly and was later certified platinum. Issued on its heels was Paul Kantner's debut solo album, Blows Against the Empire, featuring most of the members of Jefferson Airplane as well as various other musical friends. Due to that long list of sidemen and the album's science fiction theme about a group of hippies hijacking a spaceship, Kantner co-billed the disc to "Jefferson Starship." As yet, there was no such entity, but Kantner would use the name for a real band later.

Having completed their recording commitment to RCA, Jefferson Airplane shopped for a new label, but was wooed back when RCA offered them their own imprint, Grunt Records. Grunt bowed with the release of the sixth Jefferson Airplane studio album, Bark, in August 1971. The album stopped just short of the Top Ten and quickly went gold. Covington, Casady, and Kaukonen's "Pretty as You Feel," later issued as a single, gave the band its final placing in the Hot 100 at number 60 early in 1972. Grunt issued albums by bandmembers including Creach and Hot Tuna, as well as discs by friends, but Jefferson Airplane remained its most successful act.

In the early '70s, the members of Jefferson Airplane became increasingly preoccupied by their side projects. Hot Tuna, having issued a second live album, First Pull Up, Then Pull Down, in the spring of 1971, put out their first studio effort, Burgers, in February 1972. Kantner and Slick, who had become a couple and had a child, China Kantner (who went on to be an MTV VJ in her teens), issued a duo album, Sunfighter, in December 1971. In April 1972, Covington left the band and was replaced by veteran drummer John Barbata (born in Passaic, NJ, April 1, 1945), formerly a member of the Turtles and a backup musician for Crosby, Stills, Nash & Young. The group then recorded its seventh studio album, Long John Silver, which was issued in the summer of 1972. It reached the Top 20 and went gold within six months. For the accompanying tour, they added singer/multi-instrumentalist David Freiberg (born in Boston, MA, August 24, 1938), formerly a member of the San Francisco rock band Quicksilver Messenger Service, to provide the male lead vocals formerly sung by Balin. The tour concluded at the Winterland ballroom in San Francisco on September 22, 1972, in effect marking the end of Jefferson Airplane, although no formal announcement was ever made. Kaukonen and Casady went back to performing as Hot Tuna. Kantner, Slick, and Freiberg recorded a trio album, Baron von Tollbooth & the Chrome Nun, issued in the spring of 1973 and featuring the rest of Jefferson Airplane as side musicians. Slick's debut solo album, Manhole, issued in early 1974, also featured many of the same performers. Kantner and Slick then organized a new band along the same lines as Jefferson Airplane, but without Kaukonen and Casady, and called it Jefferson Starship. Meanwhile, a second Jefferson Airplane live album drawn from the 1972 tour, Thirty Seconds Over Winterland, was issued in the spring of 1973. Early Flight, a collection of stray tracks, appeared in the spring of 1974. Grunt issued the compilation Flight Log (1966-1976) at the start of 1977, filling the two LPs with tracks by Jefferson Airplane, Jefferson Starship, and various other spinoff acts. 2400 Fulton Street: An Anthology, named after the address of a house owned by the band in the 1960s, was a two-disc set released in 1987. All of these albums sold well enough to reach the charts.

The various members of Jefferson Airplane went through various solo efforts and group affiliations in the 1970s and '80s, plus considerable litigation with an old manager and each other. This was all cleared up by the late '80s, however, and in 1989 Kantner, Slick, Kaukonen, and Casady (who, with manager Bill Thompson, still owned the rights to use the name Jefferson Airplane) brought in Balin (who had sold out his share in the group in 1971) and reunited as Jefferson Airplane for a tour and album. The tour, which ran from August 18 to October 7, was well received; the album, Jefferson Airplane, released by Epic Records, was only a modest success. After that, the band again became inactive. Slick retired. Kaukonen and Casady resumed performing as Hot Tuna. Kantner eventually resurrected the Jefferson Starship name, sometimes including Balin and even occasionally Slick, and playing Jefferson Airplane songs. RCA continued to release archival recordings, its most interesting issues being the 1992 box set Jefferson Airplane Loves You and the 1998 concert recording Live at the Fillmore East.


_______ Jefferson Airplane - Original Album Classics 2x Box Set contains: _______


Jefferson Airplane - Original Album Classics (8CD: 1966-1972) [2x Box Sets '2008 & 2011] RE-UP

Jefferson Airplane - Jefferson Airplane Takes Off (1966)
FLAC with CUE & LOG - 357 MB | 71:58 mins | MP3 CBR 320 Kbps - 141 MB

Tracks:

01. Blues From An Airplane
02. Let Me In
03. Bringing Me Down
04. It's No Secret
05. Tobacco Road
06. Come Up The Years
07. Run Around
08. Let's Get Together
09. Don't Slip Away
10. Chauffeur Blues
11. And I Like It
12. Runnin' 'Round This World [Bonus track]
13. High Flying Bird [Bonus track]
14. It's Alright [Bonus track]
15. Go To Her (Early Version) [Bonus track]
16. Let Me In (Original Uncensored Version) [Bonus track]
17. Run Around (Mono Original Uncensored Version) [Bonus track]
18. Chauffeur Blues (Alternate Version) [Bonus track]
19. And I Like It (Alternate Version) / Blues From An Airplane (Inst) [Bonus track]

allmusic.com says: The debut Jefferson Airplane album was dominated by singer Marty Balin, who wrote or co-wrote all the original material and sang most of the lead vocals in his heartbreaking tenor with Paul Kantner and Signe Anderson providing harmonies and backup. (Anderson's lead vocal on "Chauffeur Blues" indicated she was at least the equal of her successor, Grace Slick, as a belter.) The music consisted mostly of folk-rock love songs, the most memorable of which were "It's No Secret" and "Come up the Years." (There was also a striking version of Dino Valente's "Get Together" recorded years before the Youngbloods' hit version.) Jorma Kaukonen already displayed a talent for mixing country, folk, and blues riffs in a rock context, and Jack Casady already had a distinctive bass sound. But the Airplane of Balin-Kantner-Kaukonen-Anderson-Casady-Spence is to be distinguished from the Balin-Kantner-Kaukonen-Casady-Slick-Dryden version of the band that would emerge on record five months later chiefly by Balin's dominance. Later, Grace Slick would become the group's vocal and visual focal point. On Jefferson Airplane Takes Off, the Airplane was Balin's group. (Jefferson Airplane Takes Off was released as RCA 3584 on August 15, 1966. It was reissued as RCA 66797 on January 30, 1996, as a CD that contained both the stereo and mono versions, and that added back the track "Runnin' 'Round This World," which had been deleted from all but initial copies due to the sexual and perceived drug references of the line "The nights I've spent with you have been fantastic trips." But the included version still eliminated the word "trips.")

Exact Audio Copy V1.0 beta 1 from 15. November 2010

EAC extraction logfile from 11. June 2011, 9:46

Jefferson Airplane / Takes Off

Used drive : HL-DT-STDVDRAM GSA-H60N Adapter: 2 ID: 0

Read mode : Secure
Utilize accurate stream : Yes
Defeat audio cache : Yes
Make use of C2 pointers : No

Read offset correction : 667
Overread into Lead-In and Lead-Out : No
Fill up missing offset samples with silence : Yes
Delete leading and trailing silent blocks : No
Null samples used in CRC calculations : Yes
Used interface : Native Win32 interface for Win NT & 2000

Used output format : Internal WAV Routines
Sample format : 44.100 Hz; 16 Bit; Stereo


TOC of the extracted CD

Track | Start | Length | Start sector | End sector
––––––––––––––––––––––––––––-
1 | 0:00.00 | 2:13.03 | 0 | 9977
2 | 2:13.03 | 2:59.33 | 9978 | 23435
3 | 5:12.36 | 2:23.74 | 23436 | 34234
4 | 7:36.35 | 2:39.49 | 34235 | 46208
5 | 10:16.09 | 3:30.42 | 46209 | 62000
6 | 13:46.51 | 2:32.58 | 62001 | 73458
7 | 16:19.34 | 2:40.05 | 73459 | 85463
8 | 18:59.39 | 3:35.59 | 85464 | 101647
9 | 22:35.23 | 2:34.06 | 101648 | 113203
10 | 25:09.29 | 2:28.10 | 113204 | 124313
11 | 27:37.39 | 3:20.21 | 124314 | 139334
12 | 30:57.60 | 2:25.40 | 139335 | 150249
13 | 33:23.25 | 2:35.60 | 150250 | 161934
14 | 35:59.10 | 2:17.13 | 161935 | 172222
15 | 38:16.23 | 4:09.05 | 172223 | 190902
16 | 42:25.28 | 3:31.20 | 190903 | 206747
17 | 45:56.48 | 2:35.10 | 206748 | 218382
18 | 48:31.58 | 2:49.50 | 218383 | 231107
19 | 51:21.33 | 10:36.31 | 231108 | 278838


Range status and errors

Selected range

Filename C:\Documents and Settings\Администратор\Рабочий стол\Rip by ALLexxess\2008 Jefferson Airplane Original Album Classics (5CD Box Set RCA Records)\1966 Jefferson Airplane Takes Off\Jefferson Airplane - Takes Off.wav

Peak level 100.0 %
Extraction speed 1.0 X
Range quality 100.0 %
Test CRC CECB93DC
Copy CRC CECB93DC
Copy OK

No errors occurred


AccurateRip summary

Track 1 accurately ripped (confidence 5) [EE7D41BF]
Track 2 accurately ripped (confidence 5) [BCCFF886]
Track 3 accurately ripped (confidence 5) [0D19D85B]
Track 4 accurately ripped (confidence 5) [D3B9C636]
Track 5 accurately ripped (confidence 5) [8E30D6E2]
Track 6 accurately ripped (confidence 5) [FECB6451]
Track 7 accurately ripped (confidence 5) [44C57BBF]
Track 8 accurately ripped (confidence 5) [6CCB08B6]
Track 9 accurately ripped (confidence 5) [FE54F2A2]
Track 10 accurately ripped (confidence 5) [DDD7F0E9]
Track 11 accurately ripped (confidence 5) [9A7C36E0]
Track 12 accurately ripped (confidence 4) [BADDAD8E]
Track 13 accurately ripped (confidence 4) [45433B21]
Track 14 accurately ripped (confidence 4) [624E7890]
Track 15 accurately ripped (confidence 4) [EFFFDE37]
Track 16 accurately ripped (confidence 4) [652567D4]
Track 17 accurately ripped (confidence 4) [02E3C5A4]
Track 18 accurately ripped (confidence 4) [7F31F179]
Track 19 accurately ripped (confidence 4) [64009860]

All tracks accurately ripped

End of status report

==== Log checksum AE9D16832F9213F1603D58A5FB2D65173989C50A089F444BC58FD075F655F4A9 ====



_________________________________________________________________________________________


Jefferson Airplane - Original Album Classics (8CD: 1966-1972) [2x Box Sets '2008 & 2011] RE-UP

Jefferson Airplane - Surrealistic Pillow (1967)
FLAC with CUE & LOG - 377 MB | 58:38 mins | MP3 CBR 320 Kbps - 156 MB

Tracks:

01. She Has Funny Cars
02. Somebody To Love
03. My Best Friend
04. Today
05. Comin' Back To Me
06. 35 Of A Mile In 10 Seconds
07. D.C.B.A.-25
08. How Do You Feel
09. Embryonic Journey
10. White Rabbit
11. Plastic Fantastic Lover
12. In The Morning [Bonus track]
13. J.P.P. Mc Step B. Blues [Bonus track]
14. Go To Her (Version 2) [Bonus track]
15. Come Back Baby [Bonus track]
16. Somebody To Love (Mono Single Version) [Bonus track]
17. White Rabbit (Mono Single Version) / D.C.B.A.-25 [Bonus track]

allmusic.com says: The second album by Jefferson Airplane, Surrealistic Pillow was a groundbreaking piece of folk-rock-based psychedelia, and it hit – literally – like a shot heard round the world; where the later efforts from bands like the Grateful Dead, Quicksilver Messenger Service, and especially, the Charlatans, were initially not too much more than cult successes, Surrealistic Pillow rode the pop charts for most of 1967, soaring into that rarefied Top Five region occupied by the likes of the Beatles, the Rolling Stones, and so on, to which few American rock acts apart from the Byrds had been able to lay claim since 1964. And decades later the album still comes off as strong as any of those artists' best work. From the Top Ten singles "White Rabbit" and "Somebody to Love" to the sublime "Embryonic Journey," the sensibilities are fierce, the material manages to be both melodic and complex (and it rocks, too), and the performances, sparked by new member Grace Slick on most of the lead vocals, are inspired, helped along by Jerry Garcia (serving as spiritual and musical advisor and sometimes guitarist). Every song is a perfectly cut diamond, too perfect in the eyes of the bandmembers, who felt that following the direction of producer Rick Jarrard and working within three- and four-minute running times, and delivering carefully sung accompaniments and succinct solos, resulted in a record that didn't represent their real sound. Regardless, they did wonderful things with the music within that framework, and the only pity is that RCA didn't record for official release any of the group's shows from the same era, when this material made up the bulk of their repertory. That way the live versions, with the band's creativity unrestricted, could be compared and contrasted with the record. The songwriting was spread around between Marty Balin, Slick, Paul Kantner, and Jorma Kaukonen, and Slick and Balin (who never had a prettier song than "Today," which he'd actually written for Tony Bennett) shared the vocals; the whole album was resplendent in a happy balance of all of these creative elements, before excessive experimentation (musical and chemical) began affecting the band's ability to do a straightforward song. The group never made a better album, and few artists from the era ever did.

[Surrealistic Pillow on CD has been problematic – actually, make that a real pain in the ass. It's been reissued numerous times on compact disc, in distinctly different editions – a plain 11-song disc from the 1980s that sounded wretched and was an embarrassment; a high-priced RCA-BMG gold-disc upgrade, with significantly better sound from the mid-'90s that encompassed the stereo and mono mixes of the album; a European version from 2000/2001 (with four bonus tracks but no mono mix or liner notes) that got into the U.S. as an import; a U.S.-issued 2001 upgrade, initially available in the bizarre four-CD box Ignition, which encompassed the stereo and mono mixes in a brighter, sharper, louder remastering than the 1996 version, but still – in some listeners' eyes – lacking the presence and the soaring sound of the original LP; and a 2003 reissue (on the BMG Heritage label), mastered by renowned reissue producer Bob Irwin (of Sundazed Records fame), including the mono single versions of "White Rabbit" and "Somebody to Love," along with the related bonus tracks "Come Back Baby," "In the Morning," "J.P.P. McStep B. Blues," and "Go to Her," which have previously been scattered around various anthologies and other expanded editions. Those tracks generally push Kaukonen even more to the fore and give the balance of the material a bluesier feel. And there's an uncredited "hidden" bonus cut, an instrumental of "D.C.B.A. - 25."]

Jefferson Airplane - Original Album Classics (8CD: 1966-1972) [2x Box Sets '2008 & 2011] RE-UP

Exact Audio Copy V1.0 beta 1 from 15. November 2010

EAC extraction logfile from 11. June 2011, 10:54

Jefferson Airplane / Surrealistic Pillow

Used drive : HL-DT-STDVDRAM GSA-H60N Adapter: 2 ID: 0

Read mode : Secure
Utilize accurate stream : Yes
Defeat audio cache : Yes
Make use of C2 pointers : No

Read offset correction : 667
Overread into Lead-In and Lead-Out : No
Fill up missing offset samples with silence : Yes
Delete leading and trailing silent blocks : No
Null samples used in CRC calculations : Yes
Used interface : Native Win32 interface for Win NT & 2000

Used output format : Internal WAV Routines
Sample format : 44.100 Hz; 16 Bit; Stereo


TOC of the extracted CD

Track | Start | Length | Start sector | End sector
––––––––––––––––––––––––––––-
1 | 0:00.00 | 3:10.46 | 0 | 14295
2 | 3:10.46 | 2:58.12 | 14296 | 27657
3 | 6:08.58 | 3:01.23 | 27658 | 41255
4 | 9:10.06 | 2:59.36 | 41256 | 54716
5 | 12:09.42 | 5:18.02 | 54717 | 78568
6 | 17:27.44 | 3:41.60 | 78569 | 95203
7 | 21:09.29 | 2:37.14 | 95204 | 106992
8 | 23:46.43 | 3:31.13 | 106993 | 122830
9 | 27:17.56 | 1:53.42 | 122831 | 131347
10 | 29:11.23 | 2:30.48 | 131348 | 142645
11 | 31:41.71 | 2:37.74 | 142646 | 154494
12 | 34:19.70 | 6:21.45 | 154495 | 183114
13 | 40:41.40 | 2:37.72 | 183115 | 194961
14 | 43:19.37 | 4:02.51 | 194962 | 213162
15 | 47:22.13 | 2:56.45 | 213163 | 226407
16 | 50:18.58 | 2:58.39 | 226408 | 239796
17 | 53:17.22 | 5:20.61 | 239797 | 263857


Range status and errors

Selected range

Filename C:\Documents and Settings\Администратор\Рабочий стол\Rip by ALLexxess\2008 Jefferson Airplane Original Album Classics (5CD Box Set RCA Records)\1967 Surrealistic Pillow\Jefferson Airplane - Surrealistic Pillow.wav

Peak level 100.0 %
Extraction speed 0.5 X
Range quality 100.0 %
Test CRC E4F55A0E
Copy CRC E4F55A0E
Copy OK

No errors occurred


AccurateRip summary

Track 1 accurately ripped (confidence 5) [57A22BCA]
Track 2 accurately ripped (confidence 5) [873E13DB]
Track 3 accurately ripped (confidence 5) [A35C7548]
Track 4 accurately ripped (confidence 5) [3D5C77C3]
Track 5 accurately ripped (confidence 4) [B6F7D4D5]
Track 6 accurately ripped (confidence 5) [DBBF807E]
Track 7 accurately ripped (confidence 5) [42FB974D]
Track 8 accurately ripped (confidence 5) [706475F0]
Track 9 accurately ripped (confidence 5) [A89F4DE9]
Track 10 accurately ripped (confidence 5) [0092B77D]
Track 11 accurately ripped (confidence 5) [A5A454A4]
Track 12 accurately ripped (confidence 4) [0DCA5095]
Track 13 accurately ripped (confidence 4) [0D277969]
Track 14 accurately ripped (confidence 4) [B443D7F4]
Track 15 accurately ripped (confidence 4) [B3A59CB5]
Track 16 accurately ripped (confidence 4) [E82E7C65]
Track 17 accurately ripped (confidence 4) [05ED3858]

All tracks accurately ripped

End of status report

==== Log checksum 3F143A80E31C07F5738AAF78E75E573A7EC31CBA8E49C194EB1209DBF6677C5E ====



_________________________________________________________________________________________


Jefferson Airplane - Original Album Classics (8CD: 1966-1972) [2x Box Sets '2008 & 2011] RE-UP

Jefferson Airplane - After Bathing At Baxters (1967)
FLAC with CUE & LOG - 343 MB | 68:28 mins | MP3 CBR 320 Kbps - 134 MB

Tracks:

01. The Ballad Of You & Me & Pooneil
02. A Small Package Of Value Will Come To You, Shortly
03. Young Girl Sunday Blues
04. Martha
05. Wild Tyme
06. The Last Wall Of The Castle
07. Rejoyce
08. Watch Her Ride
09. Spare Chaynge
10. Two Heads
11. Won't You Try / Saturday Afternoon
12. The Ballad Of You & Me & Pooneil (Alternate Version) [Bonus track]
13. Martha (Single Version) [Bonus track]
14. Two Heads (Alternate Version) [Bonus track]
15. Things Are Better In The East (Marty's Accoustic Demo) [Bonus track]

allmusic.com says: The Jefferson Airplane opened 1967 with Surrealistic Pillow and closed it with After Bathing at Baxter's, and what a difference ten months made. Bookending the year that psychedelia emerged in full bloom as a freestanding musical form, After Bathing at Baxter's was among the purest of rock's psychedelic albums, offering few concessions to popular taste and none to the needs of AM radio, which made it nowhere remotely as successful as its predecessor, but it was also a lot more daring. The album also showed a band in a state of ferment, as singer/guitarist Marty Balin largely surrendered much of his creative input in the band he'd founded, and let Paul Kantner and Grace Slick dominate the songwriting and singing on all but one cut ("Young Girl Sunday Blues"). The group had found the preceding album a little too perfect, and not fully representative of the musicians or what they were about, and they were determined to do the music their way on Baxter's; additionally, they'd begun to see how far they could take music (and music could take them) in concert, in terms of capturing variant states of consciousness.

Exact Audio Copy V1.0 beta 1 from 15. November 2010

EAC extraction logfile from 11. June 2011, 11:53

Jefferson Airplane / After Bathing At Baxters

Used drive : HL-DT-STDVDRAM GSA-H60N Adapter: 2 ID: 0

Read mode : Secure
Utilize accurate stream : Yes
Defeat audio cache : Yes
Make use of C2 pointers : No

Read offset correction : 667
Overread into Lead-In and Lead-Out : No
Fill up missing offset samples with silence : Yes
Delete leading and trailing silent blocks : No
Null samples used in CRC calculations : Yes
Used interface : Native Win32 interface for Win NT & 2000

Used output format : Internal WAV Routines
Sample format : 44.100 Hz; 16 Bit; Stereo


TOC of the extracted CD

Track | Start | Length | Start sector | End sector
––––––––––––––––––––––––––––-
1 | 0:00.00 | 4:35.21 | 0 | 20645
2 | 4:35.21 | 1:34.26 | 20646 | 27721
3 | 6:09.47 | 3:35.43 | 27722 | 43889
4 | 9:45.15 | 3:26.22 | 43890 | 59361
5 | 13:11.37 | 3:10.37 | 59362 | 73648
6 | 16:21.74 | 2:40.68 | 73649 | 85716
7 | 19:02.67 | 4:03.71 | 85717 | 104012
8 | 23:06.63 | 3:11.02 | 104013 | 118339
9 | 26:17.65 | 9:12.58 | 118340 | 159797
10 | 35:30.48 | 3:13.32 | 159798 | 174304
11 | 38:44.05 | 5:07.30 | 174305 | 197359
12 | 43:51.35 | 11:07.61 | 197360 | 247445
13 | 54:59.21 | 3:29.14 | 247446 | 263134
14 | 58:28.35 | 3:18.49 | 263135 | 278033
15 | 61:47.09 | 6:40.67 | 278034 | 308100


Range status and errors

Selected range

Filename C:\Documents and Settings\Администратор\Рабочий стол\Rip by ALLexxess\2008 Jefferson Airplane Original Album Classics (5CD Box Set RCA Records)\1967 After Bathing At Baxters\Jefferson Airplane - After Bathing At Baxters.wav

Peak level 98.8 %
Extraction speed 0.6 X
Range quality 100.0 %
Test CRC C700F0D8
Copy CRC C700F0D8
Copy OK

No errors occurred


AccurateRip summary

Track 1 accurately ripped (confidence 5) [D899B02A]
Track 2 accurately ripped (confidence 5) [ACB30D34]
Track 3 accurately ripped (confidence 5) [B25BB14B]
Track 4 accurately ripped (confidence 5) [EF4741FE]
Track 5 accurately ripped (confidence 5) [F68F95DA]
Track 6 accurately ripped (confidence 5) [F61CDDBA]
Track 7 accurately ripped (confidence 5) [9CF72C48]
Track 8 accurately ripped (confidence 5) [D08E8211]
Track 9 accurately ripped (confidence 5) [88098383]
Track 10 accurately ripped (confidence 5) [CAB10161]
Track 11 accurately ripped (confidence 5) [03212F3F]
Track 12 accurately ripped (confidence 4) [315D8E7D]
Track 13 accurately ripped (confidence 4) [83B37386]
Track 14 accurately ripped (confidence 4) [0536F77A]
Track 15 accurately ripped (confidence 4) [F9D406ED]

All tracks accurately ripped

End of status report

==== Log checksum AA20DE22622FE077665DA07BCF2AEF5150E32E28F7ED498309AC5DE1C3523313 ====



_________________________________________________________________________________________


Jefferson Airplane - Original Album Classics (8CD: 1966-1972) [2x Box Sets '2008 & 2011] RE-UP

Jefferson Airplane - Crown Of Creation (1968)
FLAC with CUE & LOG - 311 MB | 56:23 mins | MP3 CBR 320 Kbps - 127 MB

Tracks:

01. Lather
02. In Time
03. Triad
04. Star Track
05. Share A Little Joke
06. Chushingura
07. If You Feel
08. Crown Of Creation
09. Ice Cream Phoenix
10. Greasy Heart
11. The House At Pooneil Corners
12. Ribump Ba Bap Dum Dum (Instrumental) [Bonus track]
13. Would You Like A Snack [Bonus track]
14. Share A Little Joke (Mono Single Version) [Bonus track]
15. The Saga Of Sydney Spacepig [Bonus track]

allmusic.com says: The group's fourth album, appearing ten months following After Bathing at Baxter's, isn't the same kind of leap forward that Baxter's represented from Surrealistic Pillow. Indeed, in many ways, Crown of Creation is a more conservative album stylistically, opening with "Lather," a Grace Slick original that was one of the group's very last forays (and certainly their last prominent one) into a folk idiom. Much of what follows is a lot more based in electric rock, as well as steeped in elements of science fiction (specifically author John Wyndham's book The Chrysalids) in several places, but Crown of Creation was still deliberately more accessible musically than its predecessor, even as the playing became more bold and daring within more traditional song structures. Jack Casady by this time had developed one of the most prominent and distinctive bass sounds in American rock, as identifiable (if not quite as bracing) as John Entwistle's was with the Who, as demonstrated on "In Time," "Star Track," "Share a Little Joke," "If You Feel," (where he's practically a second lead instrument), and the title song, and Jorma Kaukonen's slashing, angular guitar attack was continually surprising as his snaking lead guitar parts wended their way through "Star Track" and "Share a Little Joke." The album also reflected the shifting landscape of West Coast music with its inclusion of "Triad," a David Crosby song that Crosby's own group, the Byrds, had refused to release – its presence (the only extant version of the song for a number of years) was a forerunner of the sound that would later be heard on Crosby's own debut solo album, If I Could Only Remember My Name (on which Slick, Paul Kantner, and Casady would appear). The overall album captured the group's rapidly evolving, very heavy live sound within the confines of some fairly traditional song structures, and left ample room for Slick and Marty Balin to express themselves vocally, with Balin turning in one of his most heartfelt and moving performances on "If You Feel." "Ice Cream Phoenix" pulses with energy and "Greasy Heart" became a concert standard for the group – the studio original of the latter is notable for Slick's most powerful vocal performance since "Somebody to Love." And the album's big finish, "The House at Pooneil Corners," seemed to fire on all cylinders, their amps cranked up to ten (maybe 11 for Casady), and Balin, Slick, and Kantner stretching out on the disjointed yet oddly compelling tune and lyrics. It didn't work 100 percent, but it made for a shattering finish to the album. Crown of Creation has been reissued on CD several times, including a Mobile Fidelity audiophile edition at the start of the '90s, but in 2003, RCA released a remastered edition with four bonus tracks from the same sessions including the mono single mix of "Share a Little Joke," the previously unreleased 8 minute "The Saga of Sydney Spacepig," Spencer Dryden's co-authored "Ribump Ba Bap Dum Dum," which is a spaced-out assembly of noises, effects, and pop-culture catch-phrases, and the more accessible "Would You Like a Snack?," an atonal piece of musical scatology featuring Grace Slick and co-authored by Slick and Frank Zappa.

Exact Audio Copy V1.0 beta 1 from 15. November 2010

EAC extraction logfile from 11. June 2011, 13:31

Jefferson Airplane / Crown Of Creation

Used drive : HL-DT-STDVDRAM GSA-H60N Adapter: 2 ID: 0

Read mode : Secure
Utilize accurate stream : Yes
Defeat audio cache : Yes
Make use of C2 pointers : No

Read offset correction : 667
Overread into Lead-In and Lead-Out : No
Fill up missing offset samples with silence : Yes
Delete leading and trailing silent blocks : No
Null samples used in CRC calculations : Yes
Used interface : Native Win32 interface for Win NT & 2000

Used output format : Internal WAV Routines
Sample format : 44.100 Hz; 16 Bit; Stereo


TOC of the extracted CD

Track | Start | Length | Start sector | End sector
––––––––––––––––––––––––––––-
1 | 0:00.00 | 2:57.67 | 0 | 13341
2 | 2:57.67 | 4:14.15 | 13342 | 32406
3 | 7:12.07 | 4:55.62 | 32407 | 54593
4 | 12:07.69 | 3:11.42 | 54594 | 68960
5 | 15:19.36 | 3:09.71 | 68961 | 83206
6 | 18:29.32 | 1:20.52 | 83207 | 89258
7 | 19:50.09 | 3:21.62 | 89259 | 104395
8 | 23:11.71 | 2:54.25 | 104396 | 117470
9 | 26:06.21 | 3:02.54 | 117471 | 131174
10 | 29:09.00 | 3:26.67 | 131175 | 146691
11 | 32:35.67 | 5:54.57 | 146692 | 173298
12 | 38:30.49 | 1:32.34 | 173299 | 180232
13 | 40:03.08 | 2:40.27 | 180233 | 192259
14 | 42:43.35 | 3:09.18 | 192260 | 206452
15 | 45:52.53 | 10:30.12 | 206453 | 253714


Range status and errors

Selected range

Filename C:\Documents and Settings\Администратор\Рабочий стол\Rip by ALLexxess\2008 Jefferson Airplane Original Album Classics (5CD Box Set RCA Records)\1968 Crown Of Creation\Jefferson Airplane - Crown Of Creation.wav

Peak level 98.8 %
Extraction speed 1.1 X
Range quality 100.0 %
Test CRC B9777A22
Copy CRC B9777A22
Copy OK

No errors occurred


AccurateRip summary

Track 1 accurately ripped (confidence 5) [6C0D2573]
Track 2 accurately ripped (confidence 5) [F8470258]
Track 3 accurately ripped (confidence 5) [041E7C99]
Track 4 accurately ripped (confidence 5) [9B146102]
Track 5 accurately ripped (confidence 5) [8CF96FC3]
Track 6 accurately ripped (confidence 5) [B5965ACC]
Track 7 accurately ripped (confidence 5) [19FE8CDE]
Track 8 accurately ripped (confidence 5) [F28AA0F6]
Track 9 accurately ripped (confidence 5) [98C77482]
Track 10 accurately ripped (confidence 5) [F6DA4ACC]
Track 11 accurately ripped (confidence 5) [2AAEE605]
Track 12 accurately ripped (confidence 4) [1374C1F4]
Track 13 accurately ripped (confidence 4) [1120156E]
Track 14 accurately ripped (confidence 4) [45A52CBE]
Track 15 accurately ripped (confidence 4) [D284206D]

All tracks accurately ripped

End of status report

==== Log checksum DEEED2D9D23EDB02C9067DF06AA7E3BCFE685D86E169989A2E9852EF8ACB1455 ====



_________________________________________________________________________________________


Jefferson Airplane - Original Album Classics (8CD: 1966-1972) [2x Box Sets '2008 & 2011] RE-UP

Jefferson Airplane - Bless Its Pointed Little Head (1969)
FLAC with CUE & LOG - 407 MB | 65:23 mins | MP3 CBR 320 Kbps - 129 MB

Tracks:

01. Clergy
02. 3/5 Of A Mile In 10 Seconds
03. Somebody To Love
04. Fat Angel
05. Rock Me Baby
06. The Other Side Of This Life
07. It's No Secret
08. Plastic Fantastic Lover
09. Turn Out The Lights
10. Bear Melt
11. Today [Bonus track]
12. Watch Her Ride [Bonus track]
13. Won't You Try [Bonus track]

allmusic.com says: Jefferson Airplane's first live album demonstrated the group's development as concert performers, taking a number of songs that had been performed in concise, pop-oriented versions on their early albums – "3/5's of a Mile in 10 Seconds," "Somebody to Love," "It's No Secret," "Plastic Fantastic Lover" – and rendering them in arrangements that were longer, harder rocking, and more densely textured, especially in terms of the guitar and basslines constructed by Jorma Kaukonen and Jack Casady. The group's three-part vocal harmonizing and dueling was on display during such songs as a nearly seven-minute version of Fred Neil's folk-blues standard "The Other Side of This Life," here transformed into a swirling rocker. The album emphasized the talents of Kaukonen and singer Marty Balin over the team of Paul Kantner and Grace Slick, who had tended to dominate recent records: the blues song "Rock Me Baby" was a dry run for Hot Tuna, the band Kaukonen and Casady would form in two years, and Balin turned in powerful vocal performances on several of his own compositions, notably "It's No Secret." Jefferson Airplane was still at its best in concise, driving numbers, rather than in the jams on Donovan's "Fat Angel" (running 7:35) or the group improv "Bear Melt" (11:21); they were just too intense to stretch out comfortably. But Bless Its Pointed Little Head served an important function in the group's discography, demonstrating that their live work had a distinctly different focus and flavor from their studio recordings.

Exact Audio Copy V1.0 beta 1 from 15. November 2010

EAC extraction logfile from 11. June 2011, 14:25

Jefferson Airplane / Bless Its Pointed Little Head

Used drive : HL-DT-STDVDRAM GSA-H60N Adapter: 2 ID: 0

Read mode : Secure
Utilize accurate stream : Yes
Defeat audio cache : Yes
Make use of C2 pointers : No

Read offset correction : 667
Overread into Lead-In and Lead-Out : No
Fill up missing offset samples with silence : Yes
Delete leading and trailing silent blocks : No
Null samples used in CRC calculations : Yes
Used interface : Native Win32 interface for Win NT & 2000

Used output format : Internal WAV Routines
Sample format : 44.100 Hz; 16 Bit; Stereo


TOC of the extracted CD

Track | Start | Length | Start sector | End sector
––––––––––––––––––––––––––––-
1 | 0:00.00 | 1:35.11 | 0 | 7135
2 | 1:35.11 | 4:39.32 | 7136 | 28092
3 | 6:14.43 | 4:15.68 | 28093 | 47285
4 | 10:30.36 | 7:36.41 | 47286 | 81526
5 | 18:07.02 | 7:48.41 | 81527 | 116667
6 | 25:55.43 | 6:45.15 | 116668 | 147057
7 | 32:40.58 | 3:31.23 | 147058 | 162905
8 | 36:12.06 | 3:53.05 | 162906 | 180385
9 | 40:05.11 | 1:24.55 | 180386 | 186740
10 | 41:29.66 | 11:27.36 | 186741 | 238301
11 | 52:57.27 | 3:45.01 | 238302 | 255177
12 | 56:42.28 | 3:19.15 | 255178 | 270117
13 | 60:01.43 | 5:29.72 | 270118 | 294864


Range status and errors

Selected range

Filename C:\Documents and Settings\Администратор\Рабочий стол\Rip by ALLexxess\2008 Jefferson Airplane Original Album Classics (5CD Box Set RCA Records)\1969 Bless Its Pointed Little Head\Jefferson Airplane - Bless Its Pointed Little He

Peak level 100.0 %
Extraction speed 0.5 X
Range quality 100.0 %
Test CRC 4501CE5E
Copy CRC 4501CE5E
Copy OK

No errors occurred


AccurateRip summary

Track 1 accurately ripped (confidence 4) [7C951AD8]
Track 2 accurately ripped (confidence 4) [62431C6C]
Track 3 accurately ripped (confidence 4) [EA74E473]
Track 4 accurately ripped (confidence 4) [05B2E44E]
Track 5 accurately ripped (confidence 4) [CBF138A3]
Track 6 accurately ripped (confidence 4) [58DAC9DB]
Track 7 accurately ripped (confidence 4) [AB445DFD]
Track 8 accurately ripped (confidence 4) [BA820B37]
Track 9 accurately ripped (confidence 4) [F5C17ECE]
Track 10 accurately ripped (confidence 4) [D9DC3864]
Track 11 accurately ripped (confidence 3) [3882B51E]
Track 12 accurately ripped (confidence 3) [46CABE30]
Track 13 accurately ripped (confidence 3) [A3ABA026]

All tracks accurately ripped

End of status report

==== Log checksum 0B4DB7898723D24B9B5895D0D165D5EFA4A9F6A07499F1032070E6901AF9D704 ====



_________________________________________________________________________________________


Jefferson Airplane - Original Album Classics (8CD: 1966-1972) [2x Box Sets '2008 & 2011] RE-UP

Jefferson Airplane - Volunteers (1969)
FLAC with CUE & LOG - 434 MB | 70:02 mins | MP3 CBR 320 Kbps - 159 MB

Tracks:

01. We Can Be Together
02. Good Shepherd
03. The Farm
04. Hey Fredrick
05. Turn My Life Down
06. Wooden Ships
07. Eskimo Blue Day
08. A Song For All Seasons
09. Meadowlands
10. Volunteers
11. Good Shepherd (Live) [Bonus track]
12. Somebody To Love (Live) [Bonus track]
13. Plastic Fantastic Lover (Live) [Bonus track]
14. Wooden Ships (Live) [Bonus track]
15. Volunteers (Live) [Bonus track]

allmusic.com says: Controversial at the time, delayed because of fights with the record company over lyrical content and the original title (Volunteers of America), Volunteers was a powerful release that neatly closed out and wrapped up the '60s. Here, the Jefferson Airplane presents itself in full revolutionary rhetoric, issuing a call to "tear down the walls" and "get it on together." "We Can Be Together" and "Volunteers" bookend the album, offering musical variations on the same chord progression and lyrical variations on the same theme. Between these politically charged rock anthems, the band offers a mix of words and music that reflect the competing ideals of simplicity and getting "back to the earth," and overthrowing greed and exploitation through political activism, adding a healthy dollop of psychedelic sci-fi for texture. Guitarist Jorma Kaukonen's beautiful arrangement of the traditional "Good Shepherd" is a standout here, and Jerry Garcia's pedal steel guitar gives "The Farm" an appropriately rural feel. The band's version of "Wooden Ships" is much more eerie than that released earlier in the year by Crosby, Stills & Nash. Oblique psychedelia is offered here via Grace Slick's "Hey Frederick" and ecologically tinged "Eskimo Blue Day." Drummer Spencer Dryden gives an inside look at the state of the band in the country singalong "A Song for All Seasons."

The musical arrangements here are quite potent. Nicky Hopkins' distinctive piano highlights a number of tracks, and Kaukonen's razor-toned lead guitar is the recording's unifying force, blazing through the mix, giving the album its distinctive sound. Although the political bent of the lyrics may seem dated to some, listening to Volunteers is like opening a time capsule on the end of an era, a time when young people still believed music had the power to change the world.

Exact Audio Copy V1.0 beta 1 from 15. November 2010

EAC extraction logfile from 11. June 2011, 18:18

Jefferson Airplane / Volunteers

Used drive : HL-DT-STDVDRAM GSA-H60N Adapter: 2 ID: 0

Read mode : Secure
Utilize accurate stream : Yes
Defeat audio cache : Yes
Make use of C2 pointers : No

Read offset correction : 667
Overread into Lead-In and Lead-Out : No
Fill up missing offset samples with silence : Yes
Delete leading and trailing silent blocks : No
Null samples used in CRC calculations : Yes
Used interface : Native Win32 interface for Win NT & 2000

Used output format : Internal WAV Routines
Sample format : 44.100 Hz; 16 Bit; Stereo


TOC of the extracted CD

Track | Start | Length | Start sector | End sector
––––––––––––––––––––––––––––-
1 | 0:00.00 | 5:47.38 | 0 | 26062
2 | 5:47.38 | 4:22.60 | 26063 | 45772
3 | 10:10.23 | 3:13.72 | 45773 | 60319
4 | 13:24.20 | 8:34.06 | 60320 | 98875
5 | 21:58.26 | 2:57.00 | 98876 | 112150
6 | 24:55.26 | 6:28.22 | 112151 | 141272
7 | 31:23.48 | 6:36.10 | 141273 | 170982
8 | 37:59.58 | 3:29.49 | 170983 | 186706
9 | 41:29.32 | 1:04.14 | 186707 | 191520
10 | 42:33.46 | 2:08.35 | 191521 | 201155
11 | 44:42.06 | 7:20.19 | 201156 | 234174
12 | 52:02.25 | 4:10.68 | 234175 | 252992
13 | 56:13.18 | 3:21.72 | 252993 | 268139
14 | 59:35.15 | 7:00.28 | 268140 | 299667
15 | 66:35.43 | 3:26.46 | 299668 | 315163


Range status and errors

Selected range

Filename C:\Documents and Settings\Администратор\Рабочий стол\Rip by ALLexxess\2011 Jefferson Airplane Original Album Classics (3CD Box Set RCA Records)\1969 Volunteers\Jefferson Airplane - Volunteers.wav

Peak level 100.0 %
Extraction speed 0.3 X
Range quality 100.0 %
Test CRC A6E25ADF
Copy CRC A6E25ADF
Copy OK

No errors occurred


AccurateRip summary

Track 1 cannot be verified as accurate (confidence 41) [1A50F8F5], AccurateRip returned [3F0EC05A]
Track 2 cannot be verified as accurate (confidence 41) [CB0BE662], AccurateRip returned [93D92F65]
Track 3 cannot be verified as accurate (confidence 41) [8A9D3DEF], AccurateRip returned [ACD76893]
Track 4 cannot be verified as accurate (confidence 41) [9CEEC3BB], AccurateRip returned [A84FF0FB]
Track 5 cannot be verified as accurate (confidence 42) [EC471D3D], AccurateRip returned [8788072D]
Track 6 cannot be verified as accurate (confidence 42) [A668AAF5], AccurateRip returned [8E593CA5]
Track 7 cannot be verified as accurate (confidence 41) [8C74FA26], AccurateRip returned [982B47B2]
Track 8 cannot be verified as accurate (confidence 41) [6C2FE125], AccurateRip returned [B38D2AED]
Track 9 cannot be verified as accurate (confidence 41) [7A2BBE81], AccurateRip returned [A29DBCFA]
Track 10 cannot be verified as accurate (confidence 42) [81C2B10D], AccurateRip returned [02BF2094]
Track 11 cannot be verified as accurate (confidence 40) [6CAE6C38], AccurateRip returned [7F956771]
Track 12 cannot be verified as accurate (confidence 39) [098BC886], AccurateRip returned [6DAFE567]
Track 13 cannot be verified as accurate (confidence 39) [AE7D17B8], AccurateRip returned [B70C866A]
Track 14 cannot be verified as accurate (confidence 40) [ABF58997], AccurateRip returned [AF260207]
Track 15 cannot be verified as accurate (confidence 40) [DBA72808], AccurateRip returned [5D4EB8D0]

No tracks could be verified as accurate
You may have a different pressing from the one(s) in the database

End of status report

==== Log checksum 2FF2D2C2CB483BD025094CC89A4CB272F52A356318771408413221367B8627C9 ====



_________________________________________________________________________________________


Jefferson Airplane - Original Album Classics (8CD: 1966-1972) [2x Box Sets '2008 & 2011] RE-UP

Jefferson Airplane - Bark (1971)
FLAC with CUE & LOG - 248 MB | 44:53 mins | MP3 CBR 320 Kbps - 102 MB

Tracks:

01. When The Earth Moves Again
02. Feel So Good
03. Crazy Miranda
04. Pretty As You Feel
05. Wild Turkey
06. Law Man
07. Rock And Roll Island
08. Third Week In The Chelsea
09. Never Argue With A German If You're Tired Or European Song
10. Thunk
11. War Movie

allmusic.com says: By the time of Bark, personnel changes had gutted much of the original version of Jefferson Airplane, especially with the departure of Marty Balin. Paul Kantner and Grace Slick remained, but their compositions were growing increasingly ill-focused, and Jorma Kaukonen and new drummer Joey Covington were ill-equipped to pick up the songwriting slack. The result was an album that bore hallmarks of the classic Airplane sound, but lacked any classic Airplane songs. That said, the record isn't as bad as many reviewers have made it out to be. It's just mediocre, with little that sticks in the memory, despite occasional nice moments in cuts like Covington's "Pretty as You Feel" and Kaukonen's delicate "Third Week in the Chelsea."

Exact Audio Copy V1.0 beta 1 from 15. November 2010

EAC extraction logfile from 11. June 2011, 19:14

Jefferson Airplane / Bark

Used drive : HL-DT-STDVDRAM GSA-H60N Adapter: 2 ID: 0

Read mode : Secure
Utilize accurate stream : Yes
Defeat audio cache : Yes
Make use of C2 pointers : No

Read offset correction : 667
Overread into Lead-In and Lead-Out : No
Fill up missing offset samples with silence : Yes
Delete leading and trailing silent blocks : No
Null samples used in CRC calculations : Yes
Used interface : Native Win32 interface for Win NT & 2000

Used output format : Internal WAV Routines
Sample format : 44.100 Hz; 16 Bit; Stereo


TOC of the extracted CD

Track | Start | Length | Start sector | End sector
––––––––––––––––––––––––––––-
1 | 0:00.00 | 3:57.20 | 0 | 17794
2 | 3:57.20 | 4:39.65 | 17795 | 38784
3 | 8:37.10 | 3:26.12 | 38785 | 54246
4 | 12:03.22 | 4:33.38 | 54247 | 74759
5 | 16:36.60 | 4:49.12 | 74760 | 96446
6 | 21:25.72 | 2:45.23 | 96447 | 108844
7 | 24:11.20 | 3:46.65 | 108845 | 125859
8 | 27:58.10 | 4:37.02 | 125860 | 146636
9 | 32:35.12 | 4:35.22 | 146637 | 167283
10 | 37:10.34 | 3:01.21 | 167284 | 180879
11 | 40:11.55 | 4:41.72 | 180880 | 202026


Range status and errors

Selected range

Filename C:\Documents and Settings\Администратор\Рабочий стол\Rip by ALLexxess\2011 Jefferson Airplane Original Album Classics (3CD Box Set RCA Records)\1971 Bark\Jefferson Airplane - Bark.wav

Peak level 89.7 %
Extraction speed 0.6 X
Range quality 99.9 %
Test CRC C9964B9D
Copy CRC C9964B9D
Copy OK

No errors occurred


AccurateRip summary

Track 1 cannot be verified as accurate (confidence 9) [62354A14], AccurateRip returned [BC6A168E]
Track 2 cannot be verified as accurate (confidence 9) [230017E0], AccurateRip returned [481A603E]
Track 3 cannot be verified as accurate (confidence 9) [E4AE32E8], AccurateRip returned [8CA44610]
Track 4 cannot be verified as accurate (confidence 9) [497238CE], AccurateRip returned [663DB47E]
Track 5 cannot be verified as accurate (confidence 9) [39C7FEEB], AccurateRip returned [1D8F01F5]
Track 6 cannot be verified as accurate (confidence 8) [A5675CC1], AccurateRip returned [8EB21AFF]
Track 7 cannot be verified as accurate (confidence 9) [D205E9DC], AccurateRip returned [EDC5B0C8]
Track 8 cannot be verified as accurate (confidence 9) [29CFA9F1], AccurateRip returned [74A9B309]
Track 9 cannot be verified as accurate (confidence 9) [91E2905A], AccurateRip returned [653C7512]
Track 10 cannot be verified as accurate (confidence 9) [2DF43431], AccurateRip returned [ECFED223]
Track 11 cannot be verified as accurate (confidence 9) [C6B98A28], AccurateRip returned [BD58AA87]

No tracks could be verified as accurate
You may have a different pressing from the one(s) in the database

End of status report

==== Log checksum 89F3A283E78C6316809E9F9CC04709354DB2148A9632BA585052586DA310B2C4 ====



_________________________________________________________________________________________


Jefferson Airplane - Original Album Classics (8CD: 1966-1972) [2x Box Sets '2008 & 2011] RE-UP

Jefferson Airplane - Long John Silver (1972)
FLAC with CUE & LOG - 280 MB | 41:54 mins | MP3 CBR 320 Kbps - 96 MB

Tracks:

01. Long John Silver
02. Aerie (Gang Of Eagles)
03. Twilight Double Leader
04. Milk Train
05. The Son Of Jesus
06. Easter
07. Trial By Fire
08. Alexander The Medium
09. Eat Starch Mom

allmusic.com says: The final Jefferson Airplane studio album – if their half-hearted 'reunion' from 1989 isn't (and really shouldn't be) counted – presented yet another alteration in the band's lineup. Not only would Long John Silver (1972) be the second project minus co-founder Marty Balin (vocals), who left after Volunteers (1969), but Joey Covington (drums) also split before the long-player was completed, forming his own combo, the short-lived Black Kangaroo. Covington contributes to a pair of Paul Kantner's (guitar/vocals) better offerings "Twilight Double Leader" and "Story of Jesus," while Hot Tuna kinsman Sammy Piazza (drums) lends a hand to Jorma Kaukonen's (guitar/vocals) whimsical "Trial by Fire." Eventually, Turtles' and Crosby, Stills, Nash & Young percussionist John Barbata (drums) would fill the drummer's stool for the remainder of the Airplane's rapid descent. He would likewise make the transition alongside Kantner, Grace Slick (piano/vocals) and Papa John Creach (violin) into the brave new world of Jefferson Starship. Even more so than on their previous platter, Bark (1971), the material featured on Long John Silver rather blatantly exposes the two disparate factions to have emerged from the once unified Airplane. The Kaukonen/Jack Casady (bass) offshoot – à la Hot Tuna – and Kantner/Slick, whose Blows Against the Empire (1970) from two years earlier clearly pointed to the exceedingly cerebral approach evident on Slick's indistinct "Aerie (Gang of Eagles)" and "Easter?," or the mid-tempo meandering of Kantner's "Alexander the Medium." The edgy, blues-infused rocker "Milk Train" is one of the few standouts on Long John Silver, giving Creach a platform for his ever-adaptable and soaring fiddle. Quite possibly the heaviest selection on the package is the Slick/Kaukonen co-composition "Eat Starch Mom." Appropriately, it concludes the effort on a positive charge with the Airplane hitting on all cylinders before landing the craft (for all intents and purposes) the last time. When the LP hit store shelves in the summer of 1972, it became instantly notorious for the cover that transformed into a cigar (read: stash) box. The inner sleeve went as far as reproducing the image of tightly compressed domestic ganja, replete with sticks, seeds and stems.

Exact Audio Copy V1.0 beta 1 from 15. November 2010

EAC extraction logfile from 11. June 2011, 19:55

Jefferson Airplane / Long John Silver

Used drive : HL-DT-STDVDRAM GSA-H60N Adapter: 2 ID: 0

Read mode : Secure
Utilize accurate stream : Yes
Defeat audio cache : Yes
Make use of C2 pointers : No

Read offset correction : 667
Overread into Lead-In and Lead-Out : No
Fill up missing offset samples with silence : Yes
Delete leading and trailing silent blocks : No
Null samples used in CRC calculations : Yes
Used interface : Native Win32 interface for Win NT & 2000

Used output format : Internal WAV Routines
Sample format : 44.100 Hz; 16 Bit; Stereo


TOC of the extracted CD

Track | Start | Length | Start sector | End sector
––––––––––––––––––––––––––––-
1 | 0:00.00 | 4:26.24 | 0 | 19973
2 | 4:26.24 | 3:56.45 | 19974 | 37718
3 | 8:22.69 | 4:45.00 | 37719 | 59093
4 | 13:07.69 | 3:22.30 | 59094 | 74273
5 | 16:30.24 | 5:30.40 | 74274 | 99063
6 | 22:00.64 | 4:02.48 | 99064 | 117261
7 | 26:03.37 | 4:35.21 | 117262 | 137907
8 | 30:38.58 | 6:40.14 | 137908 | 167921
9 | 37:18.72 | 4:35.30 | 167922 | 188576


Range status and errors

Selected range

Filename C:\Documents and Settings\Администратор\Рабочий стол\Rip by ALLexxess\2011 Jefferson Airplane Original Album Classics (3CD Box Set RCA Records)\1972 Long John Silver\Jefferson Airplane - Long John Silver.wav

Peak level 98.8 %
Extraction speed 0.6 X
Range quality 100.0 %
Test CRC D13C1D06
Copy CRC D13C1D06
Copy OK

No errors occurred


AccurateRip summary

Track 1 not present in database
Track 2 not present in database
Track 3 not present in database
Track 4 not present in database
Track 5 not present in database
Track 6 not present in database
Track 7 not present in database
Track 8 not present in database
Track 9 not present in database

None of the tracks are present in the AccurateRip database

End of status report

==== Log checksum 91D398B1C6954670C7F766A6BC2277525476002404E10BF0982E7FBA6BA03010 ====


The first five CD is Box Set from 2008.
The last three CD is Box Set from 2011.
Dynamic range(s): 11 / 11 / 11 / 12 / 11 / 8 / 12 / 8.
all thanks goes to ALLexxess!

Jefferson Starship - Original Album Classics (5CD '2009)

Jefferson Airplane Takes Off (1966)
FLAC Lossless | MP3 320

Surrealistic Pillow (1967)
FLAC Lossless | MP3 320

After Bathing At Baxters (1967)
FLAC Lossless | MP3 320

Crown Of Creation (1968)
FLAC Lossless | MP3 320

Bless Its Pointed Little Head (1969)
FLAC Lossless | MP3 320

Volunteers (1969)
FLAC Lossless | MP3 320

Bark (1971)
FLAC Lossless | MP3 320

Long John Silver (1972)
FLAC Lossless | MP3 320

All Covers


Jefferson Airplane Takes Off (1966)
FLAC Lossless | MP3 320

Surrealistic Pillow (1967)
FLAC Lossless | MP3 320

After Bathing At Baxters (1967)
FLAC Lossless | MP3 320

Crown Of Creation (1968)
FLAC Lossless | MP3 320

Bless Its Pointed Little Head (1969)
FLAC Lossless | MP3 320

Volunteers (1969)
FLAC Lossless | MP3 320

Bark (1971)
FLAC Lossless | MP3 320

Long John Silver (1972)
FLAC Lossless | MP3 320

All Covers