Jason Marsalis Vibes Quartet - The 21st Century Trad Band (2014) {Basin Street Records BSR 0304-2}

Posted By: ruskaval
Jason Marsalis Vibes Quartet - The 21st Century Trad Band (2014) {Basin Street Records BSR 0304-2}

Jason Marsalis Vibes Quartet - The 21st Century Trad Band (2014) {Basin Street Records BSR 0304-2}
EAC rip (secure mode) | FLAC (tracks)+CUE+LOG -> 427 Mb | MP3 @320 -> 182 Mb
Full Artwork @ 300 dpi (jpg) -> 9 Mb | 5% repair rar
© 2014 Basin Street Records | BSR 0304-2
Jazz / Post Bop / Modern Jazz / Vibes

Not just vibraphone, but glockenspiel, xylophone, marimba and even tubular bells. The youngest of the remarkable Marsalis brothers plays them all, sometimes multi-tracking several at once. This is an engaging set, tuneful and good-humoured, with titles like Blessed Unrest and The Man With Two Left Feet. Marsalis has a wonderfully crisp technique and a flair for inventing catchy melodies. As for the title number, you’ve never heard When the Saints Go Marching In sound anything like this. The rest of the quartet – pianist Austin Johnson, bassist Will Goble and drummer David Potter – really shine here.
Jason Marsalis Vibes Quartet - The 21st Century Trad Band (2014) {Basin Street Records BSR 0304-2}


Basin Street Records INFO

Personnel:
Jason Marsalis - Glockenspiel, Marimba, Tubular Bells, Vibes, Xylophone
Austin Johnson - Piano
Will Goble - Bass
David Potter - Drums

tracklist:
01 - Discipline Meets The Offbeat One
02 - Offbeat Personality
03 - The Man With Two Feet
04 - Nights In Brooklyn
05 - 18th Letter Of Silence
06 - Blues For Now
07 - Interzone
08 - BP Shakedown
09 - Blessed Unrest
10 - 21st Century Trad Band
11 - Calm Before The Storm
12 - Ratio Man

Exact Audio Copy V1.0 beta 3 from 29. August 2011

EAC extraction logfile from 19. November 2014, 23:27

Jason Marsalis / 21st Century Trad Band

Used drive : SONY DVD RW DRU-810A Adapter: 1 ID: 0

Read mode : Secure
Utilize accurate stream : Yes
Defeat audio cache : Yes
Make use of C2 pointers : No

Read offset correction : 618
Overread into Lead-In and Lead-Out : No
Fill up missing offset samples with silence : Yes
Delete leading and trailing silent blocks : No
Null samples used in CRC calculations : Yes
Used interface : Native Win32 interface for Win NT & 2000
Gap handling : Appended to previous track

Used output format : User Defined Encoder
Selected bitrate : 128 kBit/s
Quality : High
Add ID3 tag : No
Command line compressor : C:\Program Files (x86)\Exact Audio Copy\Flac\flac.exe
Additional command line options : -8 -V -T "ARTIST=%artist%" -T "TITLE=%title%" -T "ALBUM=%albumtitle%" -T "DATE=%year%" -T "TRACKNUMBER=%tracknr%" -T "TOTALTRACKS=%numtracks%" -T "GENRE=%genre%" -T "ALBUMARTIST=%albumartist%" -T "ALBUM ARTIST=%albumartist%" -T "COMMENT=EAC Secure Mode, Test & Copy, AccurateRip, FLAC -8" %source%


TOC of the extracted CD

Track | Start | Length | Start sector | End sector
––––––––––––––––––––––––––––-
1 | 0:00.00 | 1:09.62 | 0 | 5236
2 | 1:09.62 | 7:21.45 | 5237 | 38356
3 | 8:31.32 | 6:10.49 | 38357 | 66155
4 | 14:42.06 | 6:11.14 | 66156 | 93994
5 | 20:53.20 | 6:04.32 | 93995 | 121326
6 | 26:57.52 | 4:19.01 | 121327 | 140752
7 | 31:16.53 | 9:19.65 | 140753 | 182742
8 | 40:36.43 | 5:54.60 | 182743 | 209352
9 | 46:31.28 | 6:45.58 | 209353 | 239785
10 | 53:17.11 | 5:48.42 | 239786 | 265927
11 | 59:05.53 | 8:43.04 | 265928 | 305156
12 | 67:48.57 | 9:32.22 | 305157 | 348078


Track 1

Filename F:\New Rips\Jason Marsalis - 21st Century Trad Band (2014) [FLAC]\01 - Discipline Meets The Offbeat One.wav

Pre-gap length 0:00:02.00

Peak level 60.0 %
Extraction speed 3.5 X
Track quality 100.0 %
Test CRC 63710A22
Copy CRC 63710A22
Track not present in AccurateRip database
Copy OK

Track 2

Filename F:\New Rips\Jason Marsalis - 21st Century Trad Band (2014) [FLAC]\02 - Offbeat Personality.wav

Peak level 94.9 %
Extraction speed 5.5 X
Track quality 100.0 %
Test CRC D4C62AAE
Copy CRC D4C62AAE
Track not present in AccurateRip database
Copy OK

Track 3

Filename F:\New Rips\Jason Marsalis - 21st Century Trad Band (2014) [FLAC]\03 - The Man With Two Feet.wav

Pre-gap length 0:00:01.07

Peak level 95.5 %
Extraction speed 6.1 X
Track quality 100.0 %
Test CRC 11254EC7
Copy CRC 11254EC7
Track not present in AccurateRip database
Copy OK

Track 4

Filename F:\New Rips\Jason Marsalis - 21st Century Trad Band (2014) [FLAC]\04 - Nights In Brooklyn.wav

Pre-gap length 0:00:01.61

Peak level 79.0 %
Extraction speed 6.0 X
Track quality 99.9 %
Test CRC 9F73758E
Copy CRC 9F73758E
Track not present in AccurateRip database
Copy OK

Track 5

Filename F:\New Rips\Jason Marsalis - 21st Century Trad Band (2014) [FLAC]\05 - 18th Letter Of Silence.wav

Pre-gap length 0:00:01.58

Peak level 89.0 %
Extraction speed 7.1 X
Track quality 100.0 %
Test CRC 7DC2C96A
Copy CRC 7DC2C96A
Track not present in AccurateRip database
Copy OK

Track 6

Filename F:\New Rips\Jason Marsalis - 21st Century Trad Band (2014) [FLAC]\06 - Blues For Now.wav

Pre-gap length 0:01:41.35

Peak level 87.2 %
Extraction speed 7.3 X
Track quality 100.0 %
Test CRC A465E6C0
Copy CRC A465E6C0
Track not present in AccurateRip database
Copy OK

Track 7

Filename F:\New Rips\Jason Marsalis - 21st Century Trad Band (2014) [FLAC]\07 - Interzone.wav

Peak level 97.4 %
Extraction speed 8.3 X
Track quality 100.0 %
Test CRC AF01B4BD
Copy CRC AF01B4BD
Track not present in AccurateRip database
Copy OK

Track 8

Filename F:\New Rips\Jason Marsalis - 21st Century Trad Band (2014) [FLAC]\08 - BP Shakedown.wav

Pre-gap length 0:01:14.62

Peak level 95.5 %
Extraction speed 8.5 X
Track quality 100.0 %
Test CRC 172171AF
Copy CRC 172171AF
Track not present in AccurateRip database
Copy OK

Track 9

Filename F:\New Rips\Jason Marsalis - 21st Century Trad Band (2014) [FLAC]\09 - Blessed Unrest.wav

Pre-gap length 0:00:00.47

Peak level 83.3 %
Extraction speed 8.9 X
Track quality 100.0 %
Test CRC 7B7C5428
Copy CRC 7B7C5428
Track not present in AccurateRip database
Copy OK

Track 10

Filename F:\New Rips\Jason Marsalis - 21st Century Trad Band (2014) [FLAC]\10 - 21st Century Trad Band.wav

Pre-gap length 0:00:01.16

Peak level 97.7 %
Extraction speed 8.0 X
Track quality 99.9 %
Test CRC 94B8A2E5
Copy CRC 94B8A2E5
Track not present in AccurateRip database
Copy OK

Track 11

Filename F:\New Rips\Jason Marsalis - 21st Century Trad Band (2014) [FLAC]\11 - Calm Before The Storm.wav

Pre-gap length 0:00:02.04

Peak level 83.4 %
Extraction speed 9.8 X
Track quality 100.0 %
Test CRC 052DFEEA
Copy CRC 052DFEEA
Track not present in AccurateRip database
Copy OK

Track 12

Filename F:\New Rips\Jason Marsalis - 21st Century Trad Band (2014) [FLAC]\12 - Ratio Man.wav

Pre-gap length 0:01:41.13

Peak level 94.4 %
Extraction speed 10.3 X
Track quality 100.0 %
Test CRC 4773BA8E
Copy CRC 4773BA8E
Track not present in AccurateRip database
Copy OK


None of the tracks are present in the AccurateRip database

No errors occurred

End of status report

–– CUETools DB Plugin V2.1.3

[CTDB TOCID: YbyQrAbdydRKcFRfORv2lCM_Q1E-] disk not present in database, Submit result: YbyQrAbdydRKcFRfORv2lCM_Q1E- has been uploaded


==== Log checksum E4DC9E75C6D98E02D30CC9352C6924C6C0F742C06960A127F0ED04C8967842E5 ====


Jason Marsalis Vibes Quartet - The 21st Century Trad Band (2014) {Basin Street Records BSR 0304-2}

Jason Marsalis Vibes Quartet - The 21st Century Trad Band (2014) {Basin Street Records BSR 0304-2}


All thanks goes to the original releaser!