Subcategories

Hot Tuna - Original Album Classics (2011) [5CD Box Set] RE-UP

Posted By: perfecta
Hot Tuna - Original Album Classics (2011) [5CD Box Set] RE-UP

Hot Tuna - Original Album Classics (2011) [5CD Box Set]
5x EAC-FLAC Images with CUEs & LOGs - 1,29 GB | Full PNG Scans | MP3 CBR 320 Kbps - 523 MB
Blues-Rock | Total Time - 227:14 minutes | Label: Grunt Records / RCA / Legacy | Cat. # 88691901282

Hot Tuna is an American blues-rock band formed by bassist Jack Casady and guitarist Jorma Kaukonen as a spin-off of JEFFERSON AIRPLANE. It plays acoustic and electric versions of original and traditional blues songs. This UK five CD set containing a quintet of albums packaged in mini LP sleeves, all housed in an attractive slipcase. Includes the albums Hot Tuna: Live, Burgers, The Phosphorescent Rat, America's Choice, and Hoppkorv.

Hot Tuna @ Wikipedia

Hot Tuna - Original Album Classics (2011) [5CD Box Set] RE-UP

allmusic.com biography: Begun as an acoustic spinoff of the Jefferson Airplane, Hot Tuna eventually became the full-time focus of founding members Jack Casady and Jorma Kaukonen, emerging as a popular touring act of the 1970s. The two were lifelong friends, growing up together in Washington, D.C., and playing in the group the Triumphs. After high school, guitarist Kaukonen and his government-service parents relocated to the Philippines, but he returned to the U.S. in time for the advent of psychedelia, landing in San Francisco and co-founding the Airplane in 1965. Bassist Casady joined not long after, and together they helped lead the group to massive success during the late '60s.

Hot Tuna – originally dubbed Hot Sh*t, much to the chagrin of their label, RCA – first began taking shape in 1969, while both Casady and Kaukonen were still active members of the Jefferson Airplane; in fact, their first performances were sandwiched between regular Airplane gigs. As a trio rounded out by harmonica player Will Scarlet (and occasionally including Airplane members Marty Balin and Spencer Dryden), Hot Tuna debuted in 1970 with a low-key self-titled LP of traditional blues and ragtime recorded live at the New Orleans House in Berkeley; by the following year's more rock-inspired First Pull Up, Then Pull Down, their roster included violinist Papa John Creach, concurrently a full-time member of the Airplane, and drummer Sammy Piazza. Minus Scarlet, a third album, Burgers, appeared in 1972.

By the appearance of 1974's The Phosphorescent Rat, both Casady and Kaukonen had officially exited Jefferson Airplane; by this time Creach, who elected to remain with the Airplane, was no longer in the group. With 1975's America's Choice, Piazza too was gone, replaced by drummer Bob Steeler; Yellow Fever appeared that same year, with Hoppkorv following in 1976. Keyboardist Nick Buck signed on for 1978's Double Dose, but Hot Tuna subsequently announced their breakup, closing out the first phase of their career with 1979's Final Vinyl.

_____ Hot Tuna - Original Album Classics Box Set contains: _____


Hot Tuna - Original Album Classics (2011) [5CD Box Set] RE-UP

Hot Tuna - Hot Tuna: Live (1970)
EAC-FLAC with CUE & LOG - 361 MB | 69:37 mins | MP3 CBR 320 Kbps - 160 MB


Tracks:

01. Hesitation Blues
02. How Long Blues
03. Uncle Sam Blues
04. Don't You Leave Me Here
05. Death Don't Have No Mercy
06. Know You Rider
07. Oh Lord, Search My Heart
08. Winin' Boy Blues
09. New Song (For The Morning)
10. Mann's Fate
11. Keep Your Lamps Trimmed And Burning [Bonus track]
12. Candy Man [Bonus track]
13. True Religion [Bonus track]
14. Belly Shadow [Bonus track]
15. Come Back Baby [Bonus track]

allmusic.com says: When Hot Tuna's self-titled debut album was released in May 1970, it seemed like the perfect spin-off project for a major rock group, Jefferson Airplane's lead guitarist and bass player indulging in a genre exercise by playing a set of old folk-blues tunes in a Berkeley coffeehouse. The music seemed as far removed from the Airplane's acid rock roar as it did from commercial prospects, and thus, it allowed these sometimes overlooked bandmembers to blow off some steam musically without threatening their day jobs. In retrospect, however, it's easy to hear that something more was going on. Friends since their teens, Jorma Kaukonen and Jack Casady had developed a musical rapport that anchored the Airplane sound but also existed independently of it, and shorn of the rock band arrangements and much of the electricity (Casady still played an electric bass), their interplay was all the more apparent. Kaukonen remained the accomplished fingerpicking stylist he had been before joining the Airplane, while Casady dispensed with the usual timekeeping duties of the bass in favor of extensive contrapuntal soloing, creating a musical conversation that was unique. It was put at the service of a batch of songs by the likes of the Reverend Gary Davis and Jelly Roll Morton with the occasional Kaukonen original thrown in, making for a distinct style. Kaukonen's wry singing showed an intense identification with the material that kept it from seeming repetitious despite the essential similarities of the tunes. (Harmonica player Will Scarlett also contributed to the mood.) The result was less an indulgence than a new direction.

Exact Audio Copy V1.0 beta 3 from 29. August 2011

EAC extraction logfile from 4. April 2012, 23:28

Hot Tuna / Hot Tuna: Live

Used drive : HL-DT-STDVDRAM GSA-H60N Adapter: 2 ID: 0

Read mode : Secure
Utilize accurate stream : Yes
Defeat audio cache : Yes
Make use of C2 pointers : No

Read offset correction : 667
Overread into Lead-In and Lead-Out : No
Fill up missing offset samples with silence : Yes
Delete leading and trailing silent blocks : No
Null samples used in CRC calculations : Yes
Used interface : Native Win32 interface for Win NT & 2000

Used output format : Internal WAV Routines
Sample format : 44.100 Hz; 16 Bit; Stereo


TOC of the extracted CD

Track | Start | Length | Start sector | End sector
––––––––––––––––––––––––––––-
1 | 0:00.00 | 5:09.00 | 0 | 23174
2 | 5:09.00 | 3:59.12 | 23175 | 41111
3 | 9:08.12 | 4:57.28 | 41112 | 63414
4 | 14:05.40 | 3:03.30 | 63415 | 77169
5 | 17:08.70 | 6:16.42 | 77170 | 105411
6 | 23:25.37 | 4:08.40 | 105412 | 124051
7 | 27:34.02 | 3:53.70 | 124052 | 141596
8 | 31:27.72 | 5:33.13 | 141597 | 166584
9 | 37:01.10 | 5:03.62 | 166585 | 189371
10 | 42:04.72 | 5:29.35 | 189372 | 214081
11 | 47:34.32 | 3:50.30 | 214082 | 231361
12 | 51:24.62 | 3:37.53 | 231362 | 247689
13 | 55:02.40 | 5:24.72 | 247690 | 272061
14 | 60:27.37 | 3:02.00 | 272062 | 285711
15 | 63:29.37 | 6:07.43 | 285712 | 313279


Range status and errors

Selected range

Filename C:\Documents and Settings\Admin\Рабочий стол\Rip by ALLexxess\Hot Tuna\2011 Original Album Classics (5CD Box Set RCA Records)\1970 Hot Tuna Live\Hot Tuna - Hot Tuna Live.wav

Peak level 99.6 %
Extraction speed 5.9 X
Range quality 99.9 %
Test CRC 8D4B6DA5
Copy CRC 8D4B6DA5
Copy OK

No errors occurred


AccurateRip summary

Track 1 accurately ripped (confidence 13) [2C399F31] (AR v1)
Track 2 accurately ripped (confidence 13) [6F682017] (AR v1)
Track 3 accurately ripped (confidence 13) [4F42491D] (AR v1)
Track 4 accurately ripped (confidence 13) [C29981E0] (AR v1)
Track 5 accurately ripped (confidence 13) [DBCF3B8C] (AR v1)
Track 6 accurately ripped (confidence 13) [30828E9B] (AR v1)
Track 7 accurately ripped (confidence 13) [300CC86D] (AR v1)
Track 8 accurately ripped (confidence 13) [6BA3E02D] (AR v1)
Track 9 accurately ripped (confidence 13) [9BA1EFF3] (AR v1)
Track 10 accurately ripped (confidence 13) [7841D472] (AR v1)
Track 11 accurately ripped (confidence 13) [DFE70823] (AR v1)
Track 12 accurately ripped (confidence 13) [0DB1AADE] (AR v1)
Track 13 accurately ripped (confidence 13) [657D872F] (AR v1)
Track 14 accurately ripped (confidence 13) [3BB90A52] (AR v1)
Track 15 accurately ripped (confidence 13) [EC37087E] (AR v1)

All tracks accurately ripped

End of status report

==== Log checksum CB754F63A10E0EA735B4AA2130492CEA4546831F097304C590BD679450370B2C ====



_________________________________________________________________________________________


Hot Tuna - Original Album Classics (2011) [5CD Box Set] RE-UP

Hot Tuna - Burgers (1972)
EAC-FLAC with CUE & LOG - 219 MB | 37:44 mins | MP3 CBR 320 Kbps - 86 MB


Tracks:

01. True Religion
02. Highway Song
03. 99 Year Blues
04. Sea Child
05. Keep On Truckin'
06. Water Song
07. Ode For Billy Dean
08. Let Us Get Together Right Down Here
09. Sunny Day Strut

allmusic.com says: Burgers, Hot Tuna's third album, marked a crucial transition for the group. Until now, Hot Tuna had been viewed as a busman's holiday for Jefferson Airplane lead guitarist Jorma Kaukonen and bassist Jack Casady. Their first album was an acoustic set of folk-blues standards recorded in a coffeehouse, their second an electric version of the same that added violinist Papa John Creach (who also joined the Airplane) and drummer Sammy Piazza. Then the Airplane launched Grunt, its own vanity label, which encouraged all bandmembers to increase their participation in side projects. Burgers, originally released as the fourth Grunt album, sounded more like a full-fledged work than a satellite effort. It was Hot Tuna's first studio album, and Kaukonen wrote the bulk of the material, not all of it in the folk-blues style that had been the group's métier. "Sea Child," for example, employed his familiar acid rock sound and would have fit seamlessly onto an Airplane album. And "Water Song," one of his most accomplished instrumentals, had a crystalline acoustic guitar part that really suggested the sound of rippling water. On the material that did recall the earlier albums, Hot Tuna split the difference between its acoustic and electric selves, sometimes, as on "True Religion," beginning in folky fingerpicking style only to add a rock band sound after the introduction. The result was more restrained than the second album, but not as free as the first, with the drums imposing steady rhythms that often kept Casady from soloing as much, though Creach's violin made for plenty of improvisation within the basic blues structures. All of which is to say that, not surprisingly, on its third album in as many years, Hot Tuna had evolved its own sound and music, and seemed less a diversion than its members' new top priority.

Exact Audio Copy V1.0 beta 3 from 29. August 2011

EAC extraction logfile from 4. April 2012, 22:41

Hot Tuna / Burgers

Used drive : HL-DT-STDVDRAM GSA-H60N Adapter: 2 ID: 0

Read mode : Secure
Utilize accurate stream : Yes
Defeat audio cache : Yes
Make use of C2 pointers : No

Read offset correction : 667
Overread into Lead-In and Lead-Out : No
Fill up missing offset samples with silence : Yes
Delete leading and trailing silent blocks : No
Null samples used in CRC calculations : Yes
Used interface : Native Win32 interface for Win NT & 2000

Used output format : Internal WAV Routines
Sample format : 44.100 Hz; 16 Bit; Stereo


TOC of the extracted CD

Track | Start | Length | Start sector | End sector
––––––––––––––––––––––––––––-
1 | 0:00.00 | 4:45.37 | 0 | 21411
2 | 4:45.37 | 3:17.00 | 21412 | 36186
3 | 8:02.37 | 4:00.13 | 36187 | 54199
4 | 12:02.50 | 5:03.67 | 54200 | 76991
5 | 17:06.42 | 3:43.08 | 76992 | 93724
6 | 20:49.50 | 5:17.32 | 93725 | 117531
7 | 26:07.07 | 4:52.13 | 117532 | 139444
8 | 30:59.20 | 3:28.72 | 139445 | 155116
9 | 34:28.17 | 3:16.03 | 155117 | 169819


Range status and errors

Selected range

Filename C:\Documents and Settings\Admin\Рабочий стол\Rip by ALLexxess\Hot Tuna\2011 Original Album Classics (5CD Box Set RCA Records)\1972 Burgers\Hot Tuna - Burgers.wav

Peak level 98.9 %
Extraction speed 5.4 X
Range quality 99.9 %
Test CRC DBA13B49
Copy CRC DBA13B49
Copy OK

No errors occurred


AccurateRip summary

Track 1 cannot be verified as accurate (confidence 12) [A86BC5F2], AccurateRip returned [BED421FD] (AR v2)
Track 2 cannot be verified as accurate (confidence 12) [A0361F6A], AccurateRip returned [98BA93EE] (AR v2)
Track 3 cannot be verified as accurate (confidence 12) [5ADEE42F], AccurateRip returned [0A7B792B] (AR v2)
Track 4 cannot be verified as accurate (confidence 12) [9BA2F7BA], AccurateRip returned [40059A36] (AR v2)
Track 5 cannot be verified as accurate (confidence 12) [2EFDA352], AccurateRip returned [D8B2FBB8] (AR v2)
Track 6 cannot be verified as accurate (confidence 13) [47BD8C74], AccurateRip returned [D25DD4D1] (AR v2)
Track 7 cannot be verified as accurate (confidence 13) [54695A1C], AccurateRip returned [B62E8C02] (AR v2)
Track 8 cannot be verified as accurate (confidence 12) [4D34E3C0], AccurateRip returned [D19B18AC] (AR v2)
Track 9 cannot be verified as accurate (confidence 12) [D95DAD7D], AccurateRip returned [FC25E517] (AR v2)

No tracks could be verified as accurate
You may have a different pressing from the one(s) in the database

End of status report

==== Log checksum 4D072024212BFD8513EB3D382A82A6C4DD004F5F7A142BAF765FB33EB22BD2FE ====



_________________________________________________________________________________________


Hot Tuna - Original Album Classics (2011) [5CD Box Set] RE-UP

Hot Tuna - The Phosphorescent Rat (1973)
EAC-FLAC with CUE & LOG - 235 MB | 38:03 mins | MP3 CBR 320 Kbps - 88 MB


Tracks:

01. I See The Light
02. Letter To The North Star
03. Easy Now
04. Corners Without Exits
05. Day To Day Out The Window Blues
06. In The Kingdom
07. Seeweed Strut
08. Living Just For You
09. Soliloquy For 2
10. Sally, Where'd You Get Your Liquor From

allmusic.com says: Hot Tuna's first album made after the breakup of Jefferson Airplane found Jorma Kaukonen taking a firm hand: he's the author of nine out of 10 songs. The walking tempos and familiar soaring, psychedelic guitar solos are in place, but much of the music is given over to Kaukonen's reflective lyrics, sung in his matter-of-fact voice, and there are strings on a couple of tracks. Although the approach would produce Kaukonen's most impressive record the following year when he made the acoustic solo album, and although critics have pointed to The Phosphorescent Rat as among Hot Tuna's better efforts, the group's fans, devoted as they were to its extended versions of blues standards, seem to have been unimpressed: the album was Hot Tuna's lowest charting among those released during its 1970-1978 heyday. Probably a lack of enthusiasm at RCA, due to the demise of Jefferson Airplane, didn't help in the album's promotion, either.

Exact Audio Copy V1.0 beta 3 from 29. August 2011

EAC extraction logfile from 5. April 2012, 17:46

Hot Tuna / The Phosphorescent Rat

Used drive : HL-DT-STDVDRAM GSA-H60N Adapter: 2 ID: 0

Read mode : Secure
Utilize accurate stream : Yes
Defeat audio cache : Yes
Make use of C2 pointers : No

Read offset correction : 667
Overread into Lead-In and Lead-Out : No
Fill up missing offset samples with silence : Yes
Delete leading and trailing silent blocks : No
Null samples used in CRC calculations : Yes
Used interface : Native Win32 interface for Win NT & 2000

Used output format : Internal WAV Routines
Sample format : 44.100 Hz; 16 Bit; Stereo


TOC of the extracted CD

Track | Start | Length | Start sector | End sector
––––––––––––––––––––––––––––-
1 | 0:00.00 | 4:16.30 | 0 | 19229
2 | 4:16.30 | 2:32.45 | 19230 | 30674
3 | 6:49.00 | 5:11.45 | 30675 | 54044
4 | 12:00.45 | 3:38.67 | 54045 | 70461
5 | 15:39.37 | 3:28.38 | 70462 | 86099
6 | 19:08.00 | 5:27.60 | 86100 | 110684
7 | 24:35.60 | 3:26.15 | 110685 | 126149
8 | 28:02.00 | 3:20.32 | 126150 | 141181
9 | 31:22.32 | 3:43.68 | 141182 | 157974
10 | 35:06.25 | 2:56.47 | 157975 | 171221


Range status and errors

Selected range

Filename C:\Documents and Settings\Admin\Рабочий стол\Rip by ALLexxess\Hot Tuna\2011 Original Album Classics (5CD Box Set RCA Records)\1973 The Phosphorescent Rat\Hot Tuna - The Phosphorescent Rat.wav

Peak level 97.7 %
Extraction speed 5.5 X
Range quality 100.0 %
Test CRC 2EFB3677
Copy CRC 2EFB3677
Copy OK

No errors occurred


AccurateRip summary

Track 1 accurately ripped (confidence 5) [FA5A0A77] (AR v1)
Track 2 accurately ripped (confidence 5) [B937D8C0] (AR v1)
Track 3 accurately ripped (confidence 5) [8F43745A] (AR v1)
Track 4 accurately ripped (confidence 5) [1E25C49C] (AR v1)
Track 5 accurately ripped (confidence 5) [5AF142A3] (AR v1)
Track 6 accurately ripped (confidence 5) [195C1C05] (AR v1)
Track 7 accurately ripped (confidence 5) [EB16A3A3] (AR v1)
Track 8 accurately ripped (confidence 5) [9BA5D092] (AR v1)
Track 9 accurately ripped (confidence 4) [03187DEC] (AR v1)
Track 10 accurately ripped (confidence 3) [7EA089D8] (AR v1)

All tracks accurately ripped

End of status report

==== Log checksum F4865DFB6FEB09091CDC0F76D2C2603714B58DFDAD4017A37B64CA58FCA1F465 ====



_________________________________________________________________________________________


Hot Tuna - Original Album Classics (2011) [5CD Box Set] RE-UP

Hot Tuna - America's Choice (1975)
EAC-FLAC with CUE & LOG - 266 MB | 44:57 mins | MP3 CBR 320 Kbps - 104 MB


Tracks:

01. Sleep Song
02. Funky #7
03. Walkin' Blues
04. Invitation
05. Hit Single #1
06. Serpent Of Dreams
07. I Don't Wanna Go
08. Great Divide- Revisited

allmusic.com says: Hot Tuna returned to a heavier sound on their fifth album, which, although it again was dominated by Jorma Kaukonen's compositions, leaned more heavily on extended electric-guitar solos and even included a Robert Johnson classic, "Walkin' Blues." Drummer Bob Steeler replaced Sammy Piazza as of this release. The result was a modest recovery from the disappointing sales of The Phosphorescent Rat, although not a complete return to form.

Exact Audio Copy V1.0 beta 3 from 29. August 2011

EAC extraction logfile from 5. April 2012, 22:11

Hot Tuna / America's Choice

Used drive : HL-DT-STDVDRAM GSA-H60N Adapter: 2 ID: 0

Read mode : Secure
Utilize accurate stream : Yes
Defeat audio cache : Yes
Make use of C2 pointers : No

Read offset correction : 667
Overread into Lead-In and Lead-Out : No
Fill up missing offset samples with silence : Yes
Delete leading and trailing silent blocks : No
Null samples used in CRC calculations : Yes
Used interface : Native Win32 interface for Win NT & 2000

Used output format : Internal WAV Routines
Sample format : 44.100 Hz; 16 Bit; Stereo


TOC of the extracted CD

Track | Start | Length | Start sector | End sector
––––––––––––––––––––––––––––-
1 | 0:00.00 | 4:25.60 | 0 | 19934
2 | 4:25.60 | 5:49.00 | 19935 | 46109
3 | 10:14.60 | 5:22.00 | 46110 | 70259
4 | 15:36.60 | 6:57.47 | 70260 | 101581
5 | 22:34.32 | 5:15.00 | 101582 | 125206
6 | 27:49.32 | 6:52.55 | 125207 | 156161
7 | 34:42.12 | 4:58.13 | 156162 | 178524
8 | 39:40.25 | 5:16.55 | 178525 | 202279


Range status and errors

Selected range

Filename C:\Documents and Settings\Admin\Рабочий стол\Rip by ALLexxess\Hot Tuna\2011 Original Album Classics (5CD Box Set RCA Records)\1975 America's Choice\Hot Tuna - America's Choice.wav

Peak level 99.6 %
Extraction speed 5.7 X
Range quality 100.0 %
Test CRC 3C463070
Copy CRC 3C463070
Copy OK

No errors occurred


AccurateRip summary

Track 1 accurately ripped (confidence 2) [EA923181] (AR v1)
Track 2 accurately ripped (confidence 2) [A4493FA9] (AR v1)
Track 3 accurately ripped (confidence 2) [E00E5F76] (AR v1)
Track 4 accurately ripped (confidence 2) [E7A4E236] (AR v1)
Track 5 accurately ripped (confidence 2) [C331080C] (AR v1)
Track 6 accurately ripped (confidence 2) [6B9BA20D] (AR v1)
Track 7 accurately ripped (confidence 2) [134506DE] (AR v1)
Track 8 accurately ripped (confidence 2) [D34F7FFF] (AR v1)

All tracks accurately ripped

End of status report

==== Log checksum 9757960E83E0A83C72C7346BC66168405429D05E23C4945F4519C9CD01B47435 ====



_________________________________________________________________________________________


Hot Tuna - Original Album Classics (2011) [5CD Box Set] RE-UP

Hot Tuna - Hoppkorv (1976)
EAC-FLAC with CUE & LOG - 226 MB | 36:53 mins | MP3 CBR 320 Kbps - 85 MB


Tracks:

01. Santa Claus Retreat
02. Watch The North Wind Rise
03. It's So Easy
04. Bowlegged Woman, Knock Kneed Man
05. Drivin' Around
06. I Wish You Would
07. I Can't Be Satisfied
08. Talking 'Bout You
09. Extrication Love Song
10. Song From The Stainless Cymbal

allmusic.com says: Unlike recent Hot Tuna albums, Hoppkorv found the group acting less as a mouthpiece for guitarist Jorma Kaukonen's compositions and more as a heavy rock cover band, handling such familiar material as Buddy Holly's "It's So Easy" and Chuck Berry's "Talkin' 'Bout You," although "Watch the North Wind Rise" was one of Kaukonen's better tunes. Even on the originals, the tempo had picked up, the arrangements were shorter; nothing here ran as long as five minutes, and the sound had been filled out by the occasional addition of keyboards, second guitar, and background vocals. So, Hoppkorv was closer to a straightforward pop/rock album than many Hot Tuna releases, and for that, predictably, it got higher marks from critics, who appreciated the variety, and lower marks from Tuna fans, who found less music to boogie to.

Exact Audio Copy V1.0 beta 3 from 29. August 2011

EAC extraction logfile from 5. April 2012, 23:04

Hot Tuna / Hoppkorv

Used drive : HL-DT-STDVDRAM GSA-H60N Adapter: 2 ID: 0

Read mode : Secure
Utilize accurate stream : Yes
Defeat audio cache : Yes
Make use of C2 pointers : No

Read offset correction : 667
Overread into Lead-In and Lead-Out : No
Fill up missing offset samples with silence : Yes
Delete leading and trailing silent blocks : No
Null samples used in CRC calculations : Yes
Used interface : Native Win32 interface for Win NT & 2000

Used output format : Internal WAV Routines
Sample format : 44.100 Hz; 16 Bit; Stereo


TOC of the extracted CD

Track | Start | Length | Start sector | End sector
––––––––––––––––––––––––––––-
1 | 0:00.00 | 4:14.10 | 0 | 19059
2 | 4:14.10 | 4:41.47 | 19060 | 40181
3 | 8:55.57 | 2:37.38 | 40182 | 51994
4 | 11:33.20 | 3:10.35 | 51995 | 66279
5 | 14:43.55 | 2:57.72 | 66280 | 79626
6 | 17:41.52 | 3:20.25 | 79627 | 94651
7 | 21:02.02 | 3:56.40 | 94652 | 112391
8 | 24:58.42 | 3:33.20 | 112392 | 128386
9 | 28:31.62 | 4:17.60 | 128387 | 147721
10 | 32:49.47 | 4:02.70 | 147722 | 165941


Range status and errors

Selected range

Filename C:\Documents and Settings\Admin\Рабочий стол\Rip by ALLexxess\Hot Tuna\2011 Original Album Classics (5CD Box Set RCA Records)\1976 Hoppkorv\Hot Tuna - Hoppkorv.wav

Peak level 99.2 %
Extraction speed 5.4 X
Range quality 100.0 %
Test CRC 36968F8D
Copy CRC 36968F8D
Copy OK

No errors occurred


AccurateRip summary

Track 1 cannot be verified as accurate (confidence 2) [6D41EC0C], AccurateRip returned [EE07A70A] (AR v2)
Track 2 cannot be verified as accurate (confidence 2) [BFC3B934], AccurateRip returned [CD3F68A2] (AR v2)
Track 3 cannot be verified as accurate (confidence 2) [C6E2BC9C], AccurateRip returned [65DAAF0E] (AR v2)
Track 4 cannot be verified as accurate (confidence 2) [25949EFC], AccurateRip returned [D859590B] (AR v2)
Track 5 cannot be verified as accurate (confidence 2) [66845503], AccurateRip returned [5BF2420D] (AR v2)
Track 6 cannot be verified as accurate (confidence 2) [0EEED03A], AccurateRip returned [E9855D5D] (AR v2)
Track 7 cannot be verified as accurate (confidence 2) [A9A4CB17], AccurateRip returned [E3C53711] (AR v2)
Track 8 cannot be verified as accurate (confidence 2) [51DFD064], AccurateRip returned [5474EFC8] (AR v2)
Track 9 cannot be verified as accurate (confidence 2) [6761E973], AccurateRip returned [D3DC29D6] (AR v2)
Track 10 cannot be verified as accurate (confidence 2) [519F8349], AccurateRip returned [456B7126] (AR v2)

No tracks could be verified as accurate
You may have a different pressing from the one(s) in the database

End of status report

==== Log checksum 0BEDA19D5FF3F671749BCCD0BE37B3B6D40B69075B789146A8E9E2965EB11F1F ====


Dynamic range(s): 14 / 14 / 11 / 14 / 13.
all thanks goes to ALLexxess!

Jefferson Starship - Original Album Classics (5CD '2009)
Jefferson Airplane - Original Album Classics (8CD: 1966-1972)

Hot Tuna: Live (1970)
FLAC lossless | MP3 320

Burgers (1972)
FLAC lossless | MP3 320

The Phosphorescent Rat (1973)
FLAC lossless | MP3 320

America's Choice (1975)
FLAC lossless | MP3 320

Hoppkorv (1976)
FLAC lossless | MP3 320

All Covers & Box Scans

Hot Tuna: Live (1970)
FLAC lossless | MP3 320

Burgers (1972)
FLAC lossless | MP3 320

The Phosphorescent Rat (1973)
FLAC lossless | MP3 320

America's Choice (1975)
FLAC lossless | MP3 320

Hoppkorv (1976)
FLAC lossless | MP3 320

All Covers & Box Scans