Subcategories

Hi-STANDARD - Growing Up (1996)

Posted By: Rehabilly
Hi-STANDARD - Growing Up (1996)

Hi-STANDARD - Growing Up
WV+CUE+LOG or mp3 CBR 320 | 32:54 min | 245 or 80 MB
They are ranked at No.63 in the list of top 100 Japanese musicians provided by HMV

The wickedly original Japanese punk revival band Hi-Standard were formed in 1991 by guitarist/vocalist Ken Yokoyama, bassist/vocalist Akihiro Nanba, and drummer Akira Tsuneoka. The bandmembers made a name for themselves in their native Japan early in 1992 when they released Growing Up on Toy's Factory Records. They were soon brought to the attention of Fat Wreck Chords owner Fat Mike (NOFX), who licensed the album to his own label for sale in America. A mixture of irreverence and impressive talent, Growing Up was highly lauded by many American reviewers.

This Japanese Trio is one of the most hilarious punk bands you'll find out there. They do great covers and combine witty lyrics with fast chords and power riffs. Their accents are adorable, and this band does not only play great fast music, they also don't take themselves too seriously, a trait which is forgotten way too often in the contemporary, commercialized music business…

~ from customer review, amazon.com
Tracklist:

01. Summer Of Love
02. Wait For The Sun
03. Who'll Be Next
04. Lonely
05. Saturday Night
06. I'm Walkin'
07. Maximum Overdrive
08. Growing Up
09. Tell Me Something, Happy News
10. New Life
11. Since You Been Gone
12. Kiss Me Again
13. Sunny Day
14. In The Brightly Moonlight

Exact Audio Copy V0.99 prebeta 4 from 23. January 2008

EAC extraction logfile from 27. January 2009, 15:15

Hi-Standard / Growing Up (US version)

Used drive : ASUS DRW-1814BL Adapter: 1 ID: 0

Read mode : Secure
Utilize accurate stream : Yes
Defeat audio cache : Yes
Make use of C2 pointers : No

Read offset correction : 6
Overread into Lead-In and Lead-Out : No
Fill up missing offset samples with silence : Yes
Delete leading and trailing silent blocks : No
Null samples used in CRC calculations : Yes
Used interface : Installed external ASPI interface

Used output format : Internal WAV Routines
Sample format : 44.100 Hz; 16 Bit; Stereo


TOC of the extracted CD

Track | Start | Length | Start sector | End sector
––––––––––––––––––––––––––––-
1 | 0:00.00 | 1:47.60 | 0 | 8084
2 | 1:47.60 | 2:18.70 | 8085 | 18504
3 | 4:06.55 | 2:46.40 | 18505 | 30994
4 | 6:53.20 | 2:24.40 | 30995 | 41834
5 | 9:17.60 | 2:06.52 | 41835 | 51336
6 | 11:24.37 | 2:07.10 | 51337 | 60871
7 | 13:31.47 | 2:43.23 | 60872 | 73119
8 | 16:14.70 | 2:00.55 | 73120 | 82174
9 | 18:15.50 | 2:02.47 | 82175 | 91371
10 | 20:18.22 | 1:46.73 | 91372 | 99394
11 | 22:05.20 | 2:06.22 | 99395 | 108866
12 | 24:11.42 | 2:24.20 | 108867 | 119686
13 | 26:35.62 | 3:06.13 | 119687 | 133649
14 | 29:42.00 | 3:12.00 | 133650 | 148049


Range status and errors

Selected range

Filename C:\200\HI-STANDARD - Growing Up (FAT534-2, 1996)\Hi-Standard - Growing Up.wav

Peak level 99.5 %
Range quality 100.0 %
Copy CRC C0C5935B
Copy OK

No errors occurred


AccurateRip summary

Track 1 accurately ripped (confidence 3) [3FCEC366]
Track 2 accurately ripped (confidence 3) [070B0EC6]
Track 3 accurately ripped (confidence 3) [B5EB93BB]
Track 4 accurately ripped (confidence 3) [759722D0]
Track 5 accurately ripped (confidence 3) [DA53DA45]
Track 6 accurately ripped (confidence 3) [EA6EC2EB]
Track 7 accurately ripped (confidence 3) [2E0FBB44]
Track 8 accurately ripped (confidence 3) [C27B7DB9]
Track 9 accurately ripped (confidence 3) [6F47CF51]
Track 10 accurately ripped (confidence 3) [206FCC07]
Track 11 accurately ripped (confidence 3) [A33B721A]
Track 12 accurately ripped (confidence 3) [E2147101]
Track 13 accurately ripped (confidence 3) [1A98CBDF]
Track 14 accurately ripped (confidence 3) [915AB988]

All tracks accurately ripped

End of status report

Produced by Fat Mike, Ryan Greene & Hi-STANDARD
Recorded and Mixed by Ryan Greene at Brilliant Studio, San Francisco, August 2-15, 1995

• Ken Yokoyama - vocals, guitar
• Akihiro Namba - vocals, bass
• Akira Tsuneoka - drums, tambourine

US Release Date: January 30, 1996
Licensed from Toy's Factory, Japan
Label: Fat Wreck Chords
Catalog No.: Fat534-2