The Great French Singers Collection [12 CD] (2011)

Posted By: Speedyclick
The Great French Singers Collection [12 CD] (2011)

The Great French Singers Collection [12 CD] (2011)
12CD EAC Rips | FLAC (image & cue & log) & mp3 @ 320 kbps | tracks: 227 | ~ 2.87 Gb & 1.51 Gb | 10:45:48
Label: GPC SA | 5% recovery record | Full 600dpi Scans | Genre: French pop songs, ballads

Superb collection with representative songs of 12 famous French singers. Almost 11 hours with Piaff, Aznavour, Dalida, Becaud, Gainsbourg, Greco, Montand, Valente, Brel, Brassens, Trenet and Salvador. A parade of original hits digitally remastered in a nice 12 CD set, released in 2011. Ideal stuff for initiation to the beautiful world of these sacred monsters of the french song's golden era. Bienvenus mes amis a Paris.

TRACKLIST

CD01: Edith Piaff (~ 260 & 131 Mb | 59:18 )
01. La vie en rose
02. Padam Padam
03. L' accordeoniste
04. Qu' as-tu fait John
05. Le petit monsieur triste
06. C' est lui que mon coeur a chosi
07. C' etait une histoire d' amour
08. Les trois cloches
09. Elle frequentait la rue Pigalle
10. Le vagabond
11. De l' autre cote de la rue
12. Le petit homme
13. Y' a pas d' printemps
14. Il riait
15. Celui qui ne savait
16. J' m' en fous pas mal
17. Je n' en connais pas la fin

Exact Audio Copy V1.0 beta 2 from 29. April 2011

EAC extraction logfile from 3. August 2011, 15:15

Edith Piaf / Megaloi Galloi Tragoudistes

Used drive : HL-DT-STDVD-RAM GH22NP21 Adapter: 0 ID: 0

Read mode : Secure
Utilize accurate stream : Yes
Defeat audio cache : Yes
Make use of C2 pointers : No

Read offset correction : 102
Overread into Lead-In and Lead-Out : No
Fill up missing offset samples with silence : Yes
Delete leading and trailing silent blocks : No
Null samples used in CRC calculations : Yes
Used interface : Installed external ASPI interface

Used output format : User Defined Encoder
Selected bitrate : 1024 kBit/s
Quality : High
Add ID3 tag : No
Command line compressor : D:\Program Files\Exact Audio Copy\FLAC\FLAC.EXE
Additional command line options : -6 -V -T "ARTIST=%artist%" -T "TITLE=%title%" -T "ALBUM=%albumtitle%" -T "DATE=%year%" -T "TRACKNUMBER=%tracknr%" -T "GENRE=%genre%" -T "COMMENT=%comment%" -T "BAND=%albuminterpret%" -T "COMPOSER=%composer%" %haslyrics%–ta


TOC of the extracted CD

Track | Start | Length | Start sector | End sector
––––––––––––––––––––––––––––-
1 | 0:00.00 | 3:08.26 | 0 | 14125
2 | 3:08.26 | 3:11.52 | 14126 | 28502
3 | 6:20.03 | 3:10.72 | 28503 | 42824
4 | 9:31.00 | 2:24.28 | 42825 | 53652
5 | 11:55.28 | 2:48.37 | 53653 | 66289
6 | 14:43.65 | 3:21.11 | 66290 | 81375
7 | 18:05.01 | 4:31.37 | 81376 | 101737
8 | 22:36.38 | 4:10.31 | 101738 | 120518
9 | 26:46.69 | 3:34.56 | 120519 | 136624
10 | 30:21.50 | 3:23.63 | 136625 | 151912
11 | 33:45.38 | 3:18.47 | 151913 | 166809
12 | 37:04.10 | 3:37.16 | 166810 | 183100
13 | 40:41.26 | 2:38.45 | 183101 | 194995
14 | 43:19.71 | 4:36.18 | 194996 | 215713
15 | 47:56.14 | 3:43.01 | 215714 | 232439
16 | 51:39.15 | 4:22.67 | 232440 | 252156
17 | 56:02.07 | 3:16.23 | 252157 | 266879


Range status and errors

Selected range

Filename D:\Edith piaff\Edith Piaf - Megaloi Galloi Tragoudistes.wav

Peak level 97.7 %
Extraction speed 2.7 X
Range quality 99.9 %
Test CRC 9AF1D477
Copy CRC 9AF1D477
Copy OK

No errors occurred


AccurateRip summary

Track 1 not present in database
Track 2 not present in database
Track 3 not present in database
Track 4 not present in database
Track 5 not present in database
Track 6 not present in database
Track 7 not present in database
Track 8 not present in database
Track 9 not present in database
Track 10 not present in database
Track 11 not present in database
Track 12 not present in database
Track 13 not present in database
Track 14 not present in database
Track 15 not present in database
Track 16 not present in database
Track 17 not present in database

None of the tracks are present in the AccurateRip database

End of status report

==== Log checksum D297964EFAF89A23C0DAF5CE9E2738F1020B0A9F57097A7584934C20A8D8BE59 ====

CD02: Charles Aznavour (~ 212 & 107 Mb | 47:55 )
01. Je t' aime comme ca
02. Si j' avais un piano
03. Toi
04. Me que, me que
05. Et bailler et dormir
06. Ca
07. Oublie Loulou
08. J' ai bu
09. Ah!
10. La bagarre
11. Viens
12. Couches dans le foin
13. A te regarder
14. Quand alle chante
15. Quelque part dans la nuit
16. Je voudrais
17. Monsieur Jonas

Exact Audio Copy V1.0 beta 2 from 29. April 2011

EAC extraction logfile from 3. August 2011, 17:17

Charles Aznavour / Megaloi Galloi Tragoudistes

Used drive : HL-DT-STDVD-RAM GH22NP21 Adapter: 0 ID: 0

Read mode : Secure
Utilize accurate stream : Yes
Defeat audio cache : Yes
Make use of C2 pointers : No

Read offset correction : 102
Overread into Lead-In and Lead-Out : No
Fill up missing offset samples with silence : Yes
Delete leading and trailing silent blocks : No
Null samples used in CRC calculations : Yes
Used interface : Installed external ASPI interface

Used output format : User Defined Encoder
Selected bitrate : 1024 kBit/s
Quality : High
Add ID3 tag : No
Command line compressor : D:\Program Files\Exact Audio Copy\FLAC\FLAC.EXE
Additional command line options : -6 -V -T "ARTIST=%artist%" -T "TITLE=%title%" -T "ALBUM=%albumtitle%" -T "DATE=%year%" -T "TRACKNUMBER=%tracknr%" -T "GENRE=%genre%" -T "COMMENT=%comment%" -T "BAND=%albuminterpret%" -T "COMPOSER=%composer%" %haslyrics%–ta


TOC of the extracted CD

Track | Start | Length | Start sector | End sector
––––––––––––––––––––––––––––-
1 | 0:00.00 | 2:50.55 | 0 | 12804
2 | 2:50.55 | 1:57.24 | 12805 | 21603
3 | 4:48.04 | 2:29.58 | 21604 | 32836
4 | 7:17.62 | 2:42.26 | 32837 | 45012
5 | 10:00.13 | 3:00.13 | 45013 | 58525
6 | 13:00.26 | 3:03.15 | 58526 | 72265
7 | 16:03.41 | 2:52.29 | 72266 | 85194
8 | 18:55.70 | 3:19.59 | 85195 | 100178
9 | 22:15.54 | 2:50.36 | 100179 | 112964
10 | 25:06.15 | 3:14.65 | 112965 | 127579
11 | 28:21.05 | 3:01.18 | 127580 | 141172
12 | 31:22.23 | 2:56.07 | 141173 | 154379
13 | 34:18.30 | 2:43.24 | 154380 | 166628
14 | 37:01.54 | 2:02.46 | 166629 | 175824
15 | 39:04.25 | 2:58.52 | 175825 | 189226
16 | 42:03.02 | 3:32.28 | 189227 | 205154
17 | 45:35.30 | 2:20.21 | 205155 | 215675


Range status and errors

Selected range

Filename D:\Megaloi.Galloi.Tragoudistes\Charles Aznavour\Charles Aznavour - Megaloi Galloi Tragoudistes.wav

Peak level 100.0 %
Extraction speed 2.6 X
Range quality 100.0 %
Test CRC 9DDB752E
Copy CRC 9DDB752E
Copy OK

No errors occurred


AccurateRip summary

Track 1 not present in database
Track 2 not present in database
Track 3 not present in database
Track 4 not present in database
Track 5 not present in database
Track 6 not present in database
Track 7 not present in database
Track 8 not present in database
Track 9 not present in database
Track 10 not present in database
Track 11 not present in database
Track 12 not present in database
Track 13 not present in database
Track 14 not present in database
Track 15 not present in database
Track 16 not present in database
Track 17 not present in database

None of the tracks are present in the AccurateRip database

End of status report

==== Log checksum 9632525428281A2144C1FF630DA339333732079A693ACB2BA44FD92A7CBCEE68 ====

CD03: Dalida (~ 171 & 99 Mb | 44:21 )
01. Ciao ciao bambina
02. Ce serait dommage
03. Si je pouvais revivre un jour ma vie
04. Du moment qu' on s' aime
05. Tu m' etais destinee
06. Come prima
07. Hava naguila
08. Tout l' amour
09. Guitare et tambourin
10. Amstramgram
11. Miguel
12. La plus belle du monde
13. Ay! Mourir pour toi
14. Le petit chemin de pierres (Scalinatella)
15. Le ranch de Maria (Casetta in Canada)
16. Quand on n' a que l' amour
17. Tu n' as pas tres bon caractere

Exact Audio Copy V1.0 beta 2 from 29. April 2011

EAC extraction logfile from 3. August 2011, 18:06

Dalida / Megaloi Galloi Tragoudistes

Used drive : HL-DT-STDVD-RAM GH22NP21 Adapter: 0 ID: 0

Read mode : Secure
Utilize accurate stream : Yes
Defeat audio cache : Yes
Make use of C2 pointers : No

Read offset correction : 102
Overread into Lead-In and Lead-Out : No
Fill up missing offset samples with silence : Yes
Delete leading and trailing silent blocks : No
Null samples used in CRC calculations : Yes
Used interface : Installed external ASPI interface

Used output format : User Defined Encoder
Selected bitrate : 1024 kBit/s
Quality : High
Add ID3 tag : No
Command line compressor : D:\Program Files\Exact Audio Copy\FLAC\FLAC.EXE
Additional command line options : -6 -V -T "ARTIST=%artist%" -T "TITLE=%title%" -T "ALBUM=%albumtitle%" -T "DATE=%year%" -T "TRACKNUMBER=%tracknr%" -T "GENRE=%genre%" -T "COMMENT=%comment%" -T "BAND=%albuminterpret%" -T "COMPOSER=%composer%" %haslyrics%–ta


TOC of the extracted CD

Track | Start | Length | Start sector | End sector
––––––––––––––––––––––––––––-
1 | 0:00.00 | 2:55.29 | 0 | 13153
2 | 2:55.29 | 2:08.42 | 13154 | 22795
3 | 5:03.71 | 2:20.73 | 22796 | 33368
4 | 7:24.69 | 2:23.21 | 33369 | 44114
5 | 9:48.15 | 2:36.36 | 44115 | 55850
6 | 12:24.51 | 2:40.02 | 55851 | 67852
7 | 15:04.53 | 2:18.35 | 67853 | 78237
8 | 17:23.13 | 1:48.35 | 78238 | 86372
9 | 19:11.48 | 2:27.45 | 86373 | 97442
10 | 21:39.18 | 2:19.23 | 97443 | 107890
11 | 23:58.41 | 2:01.30 | 107891 | 116995
12 | 25:59.71 | 3:40.57 | 116996 | 133552
13 | 29:40.53 | 3:41.53 | 133553 | 150180
14 | 33:22.31 | 2:54.04 | 150181 | 163234
15 | 36:16.35 | 2:44.37 | 163235 | 175571
16 | 39:00.72 | 2:44.20 | 175572 | 187891
17 | 41:45.17 | 2:36.30 | 187892 | 199621


Range status and errors

Selected range

Filename D:\Megaloi.Galloi.Tragoudistes\Dalida\Dalida - Megaloi Galloi Tragoudistes.wav

Peak level 97.7 %
Extraction speed 2.6 X
Range quality 99.9 %
Test CRC FC66F500
Copy CRC FC66F500
Copy OK

No errors occurred


AccurateRip summary

Track 1 not present in database
Track 2 not present in database
Track 3 not present in database
Track 4 not present in database
Track 5 not present in database
Track 6 not present in database
Track 7 not present in database
Track 8 not present in database
Track 9 not present in database
Track 10 not present in database
Track 11 not present in database
Track 12 not present in database
Track 13 not present in database
Track 14 not present in database
Track 15 not present in database
Track 16 not present in database
Track 17 not present in database

None of the tracks are present in the AccurateRip database

End of status report

==== Log checksum EB168B52972B7CCFBFE65B21E04FEC8452B449DBA27F913F317D71530047F9FA ====

CD04: Gilbert Becaud (~ 203 & 101 Mb | 45:18 )
01. Me que, me que
02. Mes mains
03. Viens
04. Quand tu dances
05. Ah! Dites moi pourquoi je l' aime
06. La ballade des baladins
07. C' etait mon copain
08. Le croix
09. Marianne de ma jeunesse
10. Donne moi
11. Accroche toi a ton etoile
12. Moi je me mefie des anges
13. Madame Pompadour
14. Un nouveau printemps
15. Je veux te dire adieu
16. T' as raison mon ami
17. Je t' appartiens

Exact Audio Copy V1.0 beta 2 from 29. April 2011

EAC extraction logfile from 3. August 2011, 19:06

Gilbert Becaud / Megaloi Galloi Tragoudistes

Used drive : HL-DT-STDVD-RAM GH22NP21 Adapter: 0 ID: 0

Read mode : Secure
Utilize accurate stream : Yes
Defeat audio cache : Yes
Make use of C2 pointers : No

Read offset correction : 102
Overread into Lead-In and Lead-Out : No
Fill up missing offset samples with silence : Yes
Delete leading and trailing silent blocks : No
Null samples used in CRC calculations : Yes
Used interface : Installed external ASPI interface

Used output format : User Defined Encoder
Selected bitrate : 1024 kBit/s
Quality : High
Add ID3 tag : No
Command line compressor : D:\Program Files\Exact Audio Copy\FLAC\FLAC.EXE
Additional command line options : -6 -V -T "ARTIST=%artist%" -T "TITLE=%title%" -T "ALBUM=%albumtitle%" -T "DATE=%year%" -T "TRACKNUMBER=%tracknr%" -T "GENRE=%genre%" -T "COMMENT=%comment%" -T "BAND=%albuminterpret%" -T "COMPOSER=%composer%" %haslyrics%–ta


TOC of the extracted CD

Track | Start | Length | Start sector | End sector
––––––––––––––––––––––––––––-
1 | 0:00.00 | 2:29.00 | 0 | 11174
2 | 2:29.00 | 2:12.65 | 11175 | 21139
3 | 4:41.65 | 2:18.13 | 21140 | 31502
4 | 7:00.03 | 2:38.52 | 31503 | 43404
5 | 9:38.55 | 2:16.31 | 43405 | 53635
6 | 11:55.11 | 3:15.38 | 53636 | 68298
7 | 15:10.49 | 2:02.56 | 68299 | 77504
8 | 17:13.30 | 3:10.56 | 77505 | 91810
9 | 20:24.11 | 3:03.13 | 91811 | 105548
10 | 23:27.24 | 3:42.46 | 105549 | 122244
11 | 27:09.70 | 2:40.51 | 122245 | 134295
12 | 29:50.46 | 2:50.48 | 134296 | 147093
13 | 32:41.19 | 2:04.73 | 147094 | 156466
14 | 34:46.17 | 2:12.10 | 156467 | 166376
15 | 36:58.27 | 2:58.73 | 166377 | 179799
16 | 39:57.25 | 2:31.57 | 179800 | 191181
17 | 42:29.07 | 2:49.13 | 191182 | 203869


Range status and errors

Selected range

Filename D:\Megaloi.Galloi.Tragoudistes\Gilbert Becaud\Gilbert Becaud - Megaloi Galloi Tragoudistes.wav

Peak level 100.0 %
Extraction speed 2.6 X
Range quality 100.0 %
Copy CRC 1B2B85CE
Copy OK

No errors occurred


AccurateRip summary

Track 1 not present in database
Track 2 not present in database
Track 3 not present in database
Track 4 not present in database
Track 5 not present in database
Track 6 not present in database
Track 7 not present in database
Track 8 not present in database
Track 9 not present in database
Track 10 not present in database
Track 11 not present in database
Track 12 not present in database
Track 13 not present in database
Track 14 not present in database
Track 15 not present in database
Track 16 not present in database
Track 17 not present in database

None of the tracks are present in the AccurateRip database

End of status report

==== Log checksum 76BF3555C0D3814F26C0F819A24244C213E49F706AF87DD44E2F41C28BC9E52D ====

CD05: Serge Gainsbourg (~ 290 & 122 Mb | 43:39 )
01. Le claqueur de doigts
02. La nuit d' Octobre
03. Adieu creature
04. L' anthracite
05. Mambo miam miam
06. Indifference
07. Jeunes femmes et vieux messieurs
08. L' amour a la papa
09. Le poinconneur des lilas
10. La recette de l' amour fou
11. Ce mortel ennui
12. Ronsard
13. L' alcool
14. La femme des uns sous le corps des autres
15. Belles dans la peau
16. Charleston des demenageurs de piano
17. Du jazz dans le ravin

Exact Audio Copy V1.0 beta 2 from 29. April 2011

EAC extraction logfile from 3. August 2011, 19:29

Serge Gainsbourg / Megaloi Galloi Tragoudistes

Used drive : HL-DT-STDVD-RAM GH22NP21 Adapter: 0 ID: 0

Read mode : Secure
Utilize accurate stream : Yes
Defeat audio cache : Yes
Make use of C2 pointers : No

Read offset correction : 102
Overread into Lead-In and Lead-Out : No
Fill up missing offset samples with silence : Yes
Delete leading and trailing silent blocks : No
Null samples used in CRC calculations : Yes
Used interface : Installed external ASPI interface

Used output format : User Defined Encoder
Selected bitrate : 1024 kBit/s
Quality : High
Add ID3 tag : No
Command line compressor : D:\Program Files\Exact Audio Copy\FLAC\FLAC.EXE
Additional command line options : -6 -V -T "ARTIST=%artist%" -T "TITLE=%title%" -T "ALBUM=%albumtitle%" -T "DATE=%year%" -T "TRACKNUMBER=%tracknr%" -T "GENRE=%genre%" -T "COMMENT=%comment%" -T "BAND=%albuminterpret%" -T "COMPOSER=%composer%" %haslyrics%–ta


TOC of the extracted CD

Track | Start | Length | Start sector | End sector
––––––––––––––––––––––––––––-
1 | 0:00.00 | 3:06.44 | 0 | 13993
2 | 3:06.44 | 3:06.39 | 13994 | 27982
3 | 6:13.08 | 2:11.10 | 27983 | 37817
4 | 8:24.18 | 2:32.38 | 37818 | 49255
5 | 10:56.56 | 2:35.14 | 49256 | 60894
6 | 13:31.70 | 2:16.74 | 60895 | 71168
7 | 15:48.69 | 2:04.33 | 71169 | 80501
8 | 17:53.27 | 2:50.03 | 80502 | 93254
9 | 20:43.30 | 2:43.22 | 93255 | 105501
10 | 23:26.52 | 1:57.70 | 105502 | 114346
11 | 25:24.47 | 2:55.49 | 114347 | 127520
12 | 28:20.21 | 1:52.68 | 127521 | 135988
13 | 30:13.14 | 3:57.32 | 135989 | 153795
14 | 34:10.46 | 2:59.72 | 153796 | 167292
15 | 37:10.43 | 1:55.23 | 167293 | 175940
16 | 39:05.66 | 2:24.20 | 175941 | 186760
17 | 41:30.11 | 2:09.04 | 186761 | 196439


Range status and errors

Selected range

Filename D:\Megaloi.Galloi.Tragoudistes\Serge Gainsbourg\Serge Gainsbourg - Megaloi Galloi Tragoudistes.wav

Peak level 97.7 %
Extraction speed 2.6 X
Range quality 100.0 %
Test CRC F90E5623
Copy CRC F90E5623
Copy OK

No errors occurred


AccurateRip summary

Track 1 not present in database
Track 2 not present in database
Track 3 not present in database
Track 4 not present in database
Track 5 not present in database
Track 6 not present in database
Track 7 not present in database
Track 8 not present in database
Track 9 not present in database
Track 10 not present in database
Track 11 not present in database
Track 12 not present in database
Track 13 not present in database
Track 14 not present in database
Track 15 not present in database
Track 16 not present in database
Track 17 not present in database

None of the tracks are present in the AccurateRip database

End of status report

==== Log checksum 81247FEA93BA10A5DE3EDD3C35AEFABB7E6AD4915393B4124EC41E5509C00A5F ====

CD06: Juliette Greco (~ 219 & 158 Mb | 1:01:59 )
01. La chanson de Barbara
02. Les dames de la poste
03. Sous le ciel de Paris
04. Les enfants qui s' aiment
05. Les feuilles mortes
06. Si tu t' imagines
07. Je hais les dimanches
08. Embrasse-moi
09. La fiancee du pirate
10. Je suis comme je suis
11. La fourmi
12. Comme un enfant puni
13. La belle vie
14. Les roulottes
15. Je mens
16. Le coeur casse
17. Les croix
18. L' amour est parti
19. La chanson de Catherine
20. L' ombre

Exact Audio Copy V1.0 beta 2 from 29. April 2011

EAC extraction logfile from 3. August 2011, 21:17

Juliette Greco / Megaloi Galloi Tragoudistes

Used drive : HL-DT-STDVD-RAM GH22NP21 Adapter: 0 ID: 0

Read mode : Secure
Utilize accurate stream : Yes
Defeat audio cache : Yes
Make use of C2 pointers : No

Read offset correction : 102
Overread into Lead-In and Lead-Out : No
Fill up missing offset samples with silence : Yes
Delete leading and trailing silent blocks : No
Null samples used in CRC calculations : Yes
Used interface : Installed external ASPI interface

Used output format : User Defined Encoder
Selected bitrate : 1024 kBit/s
Quality : High
Add ID3 tag : No
Command line compressor : D:\Program Files\Exact Audio Copy\FLAC\FLAC.EXE
Additional command line options : -6 -V -T "ARTIST=%artist%" -T "TITLE=%title%" -T "ALBUM=%albumtitle%" -T "DATE=%year%" -T "TRACKNUMBER=%tracknr%" -T "GENRE=%genre%" -T "COMMENT=%comment%" -T "BAND=%albuminterpret%" -T "COMPOSER=%composer%" %haslyrics%–ta


TOC of the extracted CD

Track | Start | Length | Start sector | End sector
––––––––––––––––––––––––––––-
1 | 0:00.00 | 4:18.09 | 0 | 19358
2 | 4:18.09 | 3:22.45 | 19359 | 34553
3 | 7:40.54 | 3:20.59 | 34554 | 49612
4 | 11:01.38 | 3:18.67 | 49613 | 64529
5 | 14:20.30 | 2:58.65 | 64530 | 77944
6 | 17:19.20 | 3:13.15 | 77945 | 92434
7 | 20:32.35 | 3:12.43 | 92435 | 106877
8 | 23:45.03 | 3:04.47 | 106878 | 120724
9 | 26:49.50 | 2:52.40 | 120725 | 133664
10 | 29:42.15 | 3:02.42 | 133665 | 147356
11 | 32:44.57 | 1:21.66 | 147357 | 153497
12 | 34:06.48 | 3:23.00 | 153498 | 168722
13 | 37:29.48 | 3:16.33 | 168723 | 183455
14 | 40:46.06 | 3:00.34 | 183456 | 196989
15 | 43:46.40 | 2:33.08 | 196990 | 208472
16 | 46:19.48 | 2:44.23 | 208473 | 220795
17 | 49:03.71 | 3:30.62 | 220796 | 236607
18 | 52:34.58 | 3:23.02 | 236608 | 251834
19 | 55:57.60 | 3:19.09 | 251835 | 266768
20 | 59:16.69 | 2:42.29 | 266769 | 278947


Range status and errors

Selected range

Filename D:\Megaloi.Galloi.Tragoudistes\Juliette Greco\Juliette Greco - Megaloi Galloi Tragoudistes.wav

Peak level 97.7 %
Extraction speed 2.9 X
Range quality 100.0 %
Test CRC C93CC652
Copy CRC C93CC652
Copy OK

No errors occurred


AccurateRip summary

Track 1 not present in database
Track 2 not present in database
Track 3 not present in database
Track 4 not present in database
Track 5 not present in database
Track 6 not present in database
Track 7 not present in database
Track 8 not present in database
Track 9 not present in database
Track 10 not present in database
Track 11 not present in database
Track 12 not present in database
Track 13 not present in database
Track 14 not present in database
Track 15 not present in database
Track 16 not present in database
Track 17 not present in database
Track 18 not present in database
Track 19 not present in database
Track 20 not present in database

None of the tracks are present in the AccurateRip database

End of status report

==== Log checksum 38AF3E26CBDC5FB39A3F71160DCA3901506B7DE8AF25B808F51407C820D50B20 ====

CD07: Yves Montand (~ 206 & 103 Mb | 52:08 )
01. Les feuilles mortes
02. Clopin-clopant
03. A Paris
04. Nuages
05. C' est si bon
06. Moi j' m' en fous
07. Quand un soldat
08. Les amoureux
09. Le chat de la voisine
10. Je cherche apres Titine
11. Grands boulevards
12. Ma mie
13. Pres de toi mon amour
14. Elle a…
15. Il fait des…
16. Le chant de partisans
17. Clementine

Exact Audio Copy V1.0 beta 2 from 29. April 2011

EAC extraction logfile from 4. August 2011, 17:00

Yves Montand / Megaloi Galloi Tragoudistes

Used drive : HL-DT-STDVD-RAM GH22NP21 Adapter: 0 ID: 0

Read mode : Secure
Utilize accurate stream : Yes
Defeat audio cache : Yes
Make use of C2 pointers : No

Read offset correction : 102
Overread into Lead-In and Lead-Out : No
Fill up missing offset samples with silence : Yes
Delete leading and trailing silent blocks : No
Null samples used in CRC calculations : Yes
Used interface : Installed external ASPI interface

Used output format : User Defined Encoder
Selected bitrate : 1024 kBit/s
Quality : High
Add ID3 tag : No
Command line compressor : D:\Program Files\Exact Audio Copy\FLAC\FLAC.EXE
Additional command line options : -6 -V -T "ARTIST=%artist%" -T "TITLE=%title%" -T "ALBUM=%albumtitle%" -T "DATE=%year%" -T "TRACKNUMBER=%tracknr%" -T "GENRE=%genre%" -T "COMMENT=%comment%" -T "BAND=%albuminterpret%" -T "COMPOSER=%composer%" %haslyrics%–ta


TOC of the extracted CD

Track | Start | Length | Start sector | End sector
––––––––––––––––––––––––––––-
1 | 0:00.00 | 3:22.19 | 0 | 15168
2 | 3:22.19 | 3:20.52 | 15169 | 30220
3 | 6:42.71 | 3:15.43 | 30221 | 44888
4 | 9:58.39 | 3:16.21 | 44889 | 59609
5 | 13:14.60 | 2:36.22 | 59610 | 71331
6 | 15:51.07 | 2:58.08 | 71332 | 84689
7 | 18:49.15 | 1:51.44 | 84690 | 93058
8 | 20:40.59 | 3:31.29 | 93059 | 108912
9 | 24:12.13 | 2:33.59 | 108913 | 120446
10 | 26:45.72 | 3:28.07 | 120447 | 136053
11 | 30:14.04 | 2:28.53 | 136054 | 147206
12 | 32:42.57 | 3:33.55 | 147207 | 163236
13 | 36:16.37 | 2:59.17 | 163237 | 176678
14 | 39:15.54 | 3:04.50 | 176679 | 190528
15 | 42:20.29 | 3:06.67 | 190529 | 204545
16 | 45:27.21 | 3:16.70 | 204546 | 219315
17 | 48:44.16 | 3:23.60 | 219316 | 234600


Range status and errors

Selected range

Filename D:\Megaloi.Galloi.Tragoudistes\Yves Montand\Yves Montand - Megaloi Galloi Tragoudistes.wav

Peak level 100.0 %
Extraction speed 2.7 X
Range quality 100.0 %
Test CRC 30A46DE6
Copy CRC 30A46DE6
Copy OK

No errors occurred


AccurateRip summary

Track 1 not present in database
Track 2 not present in database
Track 3 not present in database
Track 4 not present in database
Track 5 not present in database
Track 6 not present in database
Track 7 not present in database
Track 8 not present in database
Track 9 not present in database
Track 10 not present in database
Track 11 not present in database
Track 12 not present in database
Track 13 not present in database
Track 14 not present in database
Track 15 not present in database
Track 16 not present in database
Track 17 not present in database

None of the tracks are present in the AccurateRip database

End of status report

==== Log checksum 6BC40D5F08349FDB013983A10867EF17AA2860CA4876B998FF7BF850E85EB384 ====

CD08: Caterina Valente (~ 205 & 120 Mb | 48:13 )
01. Chanson d' amour
02. Donne ta main et viens
03. Bouquet des reves
04. Bonjour Catherine
05. Une femme dans Paris
06. Les filles de Paris
07. L' amour defendu
08. Dans ma vie
09. La vie me pousse
10. Si tout etait fini
11. Complainte de Mackie
12. Moi, j' aime t' aimer
13. Sait-on jamais
14. Lorsque l' amour vient
15. Rendez-vous
16. Ou es-tu ma joie
17. Melodia d' amore

Exact Audio Copy V1.0 beta 2 from 29. April 2011

EAC extraction logfile from 5. August 2011, 7:33

Caterina Valente / Megaloi Galloi Tragoudistes

Used drive : HL-DT-STDVD-RAM GH22NP21 Adapter: 0 ID: 0

Read mode : Secure
Utilize accurate stream : Yes
Defeat audio cache : Yes
Make use of C2 pointers : No

Read offset correction : 102
Overread into Lead-In and Lead-Out : No
Fill up missing offset samples with silence : Yes
Delete leading and trailing silent blocks : No
Null samples used in CRC calculations : Yes
Used interface : Installed external ASPI interface

Used output format : User Defined Encoder
Selected bitrate : 1024 kBit/s
Quality : High
Add ID3 tag : No
Command line compressor : D:\Program Files\Exact Audio Copy\FLAC\FLAC.EXE
Additional command line options : -6 -V -T "ARTIST=%artist%" -T "TITLE=%title%" -T "ALBUM=%albumtitle%" -T "DATE=%year%" -T "TRACKNUMBER=%tracknr%" -T "GENRE=%genre%" -T "COMMENT=%comment%" -T "BAND=%albuminterpret%" -T "COMPOSER=%composer%" %haslyrics%–ta


TOC of the extracted CD

Track | Start | Length | Start sector | End sector
––––––––––––––––––––––––––––-
1 | 0:00.00 | 2:50.29 | 0 | 12778
2 | 2:50.29 | 3:07.32 | 12779 | 26835
3 | 5:57.61 | 2:51.03 | 26836 | 39663
4 | 8:48.64 | 2:48.28 | 39664 | 52291
5 | 11:37.17 | 2:50.27 | 52292 | 65068
6 | 14:27.44 | 3:03.40 | 65069 | 78833
7 | 17:31.09 | 2:48.13 | 78834 | 91446
8 | 20:19.22 | 2:55.67 | 91447 | 104638
9 | 23:15.14 | 2:34.20 | 104639 | 116208
10 | 25:49.34 | 3:03.70 | 116209 | 130003
11 | 28:53.29 | 2:14.52 | 130004 | 140105
12 | 31:08.06 | 2:55.08 | 140106 | 153238
13 | 34:03.14 | 2:18.03 | 153239 | 163591
14 | 36:21.17 | 2:50.40 | 163592 | 176381
15 | 39:11.57 | 2:33.60 | 176382 | 187916
16 | 41:45.42 | 3:29.23 | 187917 | 203614
17 | 45:14.65 | 2:58.60 | 203615 | 217024


Range status and errors

Selected range

Filename D:\Megaloi Galloi Tragoudistes\Caterina Valente\Caterina Valente - Megaloi Galloi Tragoudistes.wav

Peak level 100.0 %
Extraction speed 2.6 X
Range quality 100.0 %
Test CRC 7D449090
Copy CRC 7D449090
Copy OK

No errors occurred


AccurateRip summary

Track 1 not present in database
Track 2 not present in database
Track 3 not present in database
Track 4 not present in database
Track 5 not present in database
Track 6 not present in database
Track 7 not present in database
Track 8 not present in database
Track 9 not present in database
Track 10 not present in database
Track 11 not present in database
Track 12 not present in database
Track 13 not present in database
Track 14 not present in database
Track 15 not present in database
Track 16 not present in database
Track 17 not present in database

None of the tracks are present in the AccurateRip database

End of status report

==== Log checksum 342536B09DB7220C76C6C4409CE301622C745207E92404AFA785548AE4A5169E ====

CD09: Jacques Brel (~ 228 & 101 Mb | 42:57 )
01. Ne me quitte pas
02. Les flamandes
03. Seul
04. La dame patronesse
05. La haine
06. Grand Jacques (C' est trop facile)
07. Il pleut (Les carreaux)
08. Le diable (Ca va)
09. Il peut pleuvoir
10. Quand on n' a que l' amour
11. Qu' avons-nous fait, bonnes gens
12. Les bles
13. La valse a mille temps
14. La tendresse
15. Je t' aime
16. Litanies pour un retour
17. Priere Paienne

Exact Audio Copy V1.0 beta 2 from 29. April 2011

EAC extraction logfile from 4. August 2011, 18:26

Jacques Brel / Megaloi Galloi Tragoudistes

Used drive : HL-DT-STDVD-RAM GH22NP21 Adapter: 0 ID: 0

Read mode : Secure
Utilize accurate stream : Yes
Defeat audio cache : Yes
Make use of C2 pointers : No

Read offset correction : 102
Overread into Lead-In and Lead-Out : No
Fill up missing offset samples with silence : Yes
Delete leading and trailing silent blocks : No
Null samples used in CRC calculations : Yes
Used interface : Installed external ASPI interface

Used output format : User Defined Encoder
Selected bitrate : 1024 kBit/s
Quality : High
Add ID3 tag : No
Command line compressor : D:\Program Files\Exact Audio Copy\FLAC\FLAC.EXE
Additional command line options : -6 -V -T "ARTIST=%artist%" -T "TITLE=%title%" -T "ALBUM=%albumtitle%" -T "DATE=%year%" -T "TRACKNUMBER=%tracknr%" -T "GENRE=%genre%" -T "COMMENT=%comment%" -T "BAND=%albuminterpret%" -T "COMPOSER=%composer%" %haslyrics%–ta


TOC of the extracted CD

Track | Start | Length | Start sector | End sector
––––––––––––––––––––––––––––-
1 | 0:00.00 | 3:52.41 | 0 | 17440
2 | 3:52.41 | 2:37.51 | 17441 | 29266
3 | 6:30.17 | 3:29.45 | 29267 | 44986
4 | 9:59.62 | 2:39.00 | 44987 | 56911
5 | 12:38.62 | 1:56.33 | 56912 | 65644
6 | 14:35.20 | 1:49.63 | 65645 | 73882
7 | 16:25.08 | 2:36.46 | 73883 | 85628
8 | 19:01.54 | 2:26.48 | 85629 | 96626
9 | 21:28.27 | 1:44.23 | 96627 | 104449
10 | 23:12.50 | 2:26.20 | 104450 | 115419
11 | 25:38.70 | 1:49.12 | 115420 | 123606
12 | 27:28.07 | 1:50.10 | 123607 | 131866
13 | 29:18.17 | 3:51.34 | 131867 | 149225
14 | 33:09.51 | 2:39.72 | 149226 | 161222
15 | 35:49.48 | 2:21.41 | 161223 | 171838
16 | 38:11.14 | 2:11.60 | 171839 | 181723
17 | 40:22.74 | 2:34.07 | 181724 | 193280


Range status and errors

Selected range

Filename D:\Megaloi.Galloi.Tragoudistes\Jacques Brel\Jacques Brel - Megaloi Galloi Tragoudistes.wav

Peak level 97.7 %
Extraction speed 2.6 X
Range quality 100.0 %
Test CRC 86AB5E5A
Copy CRC 86AB5E5A
Copy OK

No errors occurred


AccurateRip summary

Track 1 not present in database
Track 2 not present in database
Track 3 not present in database
Track 4 not present in database
Track 5 not present in database
Track 6 not present in database
Track 7 not present in database
Track 8 not present in database
Track 9 not present in database
Track 10 not present in database
Track 11 not present in database
Track 12 not present in database
Track 13 not present in database
Track 14 not present in database
Track 15 not present in database
Track 16 not present in database
Track 17 not present in database

None of the tracks are present in the AccurateRip database

End of status report

==== Log checksum 073B6D45C8DF98F6A272341CC20A1EE66A4F73E22E408D31358C9926FBD4CF45 ====

CD10: Georges Brassens (~ 210 & 119 Mb | 48:06 )
01. La mauvaise reputation
02. Chanson pour l' auvergnat
03. Je me suis fait tout petit
04. Le gorille
05. Les amoureux des bancs publics
06. Aupres de mon arbre
07. Brave Margot
08. Les sabots d' Helene
09. Une jolie fleur (Dans une peau de vache)
10. Le nombril des femmes d' argents
11. La mauvaise herbe
12. Les croquants
13. La legende de la nonne
14. Colombine
15. Hecatombe
16. Le testament
17. La chasse aux papillons

Exact Audio Copy V1.0 beta 2 from 29. April 2011

EAC extraction logfile from 6. August 2011, 4:14

Georges Brassens / Megaloi Galloi Tragoudistes

Used drive : HL-DT-STDVD-RAM GH22NP21 Adapter: 0 ID: 0

Read mode : Secure
Utilize accurate stream : Yes
Defeat audio cache : Yes
Make use of C2 pointers : No

Read offset correction : 102
Overread into Lead-In and Lead-Out : No
Fill up missing offset samples with silence : Yes
Delete leading and trailing silent blocks : No
Null samples used in CRC calculations : Yes
Used interface : Installed external ASPI interface

Used output format : User Defined Encoder
Selected bitrate : 1024 kBit/s
Quality : High
Add ID3 tag : No
Command line compressor : D:\Program Files\Exact Audio Copy\FLAC\FLAC.EXE
Additional command line options : -6 -V -T "ARTIST=%artist%" -T "TITLE=%title%" -T "ALBUM=%albumtitle%" -T "DATE=%year%" -T "TRACKNUMBER=%tracknr%" -T "GENRE=%genre%" -T "COMMENT=%comment%" -T "BAND=%albuminterpret%" -T "COMPOSER=%composer%" %haslyrics%–ta


TOC of the extracted CD

Track | Start | Length | Start sector | End sector
––––––––––––––––––––––––––––-
1 | 0:00.00 | 2:12.68 | 0 | 9967
2 | 2:12.68 | 3:02.59 | 9968 | 23676
3 | 5:15.52 | 3:55.20 | 23677 | 41321
4 | 9:10.72 | 3:17.29 | 41322 | 56125
5 | 12:28.26 | 3:03.23 | 56126 | 69873
6 | 15:31.49 | 3:06.36 | 69874 | 83859
7 | 18:38.10 | 3:18.38 | 83860 | 98747
8 | 21:56.48 | 2:45.12 | 98748 | 111134
9 | 24:41.60 | 2:41.14 | 111135 | 123223
10 | 27:22.74 | 2:25.69 | 123224 | 134167
11 | 29:48.68 | 2:48.32 | 134168 | 146799
12 | 32:37.25 | 2:24.27 | 146800 | 157626
13 | 35:01.52 | 3:09.54 | 157627 | 171855
14 | 38:11.31 | 1:56.37 | 171856 | 180592
15 | 40:07.68 | 1:57.16 | 180593 | 189383
16 | 42:05.09 | 3:58.28 | 189384 | 207261
17 | 46:03.37 | 2:03.09 | 207262 | 216495


Range status and errors

Selected range

Filename D:\Megaloi Galloi Tragoudistes\Georges Brassens\Georges Brassens - Megaloi Galloi Tragoudistes.wav

Peak level 97.7 %
Extraction speed 2.7 X
Range quality 100.0 %
Test CRC 2DE646EF
Copy CRC 2DE646EF
Copy OK

No errors occurred


AccurateRip summary

Track 1 not present in database
Track 2 not present in database
Track 3 not present in database
Track 4 not present in database
Track 5 not present in database
Track 6 not present in database
Track 7 not present in database
Track 8 not present in database
Track 9 not present in database
Track 10 not present in database
Track 11 not present in database
Track 12 not present in database
Track 13 not present in database
Track 14 not present in database
Track 15 not present in database
Track 16 not present in database
Track 17 not present in database

None of the tracks are present in the AccurateRip database

End of status report

==== Log checksum 8D69E23BA00D97AD27B8D869EFCC1017D27B6050F099F83A94DE2595FEA5AC2B ====

CD11: Charles Trenet (~ 294 & 166 Mb | 1:16:48 )
01. Moi j' aime le music hall
02. A la porte du garage
03. Que reste-il de nos amours
04. Boum
05. Dans les pharmacies
06. Les coupeurs de bois
07. En Avril a Paris
08. Ou vas-tu chaque nuit
09. Les chansons de la nuit
10. Vous oubliez votre cheval
11. Une noix
12. Route nationale 7
13. Douce France
14. La mer
15. Vous qui passez sans me voir
16. Je chante
17. Le soleil et la lune
18. La route enchantee
19. J' ai ta main
20. Madame la pluie
21. Ou sont-ils donc
22. Quand vous entendrez mam'zelle
23. Coin de rue
24. La java du diable
25. Printemps a Rio
26. Paie tes dettes
27. Ma philosophie

Exact Audio Copy V1.0 beta 2 from 29. April 2011

EAC extraction logfile from 4. August 2011, 19:05

Charles Trenet / Megaloi Galloi Tragoudistes

Used drive : HL-DT-STDVD-RAM GH22NP21 Adapter: 0 ID: 0

Read mode : Secure
Utilize accurate stream : Yes
Defeat audio cache : Yes
Make use of C2 pointers : No

Read offset correction : 102
Overread into Lead-In and Lead-Out : No
Fill up missing offset samples with silence : Yes
Delete leading and trailing silent blocks : No
Null samples used in CRC calculations : Yes
Used interface : Installed external ASPI interface

Used output format : User Defined Encoder
Selected bitrate : 1024 kBit/s
Quality : High
Add ID3 tag : No
Command line compressor : D:\Program Files\Exact Audio Copy\FLAC\FLAC.EXE
Additional command line options : -6 -V -T "ARTIST=%artist%" -T "TITLE=%title%" -T "ALBUM=%albumtitle%" -T "DATE=%year%" -T "TRACKNUMBER=%tracknr%" -T "GENRE=%genre%" -T "COMMENT=%comment%" -T "BAND=%albuminterpret%" -T "COMPOSER=%composer%" %haslyrics%–ta


TOC of the extracted CD

Track | Start | Length | Start sector | End sector
––––––––––––––––––––––––––––-
1 | 0:00.00 | 3:41.39 | 0 | 16613
2 | 3:41.39 | 2:33.32 | 16614 | 28120
3 | 6:14.71 | 3:11.46 | 28121 | 42491
4 | 9:26.42 | 2:33.30 | 42492 | 53996
5 | 11:59.72 | 2:25.03 | 53997 | 64874
6 | 14:25.00 | 2:40.72 | 64875 | 76946
7 | 17:05.72 | 2:51.62 | 76947 | 89833
8 | 19:57.59 | 2:52.50 | 89834 | 102783
9 | 22:50.34 | 2:57.00 | 102784 | 116058
10 | 25:47.34 | 2:59.65 | 116059 | 129548
11 | 28:47.24 | 2:44.42 | 129549 | 141890
12 | 31:31.66 | 2:38.26 | 141891 | 153766
13 | 34:10.17 | 3:08.33 | 153767 | 167899
14 | 37:18.50 | 3:19.25 | 167900 | 182849
15 | 40:38.00 | 3:19.71 | 182850 | 197845
16 | 43:57.71 | 2:46.21 | 197846 | 210316
17 | 46:44.17 | 2:24.29 | 210317 | 221145
18 | 49:08.46 | 2:08.33 | 221146 | 230778
19 | 51:17.04 | 2:35.30 | 230779 | 242433
20 | 53:52.34 | 2:26.72 | 242434 | 253455
21 | 56:19.31 | 2:31.08 | 253456 | 264788
22 | 58:50.39 | 3:34.15 | 264789 | 280853
23 | 62:24.54 | 3:23.70 | 280854 | 296148
24 | 65:48.49 | 3:01.13 | 296149 | 309736
25 | 68:49.62 | 2:50.18 | 309737 | 322504
26 | 71:40.05 | 2:48.60 | 322505 | 335164
27 | 74:28.65 | 2:19.55 | 335165 | 345644


Range status and errors

Selected range

Filename D:\Megaloi.Galloi.Tragoudistes\Charles Trenet\Charles Trenet - Megaloi Galloi Tragoudistes.wav

Peak level 100.0 %
Extraction speed 3.1 X
Range quality 100.0 %
Test CRC A8D808AF
Copy CRC A8D808AF
Copy OK

No errors occurred


AccurateRip summary

Track 1 not present in database
Track 2 not present in database
Track 3 not present in database
Track 4 not present in database
Track 5 not present in database
Track 6 not present in database
Track 7 not present in database
Track 8 not present in database
Track 9 not present in database
Track 10 not present in database
Track 11 not present in database
Track 12 not present in database
Track 13 not present in database
Track 14 not present in database
Track 15 not present in database
Track 16 not present in database
Track 17 not present in database
Track 18 not present in database
Track 19 not present in database
Track 20 not present in database
Track 21 not present in database
Track 22 not present in database
Track 23 not present in database
Track 24 not present in database
Track 25 not present in database
Track 26 not present in database
Track 27 not present in database

None of the tracks are present in the AccurateRip database

End of status report

==== Log checksum 03B941840EDF91AFECAC35A93DE516F48AAC655F03DDD33D717D12ADCD2CF9FD ====

CD12: Henri Salvador (~ 407 & 186 Mb | 1:15:06 )
01. Petite fleur
02. Ca c' est d' la musique
03. Bon voyage
04. Blues du dentiste
05. Une ile au soleil
06. Buenas noches mi amor
07. Verte campagne
08. Ca pince
09. Oh! Quelle nuit
10. Come prima
11. Je peux pas travailler
12. Quand je monte chez toi
13. Va t' faire cuire un oeuf
14. Le soleil, ton visage et la mer
15. As-tu vu adele
16. Donne donne donne (live)
17. Le loup, la biche et le chevalier
18. Faut rigoler
19. Le petit indien
20. Le scaphandrier
21. Oh! Si y' avait pas ton pere
22. Cendrillon
23. L' abeille et le papillon
24. Maman la plus belle du monde
25. Y a rien d' aussi beau
26. Monsieur le bon dieu
27. Maladie d' amour

Exact Audio Copy V1.0 beta 2 from 29. April 2011

EAC extraction logfile from 9. August 2011, 11:02

Henri Salvador / Megaloi Galloi Tragoudistes

Used drive : HL-DT-STDVD-RAM GH22NP21 Adapter: 0 ID: 0

Read mode : Secure
Utilize accurate stream : Yes
Defeat audio cache : Yes
Make use of C2 pointers : No

Read offset correction : 102
Overread into Lead-In and Lead-Out : No
Fill up missing offset samples with silence : Yes
Delete leading and trailing silent blocks : No
Null samples used in CRC calculations : Yes
Used interface : Installed external ASPI interface

Used output format : User Defined Encoder
Selected bitrate : 1024 kBit/s
Quality : High
Add ID3 tag : No
Command line compressor : D:\Program Files\Exact Audio Copy\FLAC\FLAC.EXE
Additional command line options : -6 -V -T "ARTIST=%artist%" -T "TITLE=%title%" -T "ALBUM=%albumtitle%" -T "DATE=%year%" -T "TRACKNUMBER=%tracknr%" -T "GENRE=%genre%" -T "COMMENT=%comment%" -T "BAND=%albuminterpret%" -T "COMPOSER=%composer%" %haslyrics%–ta


TOC of the extracted CD

Track | Start | Length | Start sector | End sector
––––––––––––––––––––––––––––-
1 | 0:00.00 | 2:44.32 | 0 | 12331
2 | 2:44.32 | 2:28.03 | 12332 | 23434
3 | 5:12.35 | 2:55.18 | 23435 | 36577
4 | 8:07.53 | 3:27.62 | 36578 | 52164
5 | 11:35.40 | 2:23.35 | 52165 | 62924
6 | 13:59.00 | 3:01.30 | 62925 | 76529
7 | 17:00.30 | 3:01.43 | 76530 | 90147
8 | 20:01.73 | 2:21.47 | 90148 | 100769
9 | 22:23.45 | 2:36.48 | 100770 | 112517
10 | 25:00.18 | 2:03.55 | 112518 | 121797
11 | 27:03.73 | 3:06.65 | 121798 | 135812
12 | 30:10.63 | 3:04.05 | 135813 | 149617
13 | 33:14.68 | 2:43.20 | 149618 | 161862
14 | 35:58.13 | 2:05.30 | 161863 | 171267
15 | 38:03.43 | 2:51.22 | 171268 | 184114
16 | 40:54.65 | 2:32.28 | 184115 | 195542
17 | 43:27.18 | 2:26.65 | 195543 | 206557
18 | 45:54.08 | 3:28.67 | 206558 | 222224
19 | 49:23.00 | 3:10.68 | 222225 | 236542
20 | 52:33.68 | 2:44.50 | 236543 | 248892
21 | 55:18.43 | 2:27.38 | 248893 | 259955
22 | 57:46.06 | 3:47.07 | 259956 | 276987
23 | 61:33.13 | 2:30.55 | 276988 | 288292
24 | 64:03.68 | 3:14.53 | 288293 | 302895
25 | 67:18.46 | 2:55.30 | 302896 | 316050
26 | 70:14.01 | 3:00.10 | 316051 | 329560
27 | 73:14.11 | 1:52.32 | 329561 | 337992


Range status and errors

Selected range

Filename D:\Megaloi Galloi Tragoudistes\Henri Salvador\Henri Salvador - Megaloi Galloi Tragoudistes.wav

Peak level 100.0 %
Extraction speed 3.0 X
Range quality 99.9 %
Test CRC B6ED9DFD
Copy CRC B6ED9DFD
Copy OK

No errors occurred


AccurateRip summary

Track 1 not present in database
Track 2 not present in database
Track 3 not present in database
Track 4 not present in database
Track 5 not present in database
Track 6 not present in database
Track 7 not present in database
Track 8 not present in database
Track 9 not present in database
Track 10 not present in database
Track 11 not present in database
Track 12 not present in database
Track 13 not present in database
Track 14 not present in database
Track 15 not present in database
Track 16 not present in database
Track 17 not present in database
Track 18 not present in database
Track 19 not present in database
Track 20 not present in database
Track 21 not present in database
Track 22 not present in database
Track 23 not present in database
Track 24 not present in database
Track 25 not present in database
Track 26 not present in database
Track 27 not present in database

None of the tracks are present in the AccurateRip database

End of status report

==== Log checksum 0FEACD8C4DD7A8934809E8AB8B3A1956A9EDD08EEB6AAD001AB65010DCC98FD1 ====