Subcategories

Gheorghe Zamfir - Gheorghe Zamfir und seine Virtuosen (1994)

Posted By: Speedyclick
Gheorghe Zamfir - Gheorghe Zamfir und seine Virtuosen (1994)

Gheorghe Zamfir - Gheorghe Zamfir und seine Virtuosen (1994)
EAC Rip | FLAC (image & cue & log) & mp3 @ 320 kbps | tracks: 10 | Scans | 52:01 | ~ 291 Mb & 134 Mb
Label: Selected Sound Carrier | 5% recovery record | Instrumental, panflute, folklore

Excellent and rare CD from Israel with the Romanian virtuoso panflute player Gheorghe Zamfir and a music group of top artists playing traditional instruments. It contains 10 folkloric and traditional romanian tunes played with incredible artistry. Gheorghe Zamfir and his virtuoso friends 'at home'. An exceptional musical "chef-d'oeuvre".

TRACKLIST
01. A Frunzei / Joc Din Maramures / Joc De Doc
02. Banateanca
03. Hora Pe Loc
04. Ca La Nunta
05. Suita Din Caransebes
06. Breaza
07. Suita Banateana
08. Hora Ca La Caval
09. Mult Ma-Ntreaba Inima
10. Ca La Breaza

Exact Audio Copy V0.99 prebeta 5 from 4. May 2009

EAC extraction logfile from 19. February 2011, 21:10

Gheorghe Zamfir / Gheorghe Zamfir und seine Virtuosen

Used drive : HL-DT-STDVDRAM GP08LU11 Adapter: 3 ID: 1

Read mode : Secure
Utilize accurate stream : Yes
Defeat audio cache : Yes
Make use of C2 pointers : No

Read offset correction : 667
Overread into Lead-In and Lead-Out : No
Fill up missing offset samples with silence : Yes
Delete leading and trailing silent blocks : No
Null samples used in CRC calculations : No
Used interface : Native Win32 interface for Win NT & 2000

Used output format : User Defined Encoder
Selected bitrate : 896 kBit/s
Quality : High
Add ID3 tag : No
Command line compressor : C:\Program Files\FLAC\flac.exe
Additional command line options : -V -5 -T "artist=%a" -T "title=%t" -T "album=%g" -T "date=%y" -T "tracknumber=%n" -T "genre=%m" -5 %s


TOC of the extracted CD

Track | Start | Length | Start sector | End sector
––––––––––––––––––––––––––––-
1 | 0:00.00 | 4:44.15 | 0 | 21314
2 | 4:44.15 | 10:31.35 | 21315 | 68674
3 | 15:15.50 | 3:13.47 | 68675 | 83196
4 | 18:29.22 | 4:00.68 | 83197 | 101264
5 | 22:30.15 | 8:54.12 | 101265 | 141326
6 | 31:24.27 | 6:18.40 | 141327 | 169716
7 | 37:42.67 | 6:54.65 | 169717 | 200831
8 | 44:37.57 | 1:56.43 | 200832 | 209574
9 | 46:34.25 | 2:51.65 | 209575 | 222464
10 | 49:26.15 | 2:35.20 | 222465 | 234109


Range status and errors

Selected range

Filename S:\EAC Rips\Gheorghe Zamfir und seine Virtuosen\Gheorghe Zamfir - Gheorghe Zamfir und seine Virtuosen.wav

Peak level 95.2 %
Range quality 100.0 %
Test CRC A3D4C7C1
Copy CRC A3D4C7C1
Copy OK

No errors occurred


AccurateRip summary

Track 1 accurately ripped (confidence 1) [C4FA1A95]
Track 2 accurately ripped (confidence 1) [D61E504B]
Track 3 accurately ripped (confidence 1) [91903B83]
Track 4 accurately ripped (confidence 1) [57D70B8A]
Track 5 accurately ripped (confidence 1) [BDED25BC]
Track 6 accurately ripped (confidence 1) [CC92771F]
Track 7 accurately ripped (confidence 1) [059039D6]
Track 8 accurately ripped (confidence 1) [CDA7C27C]
Track 9 accurately ripped (confidence 1) [D7BA55A4]
Track 10 accurately ripped (confidence 1) [DF4EAA56]

All tracks accurately ripped

End of status report