Subcategories

Gheorghe Zamfir & Nicolaf Licaret - Panflute & Orgue (1994)

Posted By: Speedyclick
Gheorghe Zamfir & Nicolaf Licaret - Panflute & Orgue (1994)

Gheorghe Zamfir & Nicolaf Licaret - Panflute & Orgue (1994)
EAC Rip | FLAC (image & cue & log) & mp3 @ 320 kbps | tracks: 8 | Scans | 47:41 | ~ 248 Mb & 122 Mb
Label: Selected Sound Carrier | 5% recovery record | Instrumental, panflute, orgue, folklore

You could never imagine what a heavy and bulky orgue and a light, feather-weight panflute can create together, when in virtuoso's hands. When I hear the tracks of this CD, my mind fills up with images of a white seagull flying over the dark blue sea. Two extremes in the sound frequences meet for our pleasure. Hearing is believing.

TRACKLIST
01. Domasnea
02. Anna
03. Arad
04. Oltera
05. Jebel
06. Sarmis & Trefla
07. Flora
08. Doina de jale

Exact Audio Copy V0.99 prebeta 5 from 4. May 2009

EAC extraction logfile from 19. February 2011, 22:05

Georghe Zamfir / Panflute And Organ

Used drive : HL-DT-STDVDRAM GP08LU11 Adapter: 3 ID: 1

Read mode : Secure
Utilize accurate stream : Yes
Defeat audio cache : Yes
Make use of C2 pointers : No

Read offset correction : 667
Overread into Lead-In and Lead-Out : No
Fill up missing offset samples with silence : Yes
Delete leading and trailing silent blocks : No
Null samples used in CRC calculations : No
Used interface : Native Win32 interface for Win NT & 2000

Used output format : User Defined Encoder
Selected bitrate : 896 kBit/s
Quality : High
Add ID3 tag : No
Command line compressor : C:\Program Files\FLAC\flac.exe
Additional command line options : -V -5 -T "artist=%a" -T "title=%t" -T "album=%g" -T "date=%y" -T "tracknumber=%n" -T "genre=%m" -5 %s


TOC of the extracted CD

Track | Start | Length | Start sector | End sector
––––––––––––––––––––––––––––-
1 | 0:00.00 | 5:15.47 | 0 | 23671
2 | 5:15.47 | 3:09.15 | 23672 | 37861
3 | 8:24.62 | 6:55.60 | 37862 | 69046
4 | 15:20.47 | 6:49.70 | 69047 | 99791
5 | 22:10.42 | 4:44.48 | 99792 | 121139
6 | 26:55.15 | 9:01.17 | 121140 | 161731
7 | 35:56.32 | 4:24.58 | 161732 | 181589
8 | 40:21.15 | 7:20.47 | 181590 | 214636


Range status and errors

Selected range

Filename S:\EAC Rips\Gheorghe Zamfir & N. Licaret\Georghe Zamfir - Panflute And Organ.wav

Peak level 100.0 %
Range quality 100.0 %
Test CRC B0ECE07C
Copy CRC B0ECE07C
Copy OK

No errors occurred


AccurateRip summary

Track 1 not present in database
Track 2 not present in database
Track 3 not present in database
Track 4 not present in database
Track 5 not present in database
Track 6 not present in database
Track 7 not present in database
Track 8 not present in database

None of the tracks are present in the AccurateRip database

End of status report