Full Blown Cherry - The Rockabilly Tribute To The Ramones (2005) RESTORED

Posted By: Rehabilly
Full Blown Cherry - The Rockabilly Tribute To The Ramones (2005) RESTORED

Full Blown Cherry - The Rockabilly Tribute To The Ramones
EAC | FLAC+CUE+LOG or MP3 CBR 320 | 28:04 min | 221 or 92 MB

This CMH Records' release uses roots rock elements to masterfully honor the band, capturing a familiar misfit energy that would make each of the member proud. When you hear these rockin' rockabilly versions of songs like "Beat On The Brat", "I Wanna Be Sedated", and "The KKK Took My Baby Away", the only thing you'll be saying is Gabba Gabba Hey!


Tracklist:

01. Blitzkrieg Bop
02. Rockaway Beach
03. Sheena Is A Punk Rocker
04. Cretin Hop
05. She's The One
06. Judy Is A Punk
07. The KKK Took My Baby Away
08. Teenage Lobotomy
09. I Wanna Be Sedated
10. Do You Remember Rock 'N' Roll Radio?
11. Beat On The Brat
12. Bop 'til You Drop

Exact Audio Copy V1.0 beta 1 from 15. November 2010

EAC extraction logfile from 16. July 2012, 17:50

Full Blown Cherry / Rockabilly Tribute To The Ramones

Used drive : PIONEER DVD-RW DVR-219L Adapter: 9 ID: 0

Read mode : Secure
Utilize accurate stream : Yes
Defeat audio cache : Yes
Make use of C2 pointers : No

Read offset correction : 6
Overread into Lead-In and Lead-Out : No
Fill up missing offset samples with silence : Yes
Delete leading and trailing silent blocks : No
Null samples used in CRC calculations : Yes
Used interface : Installed external ASPI interface

Used output format : Internal WAV Routines
Sample format : 44.100 Hz; 16 Bit; Stereo


TOC of the extracted CD

Track | Start | Length | Start sector | End sector
––––––––––––––––––––––––––––-
1 | 0:00.00 | 1:53.10 | 0 | 8484
2 | 1:53.10 | 1:54.38 | 8485 | 17072
3 | 3:47.48 | 3:06.32 | 17073 | 31054
4 | 6:54.05 | 1:48.19 | 31055 | 39173
5 | 8:42.24 | 2:08.59 | 39174 | 48832
6 | 10:51.08 | 2:04.19 | 48833 | 58151
7 | 12:55.27 | 3:06.32 | 58152 | 72133
8 | 16:01.59 | 2:02.65 | 72134 | 81348
9 | 18:04.49 | 2:09.36 | 81349 | 91059
10 | 20:14.10 | 2:33.40 | 91060 | 102574
11 | 22:47.50 | 3:10.47 | 102575 | 116871
12 | 25:58.22 | 2:05.69 | 116872 | 126315


Range status and errors

Selected range

Filename C:\_www.AvaxHome.ru\Full Blown Cherry - The Rockabilly Tribute To The Ramones (.2005)\Full Blown Cherry - Rockabilly Tribute To The Ramones.wav

Peak level 100.0 %
Extraction speed 0.4 X
Range quality 99.9 %
Test CRC EF24B861
Copy CRC EF24B861
Copy OK

No errors occurred


AccurateRip summary

Track 1 accurately ripped (confidence 3) [1E6DDD2E]
Track 2 accurately ripped (confidence 3) [3E945596]
Track 3 accurately ripped (confidence 3) [76D810E3]
Track 4 accurately ripped (confidence 3) [93EC65B6]
Track 5 accurately ripped (confidence 3) [5DC7268A]
Track 6 accurately ripped (confidence 3) [B52DEA59]
Track 7 accurately ripped (confidence 3) [F59913C2]
Track 8 accurately ripped (confidence 3) [C301A831]
Track 9 accurately ripped (confidence 3) [4D4960C3]
Track 10 accurately ripped (confidence 3) [4CA9574C]
Track 11 accurately ripped (confidence 3) [BC13CBD0]
Track 12 accurately ripped (confidence 3) [0C8E7044]

All tracks accurately ripped

End of status report

==== Log checksum F8047DC000307AA88FDAC27C3F1BB55EBF456A5508B2079C6949A3A35D1F6F2F ====



all arrangements by Steven Edwards
Produced, Engineered & Mixed by Kris A. Alutius
Recorded at Slug Studio, Collingswood, New Jersey

• Steven Edwards - vocals, guitars
• Johnny Lingo - upright bass
• Halsey B. Gone - drums

Released: October 19, 2005
Label: CMH Records
Catalog No.: CD-8920
The Right choice*
http://nitroflare.com/view/5FE714BAEE81F3B/FBC205RockabRAM920FC.rar

lossy
http://nitroflare.com/view/0EEB8B5B974E283/FBC205RockabRAM20GC.rar

* EAC Image, embedded cuesheet & more, foobar2000 ready, etc.
(all CUEs, LOGs and other technical info includes in the internal "CD_Support" archive)


Complete artwork included in both types of archives.