Frank Zappa - Zappa In New York (1977) [2CD] {1995 Ryko Remaster}

Posted By: ruskaval
Frank Zappa - Zappa In New York (1977) [2CD] {1995 Ryko Remaster}

Frank Zappa - Zappa In New York (1977) [2CD] {1995 Ryko Remaster}
EAC rip (secure mode) | FLAC+CUE+LOG -> 324 Mb + 369 Mb | MP3 @320 -> 108 Mb + 121 Mb
Full Artwork @ 400 dpi (jpg) -> 65 Mb
© 1995 Rykodisc / The Zappa Family Trust | RCD 10524/25
Rock / Experimental Rock / Jazz Rock


Frank Zappa - Zappa In New York (1977) [2CD] {1995 Ryko Remaster}

Zappa in New York was recorded in December 1976 at the Palladium and originally intended for release in 1977. It was held up due to arguments between Frank Zappa and his then-record label, Warner Bros. When the two-LP set finally appeared in March 1978, Warner had deleted "Punky's Whips," a song about drummer Terry Bozzio's attraction to Punky Meadows of Angel. When Zappa reacquired the album and released it as a double CD in 1991, he restored "Punky's Whips" and added four bonus tracks. The Zappa band, which includes bassist Patrick O'Hearn, percussionist Ruth Underwood, and keyboard player Eddie Jobson, along with a horn section including the two Brecker brothers, was one of the bandleader's most accomplished, which it had to be to play songs like "Black Page," even in the "easy" version presented here. Zappa also was at the height of his comic stagecraft, notably on songs like "Titties & Beer," which essentially is a comedy routine between Zappa and Bozzio, and "The Illinois Enema Bandit," which features TV announcer Don Pardo.
Personnel includes: Frank Zappa (guitar, vocals); Michael Brecker (saxophone); Randy Brecker (trumpet); Terry Bozzio (drums).

tracklist:
CD1
1. Titties & Beer 7:36
2. Cruisin' For Burgers 9:12
3. I Promise Not To Come In Your Mouth 3:31
4. Punky's Whips 10:50
5. Honey, Don't You Want A Man Like Me? 4:11
6. The Illinois Enema Bandit 12:41

CD2
1. I'm The Slime 4:24
2. Pound For A Brown 3:41
3. Manx Needs Women 1:50
4. The Black Page Drum Solo/Black Page #1 3:50
5. Big Leg Emma 2:17
6. Sofa 2:56
7. Black Page #2 5:36
8. The Torture Never Stops 12:34
9. The Purple Lagoon/Approximate 16:40

Frank Zappa - Zappa In New York (1977) [2CD] {1995 Ryko Remaster}

Exact Audio Copy V0.99 prebeta 5 from 4. May 2009

EAC extraction logfile from 13. September 2009, 13:40

Frank Zappa / Zappa In New York [CD1]

Used drive : PIONEER DVD-RW DVR-111L Adapter: 3 ID: 0

Read mode : Secure
Utilize accurate stream : Yes
Defeat audio cache : Yes
Make use of C2 pointers : No

Read offset correction : 48
Overread into Lead-In and Lead-Out : No
Fill up missing offset samples with silence : Yes
Delete leading and trailing silent blocks : No
Null samples used in CRC calculations : Yes
Used interface : Native Win32 interface for Win NT & 2000
Gap handling : Appended to previous track

Used output format : User Defined Encoder
Selected bitrate : 1024 kBit/s
Quality : High
Add ID3 tag : No
Command line compressor : C:\Program Files\FLAC\flac.exe
Additional command line options : -8 -V -T "ARTIST=%a" -T "TITLE=%t" -T "ALBUM=%g" -T "DATE=%y" -T "TRACKNUMBER=%n" -T "GENRE=%m" -T "COMMENT=EAC FLAC -8" %s


TOC of the extracted CD

Track | Start | Length | Start sector | End sector
––––––––––––––––––––––––––––-
1 | 0:00.32 | 7:35.38 | 32 | 34194
2 | 7:35.70 | 9:12.52 | 34195 | 75646
3 | 16:48.47 | 3:31.43 | 75647 | 91514
4 | 20:20.15 | 10:50.55 | 91515 | 140319
5 | 31:10.70 | 4:11.17 | 140320 | 159161
6 | 35:22.12 | 12:41.60 | 159162 | 216296


Track 1

Filename C:\Frank Zappa - Zappa In New York (1977) [2CD] {1995 Ryko Remaster}\CD1\01 - Titties & Beer.wav

Pre-gap length 0:00:02.32

Peak level 96.8 %
Track quality 100.0 %
Test CRC 2E1674E5
Copy CRC 2E1674E5
Accurately ripped (confidence 14) [AFFF9CC0]
Copy OK

Track 2

Filename C:\Frank Zappa - Zappa In New York (1977) [2CD] {1995 Ryko Remaster}\CD1\02 - Cruisin' For Burgers.wav

Peak level 100.0 %
Track quality 100.0 %
Test CRC 298F7490
Copy CRC 298F7490
Accurately ripped (confidence 13) [1F26118A]
Copy OK

Track 3

Filename C:\Frank Zappa - Zappa In New York (1977) [2CD] {1995 Ryko Remaster}\CD1\03 - I Promise Not To Come In Your Mouth.wav

Peak level 96.1 %
Track quality 100.0 %
Test CRC 2A92A54B
Copy CRC 2A92A54B
Accurately ripped (confidence 14) [158274EA]
Copy OK

Track 4

Filename C:\Frank Zappa - Zappa In New York (1977) [2CD] {1995 Ryko Remaster}\CD1\04 - Punky's Whips.wav

Peak level 100.0 %
Track quality 100.0 %
Test CRC ADC532CA
Copy CRC ADC532CA
Accurately ripped (confidence 14) [00443A21]
Copy OK

Track 5

Filename C:\Frank Zappa - Zappa In New York (1977) [2CD] {1995 Ryko Remaster}\CD1\05 - Honey, Don't You Want A Man Like Me .wav

Peak level 91.2 %
Track quality 100.0 %
Test CRC AF7F60B6
Copy CRC AF7F60B6
Accurately ripped (confidence 14) [AF79DC51]
Copy OK

Track 6

Filename C:\Frank Zappa - Zappa In New York (1977) [2CD] {1995 Ryko Remaster}\CD1\06 - The Illinois Enema Bandit.wav

Peak level 100.0 %
Track quality 100.0 %
Test CRC F07841E5
Copy CRC F07841E5
Accurately ripped (confidence 14) [843D839E]
Copy OK


All tracks accurately ripped

No errors occurred

End of status report

FileSonic Linkz

or

FileServe Linkz

p.s. the files are interchangeable…

pass: ruskaval

No Mirror, plz!