Subcategories

Frank Zappa - Waka/Jawaka (1972) {1995 Ryko Remaster}

Posted By: ruskaval
Frank Zappa - Waka/Jawaka (1972) {1995 Ryko Remaster}

Frank Zappa - Waka/Jawaka (1972) {1995 Ryko Remaster}
EAC rip (secure mode) | FLAC, IMG+CUE+LOG -> 246 Mb | MP3 @320 -> 82 Mb
Full Artwork @ 300 dpi (jpg) -> 17 Mb
© 1995 Rykodisc / The Zappa Family Trust | RCD 10516
Rock / Experimental Rock / Jazz Rock


Frank Zappa - Waka/Jawaka (1972) {1995 Ryko Remaster}

While performing at England's Rainbow Theater on December 10, 1971, Frank Zappa sustained a serious injury when an overzealous fan pushed him off the stage. Zappa was forced to keep a low profile while recovering from this traumatic event, but he was in the middle of a very fertile recording period–his classic albums HOT RATS, BURNT WEENY SANDWICH, and CHUNGA'S REVENGE had all recently been released. Instead of moping around, Zappa immersed himself in writing new music, and 1972's WAKA/JAWAKA was his first album to appear since his accident.

Although not as instantly rewarding as the aforementioned HOT RATS, WAKA/JAWAKA is still a solid Zappa album. Like its predecessors, the album contains elements of Frank's instantly recognizable jazz-rock fusion. But due to its gritty rock production, the four-song album (two tracks are very lengthy, the others shorter) is not your normal fusion effort. The opener, "Big Swifty," leans more towards rock (thanks to Zappa's distorted guitar riffs), while the closing title track is jazzier, as a horn section plays the tune's multiple melodies. This release can be seen as an important step in Zappa's evolution: the scored, large ensemble fusion pieces and jazzy improvisations would play an increasing role in his music through the '70s.

tracklist:
1. Big Swifty 17:22
2. Your Mouth 3:12
3. It Just Might Be A One-Shot Deal 4:16
4. Waka/Jawaka 11:19

Frank Zappa - Waka/Jawaka (1972) {1995 Ryko Remaster}

Exact Audio Copy V0.99 prebeta 5 from 4. May 2009

EAC extraction logfile from 25. August 2009, 18:06

Frank Zappa / Waka/Jawaka

Used drive : PIONEER DVD-RW DVR-111L Adapter: 3 ID: 0

Read mode : Secure
Utilize accurate stream : Yes
Defeat audio cache : Yes
Make use of C2 pointers : No

Read offset correction : 48
Overread into Lead-In and Lead-Out : No
Fill up missing offset samples with silence : Yes
Delete leading and trailing silent blocks : No
Null samples used in CRC calculations : Yes
Used interface : Native Win32 interface for Win NT & 2000
Gap handling : Appended to previous track

Used output format : User Defined Encoder
Selected bitrate : 1024 kBit/s
Quality : High
Add ID3 tag : No
Command line compressor : C:\Program Files\FLAC\flac.exe
Additional command line options : -8 -V -T "ARTIST=%a" -T "TITLE=%t" -T "ALBUM=%g" -T "DATE=%y" -T "TRACKNUMBER=%n" -T "GENRE=%m" -T "COMMENT=EAC FLAC -8" %s


TOC of the extracted CD

Track | Start | Length | Start sector | End sector
––––––––––––––––––––––––––––-
1 | 0:00.00 | 17:22.35 | 0 | 78184
2 | 17:22.35 | 3:12.27 | 78185 | 92611
3 | 20:34.62 | 4:16.60 | 92612 | 111871
4 | 24:51.47 | 11:18.03 | 111872 | 162724


Track 1

Filename C:\Frank Zappa - Waka Jawaka (1972) {1995 Ryko Remaster}\01 - Big Swifty.wav

Pre-gap length 0:00:02.00

Peak level 100.0 %
Track quality 100.0 %
Test CRC E016269C
Copy CRC E016269C
Accurately ripped (confidence 20) [DB9C4252]
Copy OK

Track 2

Filename C:\Frank Zappa - Waka Jawaka (1972) {1995 Ryko Remaster}\02 - Your Mouth.wav

Peak level 96.2 %
Track quality 100.0 %
Test CRC ACED2DF1
Copy CRC ACED2DF1
Accurately ripped (confidence 20) [AEA0C18D]
Copy OK

Track 3

Filename C:\Frank Zappa - Waka Jawaka (1972) {1995 Ryko Remaster}\03 - It Just Might Be a One-Shot Deal.wav

Peak level 87.0 %
Track quality 100.0 %
Test CRC 9A279085
Copy CRC 9A279085
Accurately ripped (confidence 20) [4075C04C]
Copy OK

Track 4

Filename C:\Frank Zappa - Waka Jawaka (1972) {1995 Ryko Remaster}\04 - Waka,Jawaka.wav

Peak level 80.3 %
Track quality 100.0 %
Test CRC F836E206
Copy CRC F836E206
Accurately ripped (confidence 20) [DDCCF9D4]
Copy OK


All tracks accurately ripped

No errors occurred

End of status report

FSonic Linkz

or

FileServe Linkz

p.s. the files are interchangeable…

No Mirror, plz!