Subcategories

Frank Zappa & The Mothers - The Grand Wazoo (1972) {1995 Ryko Remaster}

Posted By: ruskaval
Frank Zappa & The Mothers - The Grand Wazoo (1972) {1995 Ryko Remaster}

Frank Zappa & The Mothers - The Grand Wazoo (1972) {1995 Ryko Remaster}
EAC rip (secure mode) | FLAC+CUE+LOG -> 249 Mb | MP3 @320 -> 84 Mb
Full Artwork @ 300 dpi (png) -> 74 Mb
© 1995 Rykodisc / The Zappa Family Trust | RCD 10517
Rock / Experimental Rock


Frank Zappa & The Mothers - The Grand Wazoo (1972) {1995 Ryko Remaster}

This album appeared within the same year as WAKA/JAWAKA and continued Zappa's exploration of the possibilities for composing and arranging material for a big band with a hefty brass and reed section. Both albums were produced during the period in which he was recuperating from injuries sustained when he was thrown from the stage during a London concert the year before. THE GRAND WAZOO still sounds like a fresh and equal marriage of Zappa's already developed and apparent musical sensibilities with large ensemble jazz writing. The couple vocal numbers utilize the singing as another melodic line, and are knitted into the whole fabric rather than laying on top.
tracklist:
1. The Grand Wazoo
2. For Calvin (And His Next Two Hitch-Hikers)
3. Cletus Awreetus-Awrightus
4. Eat That Question
5. Blessed Relief

Frank Zappa & The Mothers - The Grand Wazoo (1972) {1995 Ryko Remaster}

Exact Audio Copy V0.99 prebeta 5 from 4. May 2009

EAC extraction logfile from 26. August 2009, 21:36

Frank Zappa & The Mothers / The Grand Wazoo

Used drive : PIONEER DVD-RW DVR-111L Adapter: 3 ID: 0

Read mode : Secure
Utilize accurate stream : Yes
Defeat audio cache : Yes
Make use of C2 pointers : No

Read offset correction : 48
Overread into Lead-In and Lead-Out : No
Fill up missing offset samples with silence : Yes
Delete leading and trailing silent blocks : No
Null samples used in CRC calculations : Yes
Used interface : Native Win32 interface for Win NT & 2000
Gap handling : Appended to previous track

Used output format : User Defined Encoder
Selected bitrate : 1024 kBit/s
Quality : High
Add ID3 tag : No
Command line compressor : C:\Program Files\FLAC\flac.exe
Additional command line options : -8 -V -T "ARTIST=%a" -T "TITLE=%t" -T "ALBUM=%g" -T "DATE=%y" -T "TRACKNUMBER=%n" -T "GENRE=%m" -T "COMMENT=EAC FLAC -8" %s


TOC of the extracted CD

Track | Start | Length | Start sector | End sector
––––––––––––––––––––––––––––-
1 | 0:00.00 | 13:19.65 | 0 | 59989
2 | 13:19.65 | 6:06.25 | 59990 | 87464
3 | 19:26.15 | 2:57.20 | 87465 | 100759
4 | 22:23.35 | 6:42.62 | 100760 | 130971
5 | 29:06.22 | 7:59.13 | 130972 | 166909


Track 1

Filename C:\Frank Zappa & The Mothers - The Grand Wazoo (1972) {1995 Ryko Remaster}\01 - The Grand Wazoo.wav

Pre-gap length 0:00:02.00

Peak level 96.9 %
Track quality 100.0 %
Test CRC 8F48DA8B
Copy CRC 8F48DA8B
Accurately ripped (confidence 7) [1F135965]
Copy OK

Track 2

Filename C:\Frank Zappa & The Mothers - The Grand Wazoo (1972) {1995 Ryko Remaster}\02 - For Calvin (and his next two hitch-hikers).wav

Peak level 100.0 %
Track quality 100.0 %
Test CRC 2A4B76E3
Copy CRC 2A4B76E3
Accurately ripped (confidence 7) [2F22404B]
Copy OK

Track 3

Filename C:\Frank Zappa & The Mothers - The Grand Wazoo (1972) {1995 Ryko Remaster}\03 - Cletus Awreetus-Awrightus.wav

Peak level 100.0 %
Track quality 100.0 %
Test CRC C385281F
Copy CRC C385281F
Accurately ripped (confidence 7) [FBB2DACB]
Copy OK

Track 4

Filename C:\Frank Zappa & The Mothers - The Grand Wazoo (1972) {1995 Ryko Remaster}\04 - Eat That Question.wav

Peak level 96.9 %
Track quality 100.0 %
Test CRC 4B50F1F6
Copy CRC 4B50F1F6
Accurately ripped (confidence 7) [ECC8ED87]
Copy OK

Track 5

Filename C:\Frank Zappa & The Mothers - The Grand Wazoo (1972) {1995 Ryko Remaster}\05 - Blessed Relief.wav

Peak level 88.1 %
Track quality 99.9 %
Test CRC BD2098BF
Copy CRC BD2098BF
Accurately ripped (confidence 7) [EFACA01E]
Copy OK


All tracks accurately ripped

No errors occurred

End of status report

Please don't post the links and passes in your comments…

FileSonic Linkz

pass: ruskaval