Subcategories

Frank Zappa - Sheik Yerbouti (1979) {1995 Rykodisc Remaster}

Posted By: ruskaval
Frank Zappa - Sheik Yerbouti (1979) {1995 Rykodisc Remaster}

Frank Zappa - Sheik Yerbouti (1979) {1995 Rykodisc Remaster}
EAC rip | FLAC+CUE+LOG -> 465Mb | MP3 @320 -> 161Mb
70:31 | Full artwork @ 400 dpi -> 52Mb
Rykodisc / (Frank Zappa, March 1979)

Frank goes to the disco, loves your nails, and comes back with a genuine hit single, "Dancin' Fool." Not to mention the Number One hit, "Bobby Brown Goes Down" – okay, it was Number One only in Norway, since most US stations were too timid to play it. Zappa's band on this one includes drummer Terry Bozzio, keyboardist Tommy Mars, and the then-unknown Adrian Belew, who not only plays guitar but does his best Dylan imitation on "Flakes." Also here are the notorious "Jewish Princess," the definitive romantic treatise "Broken Hearts Are for Assholes"; and "I Have Been in You," a parody of Peter Frampton.

tracklist
1. I Have Been In You 3:34
2. Flakes 6:41
3. Broken Hearts Are For Assholes 3:42
4. I'm So Cute 3:09
5. Jones Crusher 2:49
6. What Ever Happened To All The Fun In The World 0:33
7. Rat Tomago 5:17
8. Wait A Minute 0:31
9. Bobby Brown Goes Down 2:49
10. Rubber Shirt (FZ/Bozzio/O'Hearn) 2:43
11. The Sheik Yerbouti Tango 3:58
12. Baby Snakes 1:50
13. Tryin' To Grow A Chin 3:32
14. City Of Tiny Lites 5:31
15. Dancin' Fool 3:43
16. Jewish Princess 3:16
17. Wild Love 4:09
18. Yo' Mama 12:35

Exact Audio Copy V0.99 prebeta 5 from 4. May 2009

EAC extraction logfile from 22. October 2009, 22:50

Frank Zappa / Sheik Yerbouti

Used drive : TSSTcorpCD/DVDW TS-H552L Adapter: 3 ID: 0

Read mode : Secure
Utilize accurate stream : Yes
Defeat audio cache : Yes
Make use of C2 pointers : No

Read offset correction : 6
Overread into Lead-In and Lead-Out : No
Fill up missing offset samples with silence : Yes
Delete leading and trailing silent blocks : No
Null samples used in CRC calculations : Yes
Used interface : Native Win32 interface for Win NT & 2000
Gap handling : Appended to previous track

Used output format : User Defined Encoder
Selected bitrate : 1024 kBit/s
Quality : High
Add ID3 tag : No
Command line compressor : C:\Program Files\FLAC\flac.exe
Additional command line options : -6 -V -T "ARTIST=%a" -T "TITLE=%t" -T "ALBUM=%g" -T "DATE=%y" -T "TRACKNUMBER=%n" -T "GENRE=%m" -T "COMMENT=EAC FLAC -6" %s


TOC of the extracted CD

Track | Start | Length | Start sector | End sector
––––––––––––––––––––––––––––-
1 | 0:00.00 | 3:34.02 | 0 | 16051
2 | 3:34.02 | 6:41.53 | 16052 | 46179
3 | 10:15.55 | 3:42.42 | 46180 | 62871
4 | 13:58.22 | 3:09.08 | 62872 | 77054
5 | 17:07.30 | 2:49.60 | 77055 | 89789
6 | 19:57.15 | 0:33.25 | 89790 | 92289
7 | 20:30.40 | 5:17.42 | 92290 | 116106
8 | 25:48.07 | 0:31.45 | 116107 | 118476
9 | 26:19.52 | 2:49.45 | 118477 | 131196
10 | 29:09.22 | 2:43.25 | 131197 | 143446
11 | 31:52.47 | 3:58.23 | 143447 | 161319
12 | 35:50.70 | 1:50.15 | 161320 | 169584
13 | 37:41.10 | 3:32.40 | 169585 | 185524
14 | 41:13.50 | 5:31.07 | 185525 | 210356
15 | 46:44.57 | 3:43.55 | 210357 | 227136
16 | 50:28.37 | 3:16.63 | 227137 | 241899
17 | 53:45.25 | 4:09.60 | 241900 | 260634
18 | 57:55.10 | 12:35.65 | 260635 | 317324


Track 1

Filename C:\Frank Zappa - Sheik Yerbouti\01 - I Have Been In You.wav

Pre-gap length 0:00:02.00

Peak level 100.0 %
Track quality 100.0 %
Test CRC 8BA6873A
Copy CRC 8BA6873A
Accurately ripped (confidence 40) [3769D206]
Copy OK

Track 2

Filename C:\Frank Zappa - Sheik Yerbouti\02 - Flakes.wav

Peak level 100.0 %
Track quality 100.0 %
Test CRC 5E80A640
Copy CRC 5E80A640
Accurately ripped (confidence 41) [300A1FD6]
Copy OK

Track 3

Filename C:\Frank Zappa - Sheik Yerbouti\03 - Broken Hearts Are For Assholes.wav

Peak level 100.0 %
Track quality 100.0 %
Test CRC 64240B25
Copy CRC 64240B25
Accurately ripped (confidence 41) [F6FCB74B]
Copy OK

Track 4

Filename C:\Frank Zappa - Sheik Yerbouti\04 - I'm So Cute.wav

Peak level 100.0 %
Track quality 100.0 %
Test CRC EEE265ED
Copy CRC EEE265ED
Accurately ripped (confidence 41) [7DDA41FE]
Copy OK

Track 5

Filename C:\Frank Zappa - Sheik Yerbouti\05 - Jones Crusher.wav

Peak level 100.0 %
Track quality 100.0 %
Test CRC 01914696
Copy CRC 01914696
Accurately ripped (confidence 41) [BEAA874B]
Copy OK

Track 6

Filename C:\Frank Zappa - Sheik Yerbouti\06 - What Ever Happened To All The Fun In The World.wav

Peak level 100.0 %
Track quality 100.0 %
Test CRC 6957FDC8
Copy CRC 6957FDC8
Accurately ripped (confidence 42) [0A2D9DD1]
Copy OK

Track 7

Filename C:\Frank Zappa - Sheik Yerbouti\07 - Rat Tomago.wav

Peak level 100.0 %
Track quality 100.0 %
Test CRC 1D6AAB74
Copy CRC 1D6AAB74
Accurately ripped (confidence 42) [9AC7D8AF]
Copy OK

Track 8

Filename C:\Frank Zappa - Sheik Yerbouti\08 - Wait A Minute.wav

Peak level 94.2 %
Track quality 100.0 %
Test CRC 8BFEDEDD
Copy CRC 8BFEDEDD
Accurately ripped (confidence 42) [F29A670F]
Copy OK

Track 9

Filename C:\Frank Zappa - Sheik Yerbouti\09 - Bobby Brown Goes Down.wav

Peak level 98.2 %
Track quality 100.0 %
Test CRC FC135EC5
Copy CRC FC135EC5
Accurately ripped (confidence 41) [6D29B3EC]
Copy OK

Track 10

Filename C:\Frank Zappa - Sheik Yerbouti\10 - Rubber Shirt.wav

Peak level 95.8 %
Track quality 100.0 %
Test CRC B0EC29C2
Copy CRC B0EC29C2
Accurately ripped (confidence 42) [D8E4CD53]
Copy OK

Track 11

Filename C:\Frank Zappa - Sheik Yerbouti\11 - The Sheik Yerbouti Tango.wav

Peak level 87.9 %
Track quality 100.0 %
Test CRC B503EC19
Copy CRC B503EC19
Accurately ripped (confidence 40) [86BC70A9]
Copy OK

Track 12

Filename C:\Frank Zappa - Sheik Yerbouti\12 - Baby Snakes.wav

Peak level 100.0 %
Track quality 100.0 %
Test CRC 65053BBB
Copy CRC 65053BBB
Accurately ripped (confidence 41) [45E0DA95]
Copy OK

Track 13

Filename C:\Frank Zappa - Sheik Yerbouti\13 - Tryin' to Grow A Chin.wav

Peak level 100.0 %
Track quality 99.9 %
Test CRC 1A247B23
Copy CRC 1A247B23
Accurately ripped (confidence 40) [2F045C47]
Copy OK

Track 14

Filename C:\Frank Zappa - Sheik Yerbouti\14 - City Of Tiny Lites.wav

Peak level 100.0 %
Track quality 100.0 %
Test CRC B28E1C2D
Copy CRC B28E1C2D
Accurately ripped (confidence 39) [AC125FA2]
Copy OK

Track 15

Filename C:\Frank Zappa - Sheik Yerbouti\15 - Dancin' Fool.wav

Peak level 100.0 %
Track quality 100.0 %
Test CRC F3199DFB
Copy CRC F3199DFB
Accurately ripped (confidence 40) [73493F88]
Copy OK

Track 16

Filename C:\Frank Zappa - Sheik Yerbouti\16 - Jewish Princess.wav

Peak level 100.0 %
Track quality 100.0 %
Test CRC 7FA3D87D
Copy CRC 7FA3D87D
Accurately ripped (confidence 41) [62158221]
Copy OK

Track 17

Filename C:\Frank Zappa - Sheik Yerbouti\17 - Wild Love.wav

Peak level 100.0 %
Track quality 100.0 %
Test CRC 6261B911
Copy CRC 6261B911
Accurately ripped (confidence 40) [89C7AC21]
Copy OK

Track 18

Filename C:\Frank Zappa - Sheik Yerbouti\18 - Yo' Mama.wav

Peak level 100.0 %
Track quality 100.0 %
Test CRC 80CF9FA2
Copy CRC 80CF9FA2
Accurately ripped (confidence 34) [FBC70C2D]
Copy OK


All tracks accurately ripped

No errors occurred

End of status report


FileSonic Linkz

or

FileServe Linkz

p.s. the files are interchangeable…

pass: ruskaval

No Mirror, plz!