Frank Zappa - Civilization Phaze III (2CD) (1994)

Posted By: ruskaval
Frank Zappa - Civilization Phaze III (2CD) (1994)

Frank Zappa - Civilization Phaze III (2CD) (1994)
EAC rip (secure mode) | FLAC+CUE+LOG -> 631 Mb | MP3 @320 -> 257 Mb
Full Artwork @ 300 dpi (jpg) -> 10 Mb
© 1994 The Zappa Family Trust | CDDZAP 56
Rock / Experimental Rock / Modern Composition


Frank Zappa - Civilization Phaze III (2CD) (1994)

Civilization Phaze III is the last album of new music Frank Zappa completed before his death in December 1993. It belongs to his corpus of "serious music." The composer has revisited the recordings he made in 1967 of various people talking with their heads inside a grand piano (with the sustain pedal depressed, it made quite a resonating room). These conversations were used in part in the 1968 LP Lumpy Gravy, but here Zappa (with the help of less limiting technology) restructured the comments of the "people living inside the piano" into a quasi-coherent plot. Basically, they are either outcasts or in self-exile from the outer world. They hide from a menacing reality. These spoken bits serve to tie together computer and orchestra music. Compared to his cruder attempts from the mid-'80s (like Jazz From Hell), these pieces sound lush, rich, natural. They still make for a challenging listen but are much more rewarding in the end. "Amnerika," the 18-minute "N-Lite," and the closer "Waffenspiel" stand among the man's best scored music. Disc one is 100 percent Synclavier (a keyboard computer) and 1967 dialogues. Disc two introduces a few orchestral pieces performed by Ensemble Modern and new piano voices recorded in 1991. The whole project was conceptualized as an "opera-pantomime." Zappa's indications put more flesh around the music and provide conceptual continuity clues for the die-hard fans (the booklet also contains transcriptions of all the dialogues). The original artwork and packaging are stunning and luxurious, a match for the music, some of the most compelling Zappa wrote outside of the rock realm.
tracklist:
CD2
01. "This Is Phaze III" 0:47
02. Put A Motor In Yourself 5:13
03. "Oh-Umm" 0:50
04. They Made Me Eat It 1:48
05. Reagan At Bitburg 5:39
06. "A Very Nice Body" 1:00
07. Navanax 1:40
08. "How The Pigs' Music Works" 1:49
09. Xmas Values 5:31
10. "Dark Water!" 0:23
11. Amnerika 3:03
12. "Have You Heard Their Band?" 0:38
13. Religious Superstition 0:43
14. "Saliva Can Only Take So Much" 0:27
15. Buffalo Voice 5:12
16. "Someplace Else Right Now" 0:32
17. Get A Life 2:20
18. "A Kayak (On Snow)" 0:28
19. N-Lite 18:00

CD2
01. "I Wish Motorhead Would Come Back" 0:14
02. Secular Humanism 2:41
03. "Attack! Attack! Attack!" 1:24
04. I Was In A Drum 3:38
05. "A Different Octave" 0:57
06. "This Ain't CNN" 3:20
07. "The Pigs' Music" 1:17
08. A Pig With Wings 2:52
09. "This Is All Wrong" 1:42
10. Hot & Putrid 0:29
11. "Flowing Inside-Out" 0:46
12. "I Had A Dream About That" 0:27
13. Gross Man 2:54
14. "A Tunnel Into Muck" 0:21
15. Why Not? 2:18
16. "Put A Little Motor In 'Em" 0:50
17. "You're Just Insultin' Me, Aren't You!" 2:13
18. "Cold Light Generation" 0:44
19. Dio Fa 8:18
20. "That Would Be The End Of That" 0:35
21. Beat The Reaper 15:23
22. Waffenspiel 4:04

Frank Zappa - Civilization Phaze III (2CD) (1994)

Exact Audio Copy V0.99 prebeta 5 from 4. May 2009

EAC extraction logfile from 30. October 2009, 12:02

Frank Zappa / Civilization Phaze III (CD10

Used drive : TSSTcorpCD/DVDW TS-H552L Adapter: 3 ID: 0

Read mode : Secure
Utilize accurate stream : Yes
Defeat audio cache : Yes
Make use of C2 pointers : No

Read offset correction : 6
Overread into Lead-In and Lead-Out : No
Fill up missing offset samples with silence : Yes
Delete leading and trailing silent blocks : No
Null samples used in CRC calculations : Yes
Used interface : Native Win32 interface for Win NT & 2000
Gap handling : Appended to previous track

Used output format : User Defined Encoder
Selected bitrate : 1024 kBit/s
Quality : High
Add ID3 tag : No
Command line compressor : C:\Program Files\FLAC\flac.exe
Additional command line options : -6 -V -T "ARTIST=%a" -T "TITLE=%t" -T "ALBUM=%g" -T "DATE=%y" -T "TRACKNUMBER=%n" -T "GENRE=%m" -T "COMMENT=EAC FLAC -6" %s


TOC of the extracted CD

Track | Start | Length | Start sector | End sector
––––––––––––––––––––––––––––-
1 | 0:00.00 | 0:47.42 | 0 | 3566
2 | 0:47.42 | 5:13.45 | 3567 | 27086
3 | 6:01.12 | 0:50.15 | 27087 | 30851
4 | 6:51.27 | 1:48.03 | 30852 | 38954
5 | 8:39.30 | 5:39.07 | 38955 | 64386
6 | 14:18.37 | 1:00.05 | 64387 | 68891
7 | 15:18.42 | 1:40.08 | 68892 | 76399
8 | 16:58.50 | 1:49.32 | 76400 | 84606
9 | 18:48.07 | 5:31.00 | 84607 | 109431
10 | 24:19.07 | 0:23.30 | 109432 | 111186
11 | 24:42.37 | 3:03.53 | 111187 | 124964
12 | 27:46.15 | 0:38.35 | 124965 | 127849
13 | 28:24.50 | 0:43.30 | 127850 | 131104
14 | 29:08.05 | 0:27.52 | 131105 | 133181
15 | 29:35.57 | 5:12.23 | 133182 | 156604
16 | 34:48.05 | 0:32.52 | 156605 | 159056
17 | 35:20.57 | 2:20.60 | 159057 | 169616
18 | 37:41.42 | 0:28.53 | 169617 | 171769
19 | 38:10.20 | 18:00.42 | 171770 | 252811


Track 1

Filename C:\Frank Zappa - Civilization Phaze III (2CD) (1994)\CD1\01 - 'This Is Phaze III'.wav

Pre-gap length 0:00:02.00

Peak level 87.1 %
Track quality 100.0 %
Test CRC 6803043E
Copy CRC 6803043E
Accurately ripped (confidence 24) [2C22B7CF]
Copy OK

Track 2

Filename C:\Frank Zappa - Civilization Phaze III (2CD) (1994)\CD1\02 - Put A Motor In Yourself.wav

Peak level 99.8 %
Track quality 100.0 %
Test CRC 4B2E0C15
Copy CRC 4B2E0C15
Accurately ripped (confidence 24) [F179148D]
Copy OK

Track 3

Filename C:\Frank Zappa - Civilization Phaze III (2CD) (1994)\CD1\03 - 'Oh-Umm'.wav

Pre-gap length 0:00:00.11

Peak level 80.7 %
Track quality 100.0 %
Test CRC 840BFCCF
Copy CRC 840BFCCF
Accurately ripped (confidence 24) [F133FBD4]
Copy OK

Track 4

Filename C:\Frank Zappa - Civilization Phaze III (2CD) (1994)\CD1\04 - They Made Me Eat It.wav

Pre-gap length 0:00:00.08

Peak level 94.0 %
Track quality 100.0 %
Test CRC 6A74F8F8
Copy CRC 6A74F8F8
Accurately ripped (confidence 24) [1A1511FF]
Copy OK

Track 5

Filename C:\Frank Zappa - Civilization Phaze III (2CD) (1994)\CD1\05 - Reagan At Bitburg.wav

Peak level 98.8 %
Track quality 100.0 %
Test CRC 73F094E6
Copy CRC 73F094E6
Accurately ripped (confidence 24) [B463AF51]
Copy OK

Track 6

Filename C:\Frank Zappa - Civilization Phaze III (2CD) (1994)\CD1\06 - 'A Very Nice Body'.wav

Peak level 81.7 %
Track quality 100.0 %
Test CRC 71BFC5DB
Copy CRC 71BFC5DB
Accurately ripped (confidence 23) [58ACD195]
Copy OK

Track 7

Filename C:\Frank Zappa - Civilization Phaze III (2CD) (1994)\CD1\07 - Navanax.wav

Pre-gap length 0:00:00.09

Peak level 98.8 %
Track quality 100.0 %
Test CRC C76FE1BE
Copy CRC C76FE1BE
Accurately ripped (confidence 24) [C664CBB0]
Copy OK

Track 8

Filename C:\Frank Zappa - Civilization Phaze III (2CD) (1994)\CD1\08 - 'How The Pigs' Music Works'.wav

Peak level 60.7 %
Track quality 100.0 %
Test CRC 9E27C938
Copy CRC 9E27C938
Accurately ripped (confidence 25) [1468EF98]
Copy OK

Track 9

Filename C:\Frank Zappa - Civilization Phaze III (2CD) (1994)\CD1\09 - Xmas Values.wav

Pre-gap length 0:00:00.09

Peak level 90.7 %
Track quality 100.0 %
Test CRC C81B8989
Copy CRC C81B8989
Accurately ripped (confidence 24) [A5139298]
Copy OK

Track 10

Filename C:\Frank Zappa - Civilization Phaze III (2CD) (1994)\CD1\10 - 'Dark Water!'.wav

Pre-gap length 0:00:00.04

Peak level 81.8 %
Track quality 100.0 %
Test CRC 88342EB3
Copy CRC 88342EB3
Accurately ripped (confidence 25) [23D35251]
Copy OK

Track 11

Filename C:\Frank Zappa - Civilization Phaze III (2CD) (1994)\CD1\11 - Amnerika.wav

Peak level 97.8 %
Track quality 100.0 %
Test CRC 12A0F140
Copy CRC 12A0F140
Accurately ripped (confidence 26) [12694760]
Copy OK

Track 12

Filename C:\Frank Zappa - Civilization Phaze III (2CD) (1994)\CD1\12 - 'Have You Heard Their Band '.wav

Peak level 62.8 %
Track quality 100.0 %
Test CRC A730059B
Copy CRC A730059B
Accurately ripped (confidence 24) [EECE9CE1]
Copy OK

Track 13

Filename C:\Frank Zappa - Civilization Phaze III (2CD) (1994)\CD1\13 - Religious Superstition.wav

Peak level 97.2 %
Track quality 100.0 %
Test CRC 118591A6
Copy CRC 118591A6
Accurately ripped (confidence 25) [A1C2FCC9]
Copy OK

Track 14

Filename C:\Frank Zappa - Civilization Phaze III (2CD) (1994)\CD1\14 - 'Saliva Can Only Take So Much'.wav

Pre-gap length 0:00:00.11

Peak level 68.3 %
Track quality 100.0 %
Test CRC 16E8903C
Copy CRC 16E8903C
Accurately ripped (confidence 23) [220B6EB4]
Copy OK

Track 15

Filename C:\Frank Zappa - Civilization Phaze III (2CD) (1994)\CD1\15 - Buffalo Voice.wav

Peak level 100.0 %
Track quality 100.0 %
Test CRC C27CD476
Copy CRC C27CD476
Accurately ripped (confidence 23) [9B96E0DA]
Copy OK

Track 16

Filename C:\Frank Zappa - Civilization Phaze III (2CD) (1994)\CD1\16 - 'Someplace Else Right Now'.wav

Pre-gap length 0:00:00.10

Peak level 55.5 %
Track quality 100.0 %
Test CRC B9104769
Copy CRC B9104769
Accurately ripped (confidence 23) [F1B4FF6C]
Copy OK

Track 17

Filename C:\Frank Zappa - Civilization Phaze III (2CD) (1994)\CD1\17 - Get A Life.wav

Peak level 96.6 %
Track quality 99.9 %
Test CRC 332AA316
Copy CRC 332AA316
Accurately ripped (confidence 23) [4A56A042]
Copy OK

Track 18

Filename C:\Frank Zappa - Civilization Phaze III (2CD) (1994)\CD1\18 - 'A Kayak (On Snow)'.wav

Peak level 53.8 %
Track quality 100.0 %
Test CRC C3B1EB95
Copy CRC C3B1EB95
Accurately ripped (confidence 23) [03DAA11A]
Copy OK

Track 19

Filename C:\Frank Zappa - Civilization Phaze III (2CD) (1994)\CD1\19 - N-Lite.wav

Peak level 98.8 %
Track quality 99.9 %
Test CRC 38CD9F35
Copy CRC 38CD9F35
Accurately ripped (confidence 21) [C58E724D]
Copy OK


All tracks accurately ripped

No errors occurred

End of status report
–––––––––––––––––––––––––––––––––––––––––––––––––––––––––––––––––
Exact Audio Copy V0.99 prebeta 5 from 4. May 2009

EAC extraction logfile from 30. October 2009, 12:10

Frank Zappa / Civilization Phaze III (CD2)

Used drive : TSSTcorpCD/DVDW TS-H552L Adapter: 3 ID: 0

Read mode : Secure
Utilize accurate stream : Yes
Defeat audio cache : Yes
Make use of C2 pointers : No

Read offset correction : 6
Overread into Lead-In and Lead-Out : No
Fill up missing offset samples with silence : Yes
Delete leading and trailing silent blocks : No
Null samples used in CRC calculations : Yes
Used interface : Native Win32 interface for Win NT & 2000
Gap handling : Appended to previous track

Used output format : User Defined Encoder
Selected bitrate : 1024 kBit/s
Quality : High
Add ID3 tag : No
Command line compressor : C:\Program Files\FLAC\flac.exe
Additional command line options : -6 -V -T "ARTIST=%a" -T "TITLE=%t" -T "ALBUM=%g" -T "DATE=%y" -T "TRACKNUMBER=%n" -T "GENRE=%m" -T "COMMENT=EAC FLAC -6" %s


TOC of the extracted CD

Track | Start | Length | Start sector | End sector
––––––––––––––––––––––––––––-
1 | 0:00.00 | 0:14.07 | 0 | 1056
2 | 0:14.07 | 2:41.00 | 1057 | 13131
3 | 2:55.07 | 1:24.68 | 13132 | 19499
4 | 4:20.00 | 3:38.22 | 19500 | 35871
5 | 7:58.22 | 0:57.53 | 35872 | 40199
6 | 8:56.00 | 3:20.57 | 40200 | 55256
7 | 12:16.57 | 1:17.40 | 55257 | 61071
8 | 13:34.22 | 2:52.00 | 61072 | 73971
9 | 16:26.22 | 1:42.60 | 73972 | 81681
10 | 18:09.07 | 0:29.13 | 81682 | 83869
11 | 18:38.20 | 0:46.17 | 83870 | 87336
12 | 19:24.37 | 0:27.58 | 87337 | 89419
13 | 19:52.20 | 2:54.37 | 89420 | 102506
14 | 22:46.57 | 0:21.15 | 102507 | 104096
15 | 23:07.72 | 2:18.48 | 104097 | 114494
16 | 25:26.45 | 0:50.67 | 114495 | 118311
17 | 26:17.37 | 2:13.13 | 118312 | 128299
18 | 28:30.50 | 0:44.10 | 128300 | 131609
19 | 29:14.60 | 8:18.65 | 131610 | 169024
20 | 37:33.50 | 0:35.52 | 169025 | 171701
21 | 38:09.27 | 15:23.23 | 171702 | 240949
22 | 53:32.50 | 4:04.62 | 240950 | 259311


Track 1

Filename C:\Frank Zappa - Civilization Phaze III (2CD) (1994)\CD2\01 - 'I Wish Motorhead Would Come Back'.wav

Pre-gap length 0:00:02.00

Peak level 50.3 %
Track quality 100.0 %
Test CRC 2AA87F06
Copy CRC 2AA87F06
Accurately ripped (confidence 24) [28503582]
Copy OK

Track 2

Filename C:\Frank Zappa - Civilization Phaze III (2CD) (1994)\CD2\02 - Secular Humanism.wav

Pre-gap length 0:00:00.13

Peak level 92.7 %
Track quality 100.0 %
Test CRC 2EE279C3
Copy CRC 2EE279C3
Accurately ripped (confidence 23) [DB0B615E]
Copy OK

Track 3

Filename C:\Frank Zappa - Civilization Phaze III (2CD) (1994)\CD2\03 - 'Attack! Attack! Attack!'.wav

Pre-gap length 0:00:00.04

Peak level 72.5 %
Track quality 100.0 %
Test CRC 91937C1E
Copy CRC 91937C1E
Accurately ripped (confidence 24) [FAA13695]
Copy OK

Track 4

Filename C:\Frank Zappa - Civilization Phaze III (2CD) (1994)\CD2\04 - I Was In A Drum.wav

Peak level 94.4 %
Track quality 100.0 %
Test CRC 3F83EF98
Copy CRC 3F83EF98
Accurately ripped (confidence 24) [E09D8E66]
Copy OK

Track 5

Filename C:\Frank Zappa - Civilization Phaze III (2CD) (1994)\CD2\05 - 'A Different Octave'.wav

Pre-gap length 0:00:00.01

Peak level 91.7 %
Track quality 100.0 %
Test CRC 2254F920
Copy CRC 2254F920
Accurately ripped (confidence 24) [57008C9A]
Copy OK

Track 6

Filename C:\Frank Zappa - Civilization Phaze III (2CD) (1994)\CD2\06 - 'This Ain't CNN'.wav

Peak level 90.4 %
Track quality 100.0 %
Test CRC 396ADEF2
Copy CRC 396ADEF2
Accurately ripped (confidence 24) [CF88345A]
Copy OK

Track 7

Filename C:\Frank Zappa - Civilization Phaze III (2CD) (1994)\CD2\07 - 'The Pigs' Music'.wav

Pre-gap length 0:00:00.01

Peak level 95.2 %
Track quality 100.0 %
Test CRC 577D212A
Copy CRC 577D212A
Accurately ripped (confidence 24) [61AF38E0]
Copy OK

Track 8

Filename C:\Frank Zappa - Civilization Phaze III (2CD) (1994)\CD2\08 - A Pig With Wings.wav

Peak level 90.6 %
Track quality 99.9 %
Test CRC D6550F16
Copy CRC D6550F16
Accurately ripped (confidence 24) [D1BA5CEC]
Copy OK

Track 9

Filename C:\Frank Zappa - Civilization Phaze III (2CD) (1994)\CD2\09 - 'This Is All Wrong'.wav

Pre-gap length 0:00:00.05

Peak level 100.0 %
Track quality 100.0 %
Test CRC 0B7179A3
Copy CRC 0B7179A3
Accurately ripped (confidence 24) [F6CAA881]
Copy OK

Track 10

Filename C:\Frank Zappa - Civilization Phaze III (2CD) (1994)\CD2\10 - Hot & Putrid.wav

Peak level 96.8 %
Track quality 100.0 %
Test CRC BDFFF6E2
Copy CRC BDFFF6E2
Accurately ripped (confidence 22) [C5E69A95]
Copy OK

Track 11

Filename C:\Frank Zappa - Civilization Phaze III (2CD) (1994)\CD2\11 - 'Flowing Inside-Out'.wav

Peak level 85.6 %
Track quality 100.0 %
Test CRC DD7973EC
Copy CRC DD7973EC
Accurately ripped (confidence 24) [5CEA128F]
Copy OK

Track 12

Filename C:\Frank Zappa - Civilization Phaze III (2CD) (1994)\CD2\12 - 'I Had A Dream About That'.wav

Peak level 80.0 %
Track quality 100.0 %
Test CRC C5F37B10
Copy CRC C5F37B10
Accurately ripped (confidence 24) [12274E9F]
Copy OK

Track 13

Filename C:\Frank Zappa - Civilization Phaze III (2CD) (1994)\CD2\13 - Gross Man.wav

Peak level 92.8 %
Track quality 100.0 %
Test CRC 611AF216
Copy CRC 611AF216
Accurately ripped (confidence 24) [A4B0BB71]
Copy OK

Track 14

Filename C:\Frank Zappa - Civilization Phaze III (2CD) (1994)\CD2\14 - 'A Tunnel Into Muck'.wav

Peak level 96.4 %
Track quality 100.0 %
Test CRC C1E57233
Copy CRC C1E57233
Accurately ripped (confidence 24) [1E46EF90]
Copy OK

Track 15

Filename C:\Frank Zappa - Civilization Phaze III (2CD) (1994)\CD2\15 - Why Not .wav

Peak level 99.3 %
Track quality 100.0 %
Test CRC F0C0326E
Copy CRC F0C0326E
Accurately ripped (confidence 24) [433D4CBD]
Copy OK

Track 16

Filename C:\Frank Zappa - Civilization Phaze III (2CD) (1994)\CD2\16 - 'Put A Little Motor In 'Em'.wav

Pre-gap length 0:00:00.11

Peak level 93.4 %
Track quality 100.0 %
Test CRC A29D86CE
Copy CRC A29D86CE
Accurately ripped (confidence 24) [034691DA]
Copy OK

Track 17

Filename C:\Frank Zappa - Civilization Phaze III (2CD) (1994)\CD2\17 - 'You're Just Insultin' Me, Aren't You!'.wav

Peak level 100.0 %
Track quality 100.0 %
Test CRC 271AEA3F
Copy CRC 271AEA3F
Accurately ripped (confidence 23) [134C53E4]
Copy OK

Track 18

Filename C:\Frank Zappa - Civilization Phaze III (2CD) (1994)\CD2\18 - 'Cold Light Generation'.wav

Peak level 100.0 %
Track quality 99.7 %
Test CRC 3732D140
Copy CRC 3732D140
Accurately ripped (confidence 23) [574D2A5A]
Copy OK

Track 19

Filename C:\Frank Zappa - Civilization Phaze III (2CD) (1994)\CD2\19 - Dio Fa.wav

Peak level 100.0 %
Track quality 100.0 %
Test CRC A60E3E15
Copy CRC A60E3E15
Accurately ripped (confidence 23) [1D38D18C]
Copy OK

Track 20

Filename C:\Frank Zappa - Civilization Phaze III (2CD) (1994)\CD2\20 - 'That Would Be The End Of That'.wav

Peak level 54.7 %
Track quality 100.0 %
Test CRC 85484843
Copy CRC 85484843
Accurately ripped (confidence 23) [D590F4A1]
Copy OK

Track 21

Filename C:\Frank Zappa - Civilization Phaze III (2CD) (1994)\CD2\21 - Beat The Reaper.wav

Peak level 100.0 %
Track quality 100.0 %
Test CRC A24419E3
Copy CRC A24419E3
Accurately ripped (confidence 23) [5016E7F7]
Copy OK

Track 22

Filename C:\Frank Zappa - Civilization Phaze III (2CD) (1994)\CD2\22 - Waffenspiel.wav

Peak level 100.0 %
Track quality 100.0 %
Test CRC 59F38815
Copy CRC 59F38815
Accurately ripped (confidence 24) [15EC2AB0]
Copy OK


All tracks accurately ripped

No errors occurred

End of status report