Subcategories

Frank Zappa - Buffalo (2CD) (2007)

Posted By: ruskaval
Frank Zappa - Buffalo (2CD) (2007)

Frank Zappa - Buffalo (2CD) (2007)
EAC rip (secure mode) | FLAC+CUE+LOG -> 1 Gb | MP3 @320 -> 316 Mb
Full Artwork @ 400 dpi (jpg) -> 87 Mb
© 2007 Vaulternative Records | VR 2007-1
Rock / Experimental Rock


Frank Zappa - Buffalo (2CD) (2007)

Buffalo is a two-hour-and-20-minute, two-CD set chronicling Zappa's appearance at the Memorial Auditorium in Buffalo, NY, on October 25, 1980. At that time, the 39-year-old composer/guitarist/singer had assembled a particularly adept band including "stunt" guitarist Steve Vai and virtuoso drummer Vinnie Colaiuta and, freed from record company restrictions, was preparing a lot of new material for his new Barking Pumpkin Records label. The concert reflects that, looking forward to the upcoming Tinseltown Rebellion live album to be issued in May 1981 by presenting the title song, "Pick Me, I'm Clean," and "Easy Meat." You Are What You Is, Zappa's second double LP of 1981, was anticipated by the inclusion of its title song, "Mudd Club," and "The Meek Shall Inherit Nothing." And there was even an improvisation, "Buffalo Drowning Witch," that presaged the 1982 album Ship Arriving Too Late to Save a Drowning Witch. When Zappa wasn't introducing new material, he was, for the most part, reprising recent songs such as "City of Tiny Lites," "Broken Hearts Are for Assholes," "I'm So Cute," "Dancing Fool," and "Bobby Brown" from Sheik Yerbouti, "Joe's Garage" from Joe's Garage, Act I, and "Keep It Greasy" and "Stick It Out" from Joe's Garage, Acts II & III, all released in 1979, and his 1980 one-off single, "I Don't Wanna Get Drafted." Only "Ain't Got No Heart" (also to be featured on Tinseltown Rebellion) dated from the '60s. The technical abilities of Zappa's band allowed for the rhythmic complexity and sudden shifts from one song to another in which he delighted, as the group suddenly changed from rapid-fire improvisatory playing to subtle vamping behind one of his comic monologues. The Buffalo show was not one of Zappa's great performances; in fact, his repeated stumbling on the lyrics to "Honey, Don't You Want a Man Like Me?" might have condemned it to remain in the vaults. But it was a good one, and representative one of the 1980 tour, which should make it valuable to Zappa fans, particularly because it provides a true audio record of a full performance without the kinds of edits and overdubs Zappa was wont to employ on the live recordings he issued during his lifetime.
tracklist:
CD 1
1. Chunga's Revenge 8:34
2. You Are What You Is 4:12
3. Mudd Club 3:02
4. The Meek Shall Inherit Nothing 3:21
5. Cosmik Debris 3:50
6. Keep It Greasy 2:58
7. Tinsel Town Rebellion 4:19
8. Buffalo Drowning Witch 2:44
9. Honey, Don't You Want A Man Like Me? 4:36
10. Pick Me, I'm Clean 10:15
11. Dead Girls Of London (FZ/Shankar) 3:02
12. Shall We Take Ourselves Seriously? 1:36
13. City Of Tiny Lites 9:58

CD 2
1. Easy Meat 9:26
2. Ain't Got No Heart 2:00
3. The Torture Never Stops 23:36
4. Broken Hearts Are For Assholes 3:39
5. I'm So Cute 1:38
6. Andy 8:14
7. Joe's Garage 2:12
8. Dancing Fool 3:36
9. The "Real World" Thematic Extrapolations 8:53
10. Stick It Out 5:36
11. I Don't Wanna Get Drafted 2:48
12. Bobby Brown 2:42
13. Ms Pinky 3:48

Frank Zappa - Buffalo (2CD) (2007)

Exact Audio Copy V0.99 prebeta 5 from 4. May 2009

EAC extraction logfile from 21. October 2009, 19:15

Frank Zappa / Buffalo 1980-10-25 (disc 1)

Used drive : TSSTcorpCD/DVDW TS-H552L Adapter: 3 ID: 0

Read mode : Secure
Utilize accurate stream : Yes
Defeat audio cache : Yes
Make use of C2 pointers : No

Read offset correction : 6
Overread into Lead-In and Lead-Out : No
Fill up missing offset samples with silence : Yes
Delete leading and trailing silent blocks : No
Null samples used in CRC calculations : Yes
Used interface : Native Win32 interface for Win NT & 2000
Gap handling : Appended to previous track

Used output format : User Defined Encoder
Selected bitrate : 1024 kBit/s
Quality : High
Add ID3 tag : No
Command line compressor : C:\Program Files\FLAC\flac.exe
Additional command line options : -6 -V -T "ARTIST=%a" -T "TITLE=%t" -T "ALBUM=%g" -T "DATE=%y" -T "TRACKNUMBER=%n" -T "GENRE=%m" -T "COMMENT=EAC FLAC -6" %s


TOC of the extracted CD

Track | Start | Length | Start sector | End sector
––––––––––––––––––––––––––––-
1 | 0:00.00 | 8:33.48 | 0 | 38522
2 | 8:33.48 | 4:11.72 | 38523 | 57419
3 | 12:45.45 | 3:02.03 | 57420 | 71072
4 | 15:47.48 | 3:20.68 | 71073 | 86140
5 | 19:08.41 | 3:50.17 | 86141 | 103407
6 | 22:58.58 | 2:57.43 | 103408 | 116725
7 | 25:56.26 | 4:18.74 | 116726 | 136149
8 | 30:15.25 | 2:44.28 | 136150 | 148477
9 | 32:59.53 | 4:35.41 | 148478 | 169143
10 | 37:35.19 | 10:14.62 | 169144 | 215255
11 | 47:50.06 | 3:02.02 | 215256 | 228907
12 | 50:52.08 | 1:36.03 | 228908 | 236110
13 | 52:28.11 | 9:57.63 | 236111 | 280948


Track 1

Filename C:\Frank Zappa - Buffalo (2007) [2CD]\CD1\01 - Chunga's Revenge.wav

Pre-gap length 0:00:02.00

Peak level 98.8 %
Track quality 100.0 %
Test CRC 906B2401
Copy CRC 906B2401
Accurately ripped (confidence 7) [EE6F843A]
Copy OK

Track 2

Filename C:\Frank Zappa - Buffalo (2007) [2CD]\CD1\02 - You Are What You Is.wav

Peak level 98.8 %
Track quality 100.0 %
Test CRC 16329D2F
Copy CRC 16329D2F
Accurately ripped (confidence 7) [D7825D70]
Copy OK

Track 3

Filename C:\Frank Zappa - Buffalo (2007) [2CD]\CD1\03 - Mudd Club.wav

Peak level 98.8 %
Track quality 100.0 %
Test CRC 6B12E73F
Copy CRC 6B12E73F
Accurately ripped (confidence 7) [8B043752]
Copy OK

Track 4

Filename C:\Frank Zappa - Buffalo (2007) [2CD]\CD1\04 - The Meek Shall Inherit Nothing.wav

Peak level 98.8 %
Track quality 99.9 %
Test CRC 64AB12F8
Copy CRC 64AB12F8
Accurately ripped (confidence 7) [23486E50]
Copy OK

Track 5

Filename C:\Frank Zappa - Buffalo (2007) [2CD]\CD1\05 - Cosmik Debris.wav

Peak level 98.8 %
Track quality 100.0 %
Test CRC FA37841E
Copy CRC FA37841E
Accurately ripped (confidence 7) [4DD356FD]
Copy OK

Track 6

Filename C:\Frank Zappa - Buffalo (2007) [2CD]\CD1\06 - Keep It Greasy.wav

Peak level 98.8 %
Track quality 100.0 %
Test CRC E9454047
Copy CRC E9454047
Accurately ripped (confidence 7) [0F1CAC78]
Copy OK

Track 7

Filename C:\Frank Zappa - Buffalo (2007) [2CD]\CD1\07 - Tinsel Town Rebellion.wav

Peak level 98.8 %
Track quality 99.9 %
Test CRC 7D81C7D2
Copy CRC 7D81C7D2
Accurately ripped (confidence 7) [499743E5]
Copy OK

Track 8

Filename C:\Frank Zappa - Buffalo (2007) [2CD]\CD1\08 - Buffalo Drowning Witch.wav

Peak level 98.8 %
Track quality 99.9 %
Test CRC 9F89E436
Copy CRC 9F89E436
Accurately ripped (confidence 7) [56C39148]
Copy OK

Track 9

Filename C:\Frank Zappa - Buffalo (2007) [2CD]\CD1\09 - Honey, Don't You Want a Man Like Me .wav

Peak level 98.8 %
Track quality 100.0 %
Test CRC 1E6631ED
Copy CRC 1E6631ED
Accurately ripped (confidence 7) [D0F4568D]
Copy OK

Track 10

Filename C:\Frank Zappa - Buffalo (2007) [2CD]\CD1\10 - Pick Me, I'm Clean.wav

Peak level 98.8 %
Track quality 100.0 %
Test CRC 53D0D1ED
Copy CRC 53D0D1ED
Accurately ripped (confidence 7) [FE2B822C]
Copy OK

Track 11

Filename C:\Frank Zappa - Buffalo (2007) [2CD]\CD1\11 - Dead Girls of London.wav

Peak level 98.8 %
Track quality 100.0 %
Test CRC A38CA21F
Copy CRC A38CA21F
Accurately ripped (confidence 7) [7F9F66F1]
Copy OK

Track 12

Filename C:\Frank Zappa - Buffalo (2007) [2CD]\CD1\12 - Shall We Take Ourselves Seriously .wav

Peak level 98.8 %
Track quality 100.0 %
Test CRC 907FB140
Copy CRC 907FB140
Accurately ripped (confidence 7) [46038184]
Copy OK

Track 13

Filename C:\Frank Zappa - Buffalo (2007) [2CD]\CD1\13 - City Of Tiny Lights.wav

Peak level 98.8 %
Track quality 100.0 %
Test CRC B9EA81AB
Copy CRC B9EA81AB
Accurately ripped (confidence 7) [6E218168]
Copy OK


All tracks accurately ripped

No errors occurred

End of status report
–––––––––––––––––––––––––––––––––––––––––––––––––––
Exact Audio Copy V0.99 prebeta 5 from 4. May 2009

EAC extraction logfile from 21. October 2009, 19:25

Frank Zappa / Buffalo 1980-10-25 (disc 2)

Used drive : TSSTcorpCD/DVDW TS-H552L Adapter: 3 ID: 0

Read mode : Secure
Utilize accurate stream : Yes
Defeat audio cache : Yes
Make use of C2 pointers : No

Read offset correction : 6
Overread into Lead-In and Lead-Out : No
Fill up missing offset samples with silence : Yes
Delete leading and trailing silent blocks : No
Null samples used in CRC calculations : Yes
Used interface : Native Win32 interface for Win NT & 2000
Gap handling : Appended to previous track

Used output format : User Defined Encoder
Selected bitrate : 1024 kBit/s
Quality : High
Add ID3 tag : No
Command line compressor : C:\Program Files\FLAC\flac.exe
Additional command line options : -6 -V -T "ARTIST=%a" -T "TITLE=%t" -T "ALBUM=%g" -T "DATE=%y" -T "TRACKNUMBER=%n" -T "GENRE=%m" -T "COMMENT=EAC FLAC -6" %s


TOC of the extracted CD

Track | Start | Length | Start sector | End sector
––––––––––––––––––––––––––––-
1 | 0:00.00 | 9:26.08 | 0 | 42457
2 | 9:26.08 | 1:59.54 | 42458 | 51436
3 | 11:25.62 | 23:35.69 | 51437 | 157630
4 | 35:01.56 | 3:39.14 | 157631 | 174069
5 | 38:40.70 | 1:37.67 | 174070 | 181411
6 | 40:18.62 | 8:13.65 | 181412 | 218451
7 | 48:32.52 | 2:12.24 | 218452 | 228375
8 | 50:45.01 | 3:36.08 | 228376 | 244583
9 | 54:21.09 | 8:53.27 | 244584 | 284585
10 | 63:14.36 | 5:35.58 | 284586 | 309768
11 | 68:50.19 | 2:47.53 | 309769 | 322346
12 | 71:37.72 | 2:41.49 | 322347 | 334470
13 | 74:19.46 | 3:47.56 | 334471 | 351551


Track 1

Filename C:\Frank Zappa - Buffalo (2007) [2CD]\CD2\01 - Easy Meat.wav

Pre-gap length 0:00:02.00

Peak level 98.8 %
Track quality 100.0 %
Test CRC 503AA475
Copy CRC 503AA475
Accurately ripped (confidence 7) [9F84CDF6]
Copy OK

Track 2

Filename C:\Frank Zappa - Buffalo (2007) [2CD]\CD2\02 - Ain't Got No Heart.wav

Peak level 98.8 %
Track quality 100.0 %
Test CRC AEF2A169
Copy CRC AEF2A169
Accurately ripped (confidence 7) [AFDE45B4]
Copy OK

Track 3

Filename C:\Frank Zappa - Buffalo (2007) [2CD]\CD2\03 - The Torture Never Stops.wav

Peak level 98.8 %
Track quality 99.9 %
Test CRC E8C5FA83
Copy CRC E8C5FA83
Accurately ripped (confidence 7) [FC4B9CB0]
Copy OK

Track 4

Filename C:\Frank Zappa - Buffalo (2007) [2CD]\CD2\04 - Broken Hearts Are For Assholes.wav

Peak level 98.8 %
Track quality 100.0 %
Test CRC 9F352E34
Copy CRC 9F352E34
Accurately ripped (confidence 7) [F1B6EC82]
Copy OK

Track 5

Filename C:\Frank Zappa - Buffalo (2007) [2CD]\CD2\05 - I'm So Cute.wav

Peak level 98.8 %
Track quality 100.0 %
Test CRC BB40DCD0
Copy CRC BB40DCD0
Accurately ripped (confidence 7) [84BDF1C7]
Copy OK

Track 6

Filename C:\Frank Zappa - Buffalo (2007) [2CD]\CD2\06 - Andy.wav

Peak level 98.8 %
Track quality 100.0 %
Test CRC 48BB8BCA
Copy CRC 48BB8BCA
Accurately ripped (confidence 7) [5341D492]
Copy OK

Track 7

Filename C:\Frank Zappa - Buffalo (2007) [2CD]\CD2\07 - Joe's Garage.wav

Peak level 98.8 %
Track quality 100.0 %
Test CRC 23D00778
Copy CRC 23D00778
Accurately ripped (confidence 7) [04B96070]
Copy OK

Track 8

Filename C:\Frank Zappa - Buffalo (2007) [2CD]\CD2\08 - Dancing Fool.wav

Peak level 98.8 %
Track quality 100.0 %
Test CRC 06C634FA
Copy CRC 06C634FA
Accurately ripped (confidence 7) [3E2AE6CE]
Copy OK

Track 9

Filename C:\Frank Zappa - Buffalo (2007) [2CD]\CD2\09 - The 'Real World' Thematic Extrapolations.wav

Peak level 98.7 %
Track quality 100.0 %
Test CRC 46E7457E
Copy CRC 46E7457E
Accurately ripped (confidence 7) [721F5998]
Copy OK

Track 10

Filename C:\Frank Zappa - Buffalo (2007) [2CD]\CD2\10 - Stick It Out.wav

Peak level 98.8 %
Track quality 100.0 %
Test CRC F697BB82
Copy CRC F697BB82
Accurately ripped (confidence 6) [B797716E]
Copy OK

Track 11

Filename C:\Frank Zappa - Buffalo (2007) [2CD]\CD2\11 - I Don't Wanna Get Drafted.wav

Peak level 98.8 %
Track quality 99.9 %
Test CRC 74346AD5
Copy CRC 74346AD5
Accurately ripped (confidence 7) [2CD1266C]
Copy OK

Track 12

Filename C:\Frank Zappa - Buffalo (2007) [2CD]\CD2\12 - Bobby Brown.wav

Peak level 98.8 %
Track quality 100.0 %
Test CRC A779B445
Copy CRC A779B445
Accurately ripped (confidence 7) [34709101]
Copy OK

Track 13

Filename C:\Frank Zappa - Buffalo (2007) [2CD]\CD2\13 - Ms Pinky.wav

Peak level 98.8 %
Track quality 100.0 %
Test CRC 001F0243
Copy CRC 001F0243
Accurately ripped (confidence 7) [BA54D7A5]
Copy OK


All tracks accurately ripped

No errors occurred

End of status report