Subcategories

Frank Zappa, Captain Beefheart & The Mothers - Bongo Fury (1975) {1995 Ryko Remaster}

Posted By: ruskaval
Frank Zappa, Captain Beefheart & The Mothers - Bongo Fury (1975) {1995 Ryko Remaster}

Frank Zappa, Captain Beefheart & The Mothers - Bongo Fury (1975) {1995 Ryko Remaster}
EAC rip (secure mode) | FLAC+CUE+LOG -> 283 Mb | MP3 @320 -> 93 Mb
Full Artwork @ 400 dpi (jpg) -> 27 Mb
© 1995 Rykodisc / The Zappa Family Trust | RCD 10522
Rock / Experimental Rock


Frank Zappa, Captain Beefheart & The Mothers - Bongo Fury (1975) {1995 Ryko Remaster}

Zappa and Beefheart were birds of a feather. Though each was fiercely individualistic, idiosyncratic and uncompromising, they both followed their own path of sophisticated wierdness so far that each was probably the only artist the other could relate to in terms of peerage. The pair had collaborated here and there many times, but BONGO FURY is their only album-length effort. Recorded at a 1975 Austin concert, this is essentially a Zappa program, with Beefheart sitting in (Zappa's monstrously talented mid-'70s band featuring Terry Bozzio and George Duke provides accompaniment). Beefheart is incapable of making a passive guest appearance, though, and his rugged, blues werewolf growl dominates the proceedings every time it appears. Compositionally, Beefheart contributes only a couple of brief tracks, but he meshes well with Zappa's arrangements and compositions. BONGO FURY is a classic example of succesful collaboration; Beefheart's rawness is contrasted nicely by Zappa and company's technical facility, and Zappa's refined style is given some grit by the good Captain.
tracklist:
1. Debra Kadabra 3:54
2. Carolina Hard-core Ecstasy 5:59
3. Sam With The Showing Scalp Flat Top (Vliet) 2:51
4. Poofter's Froth Wyoming Plans Ahead 3:03
5. 200 Years Old 4:32
6. Cucamonga 2:24
7. Advance Romance 11:17
8. Man With The Woman Head (Vliet) 1:28
9. Muffin Man 5:32

Frank Zappa, Captain Beefheart & The Mothers - Bongo Fury (1975) {1995 Ryko Remaster}

Exact Audio Copy V0.99 prebeta 5 from 4. May 2009

EAC extraction logfile from 12. September 2009, 8:32

Frank Zappa, Captain Beefheart & The Mothers / Bongo Fury

Used drive : PIONEER DVD-RW DVR-111L Adapter: 3 ID: 0

Read mode : Secure
Utilize accurate stream : Yes
Defeat audio cache : Yes
Make use of C2 pointers : No

Read offset correction : 48
Overread into Lead-In and Lead-Out : No
Fill up missing offset samples with silence : Yes
Delete leading and trailing silent blocks : No
Null samples used in CRC calculations : Yes
Used interface : Native Win32 interface for Win NT & 2000
Gap handling : Appended to previous track

Used output format : User Defined Encoder
Selected bitrate : 1024 kBit/s
Quality : High
Add ID3 tag : No
Command line compressor : C:\Program Files\FLAC\flac.exe
Additional command line options : -8 -V -T "ARTIST=%a" -T "TITLE=%t" -T "ALBUM=%g" -T "DATE=%y" -T "TRACKNUMBER=%n" -T "GENRE=%m" -T "COMMENT=EAC FLAC -8" %s


TOC of the extracted CD

Track | Start | Length | Start sector | End sector
––––––––––––––––––––––––––––-
1 | 0:00.00 | 3:54.52 | 0 | 17601
2 | 3:54.52 | 5:59.45 | 17602 | 44571
3 | 9:54.22 | 2:51.15 | 44572 | 57411
4 | 12:45.37 | 3:03.60 | 57412 | 71196
5 | 15:49.22 | 4:32.35 | 71197 | 91631
6 | 20:21.57 | 2:24.30 | 91632 | 102461
7 | 22:46.12 | 11:17.45 | 102462 | 153281
8 | 34:03.57 | 1:28.60 | 153282 | 159941
9 | 35:32.42 | 5:32.50 | 159942 | 184891


Track 1

Filename C:\Frank Zappa, Captain Beefheart & The Mothers - Bongo Fury (1975) {1995 Ryko Remaster}\01 - Debra Kadabra.wav

Pre-gap length 0:00:02.00

Peak level 100.0 %
Track quality 100.0 %
Test CRC 246D9F78
Copy CRC 246D9F78
Accurately ripped (confidence 6) [148AB97E]
Copy OK

Track 2

Filename C:\Frank Zappa, Captain Beefheart & The Mothers - Bongo Fury (1975) {1995 Ryko Remaster}\02 - Carolina Hard-Core Ecstasy.wav

Peak level 99.7 %
Track quality 99.9 %
Test CRC 6A699C1F
Copy CRC 6A699C1F
Accurately ripped (confidence 6) [177A62BA]
Copy OK

Track 3

Filename C:\Frank Zappa, Captain Beefheart & The Mothers - Bongo Fury (1975) {1995 Ryko Remaster}\03 - Sam With The Showing Scalp Flat Top.wav

Peak level 90.5 %
Track quality 100.0 %
Test CRC 53BFAAFE
Copy CRC 53BFAAFE
Accurately ripped (confidence 6) [622FE327]
Copy OK

Track 4

Filename C:\Frank Zappa, Captain Beefheart & The Mothers - Bongo Fury (1975) {1995 Ryko Remaster}\04 - Poofter's Froth Wyoming Plans Ahead.wav

Peak level 88.4 %
Track quality 100.0 %
Test CRC 2DA1C8B4
Copy CRC 2DA1C8B4
Accurately ripped (confidence 6) [207BEE13]
Copy OK

Track 5

Filename C:\Frank Zappa, Captain Beefheart & The Mothers - Bongo Fury (1975) {1995 Ryko Remaster}\05 - 200 Years Old.wav

Peak level 100.0 %
Track quality 100.0 %
Test CRC A844A42D
Copy CRC A844A42D
Accurately ripped (confidence 6) [BAD4BAFE]
Copy OK

Track 6

Filename C:\Frank Zappa, Captain Beefheart & The Mothers - Bongo Fury (1975) {1995 Ryko Remaster}\06 - Cucamonga.wav

Peak level 100.0 %
Track quality 100.0 %
Test CRC C9341D9F
Copy CRC C9341D9F
Accurately ripped (confidence 6) [9D550146]
Copy OK

Track 7

Filename C:\Frank Zappa, Captain Beefheart & The Mothers - Bongo Fury (1975) {1995 Ryko Remaster}\07 - Advance Romance.wav

Peak level 99.4 %
Track quality 100.0 %
Test CRC C06F3A17
Copy CRC C06F3A17
Accurately ripped (confidence 6) [BEEFD951]
Copy OK

Track 8

Filename C:\Frank Zappa, Captain Beefheart & The Mothers - Bongo Fury (1975) {1995 Ryko Remaster}\08 - Man With The Woman Head.wav

Peak level 86.8 %
Track quality 100.0 %
Test CRC 3FE62AAB
Copy CRC 3FE62AAB
Accurately ripped (confidence 6) [8CBDF4E2]
Copy OK

Track 9

Filename C:\Frank Zappa, Captain Beefheart & The Mothers - Bongo Fury (1975) {1995 Ryko Remaster}\09 - Muffin Man.wav

Peak level 100.0 %
Track quality 100.0 %
Test CRC B0D3325F
Copy CRC B0D3325F
Accurately ripped (confidence 6) [C6CC1166]
Copy OK


All tracks accurately ripped

No errors occurred

End of status report

FSonic Linkz

or

FileServe Linkz

p.s. the files are interchangeable…

No Mirror, plz!

pass: ruskaval