Subcategories

Frank Zappa - Baby Snakes (1982) {1995 Ryko Remaster}

Posted By: ruskaval
Frank Zappa - Baby Snakes (1982) {1995 Ryko Remaster}

Frank Zappa - Baby Snakes (1982) {1995 Ryko Remaster}
EAC rip | FLAC+CUE+LOG -> 258Mb | MP3 @320 -> 85Mb
Full artwork @ 400 dpi -> 30Mb
Rykodisc

The soundtrack to Zappa's "movie about people who do stuff that is not normal" features some of the man's trademark musical madness: quirky shifts of time signatures, style and mood, sterling instrumental work (featuring drummer Terry Bozzio, guitar ace Adrian Belew and '60s Zappa cohort Roy Estrada). The record is full of boisterous, sarcastic and sometimes soulful singing and Zappa continues his ruthless public defacement of all things shallow, greedy and vacuous in modern society. Warning: your parents might not like some words on this album. If you're a devoted Zappa fan, these early-'80s recordings are a must-have. ©cduniverse

Personnel: Frank Zappa, Adrian Belew (vocals, guitar); Terry Bozzio (vocals, drums); Tommy Mars, Peter Wolf (keyboards); Patrick O'Hearn (bass); Ed Mann (percussion); Roy Estrada.

tracklist
1. Intro Rap
2. Baby Snakes - (studio)
3. Titties 'N Beer
4. Black Page #2, The
5. Jones Crusher
6. Disco Boy
7. Dinah-Moe-Humm
8. Punky's Whips

Exact Audio Copy V0.99 prebeta 5 from 4. May 2009

EAC extraction logfile from 22. October 2009, 22:43

Frank Zappa / Baby Snakes

Used drive : TSSTcorpCD/DVDW TS-H552L Adapter: 3 ID: 0

Read mode : Secure
Utilize accurate stream : Yes
Defeat audio cache : Yes
Make use of C2 pointers : No

Read offset correction : 6
Overread into Lead-In and Lead-Out : No
Fill up missing offset samples with silence : Yes
Delete leading and trailing silent blocks : No
Null samples used in CRC calculations : Yes
Used interface : Native Win32 interface for Win NT & 2000
Gap handling : Appended to previous track

Used output format : User Defined Encoder
Selected bitrate : 1024 kBit/s
Quality : High
Add ID3 tag : No
Command line compressor : C:\Program Files\FLAC\flac.exe
Additional command line options : -6 -V -T "ARTIST=%a" -T "TITLE=%t" -T "ALBUM=%g" -T "DATE=%y" -T "TRACKNUMBER=%n" -T "GENRE=%m" -T "COMMENT=EAC FLAC -6" %s


TOC of the extracted CD

Track | Start | Length | Start sector | End sector
––––––––––––––––––––––––––––-
1 | 0:00.32 | 0:36.55 | 32 | 2786
2 | 0:37.12 | 1:45.35 | 2787 | 10696
3 | 2:22.47 | 6:13.10 | 10697 | 38681
4 | 8:35.57 | 2:50.63 | 38682 | 51494
5 | 11:26.45 | 2:53.52 | 51495 | 64521
6 | 14:20.22 | 3:51.33 | 64522 | 81879
7 | 18:11.55 | 6:37.32 | 81880 | 111686
8 | 24:49.12 | 11:29.10 | 111687 | 163371


Track 1

Filename C:\Frank Zappa - Baby Snakes\01 - Intro Rap.wav

Pre-gap length 0:00:02.32

Peak level 58.4 %
Track quality 100.0 %
Test CRC 505ED106
Copy CRC 505ED106
Accurately ripped (confidence 10) [872D9297]
Copy OK

Track 2

Filename C:\Frank Zappa - Baby Snakes\02 - Baby Snakes.wav

Peak level 82.2 %
Track quality 100.0 %
Test CRC A789F819
Copy CRC A789F819
Accurately ripped (confidence 11) [8097C82F]
Copy OK

Track 3

Filename C:\Frank Zappa - Baby Snakes\03 - Titties `N' Beer.wav

Peak level 87.6 %
Track quality 100.0 %
Test CRC 9D9A6CD7
Copy CRC 9D9A6CD7
Accurately ripped (confidence 11) [B6588EFF]
Copy OK

Track 4

Filename C:\Frank Zappa - Baby Snakes\04 - The Black Page #2.wav

Peak level 90.0 %
Track quality 100.0 %
Test CRC 06A11915
Copy CRC 06A11915
Accurately ripped (confidence 11) [10CD39A6]
Copy OK

Track 5

Filename C:\Frank Zappa - Baby Snakes\05 - Jones Crusher.wav

Peak level 84.7 %
Track quality 99.9 %
Test CRC 7EF4E99C
Copy CRC 7EF4E99C
Accurately ripped (confidence 10) [EC10BCCD]
Copy OK

Track 6

Filename C:\Frank Zappa - Baby Snakes\06 - Disco Boy.wav

Peak level 100.0 %
Track quality 99.9 %
Test CRC FDF282DC
Copy CRC FDF282DC
Accurately ripped (confidence 10) [3AEA5265]
Copy OK

Track 7

Filename C:\Frank Zappa - Baby Snakes\07 - Dinah Moe Hum.wav

Peak level 86.7 %
Track quality 100.0 %
Test CRC E4C86E13
Copy CRC E4C86E13
Accurately ripped (confidence 10) [1089F5C2]
Copy OK

Track 8

Filename C:\Frank Zappa - Baby Snakes\08 - Punky's Whips.wav

Peak level 86.4 %
Track quality 100.0 %
Test CRC 927A9FF7
Copy CRC 927A9FF7
Accurately ripped (confidence 10) [EC45081C]
Copy OK


All tracks accurately ripped

No errors occurred

End of status report


FileSonic Linkz

or

FileServe Linkz

p.s. the files are interchangeable…

pass: ruskaval

No Mirror, plz!