Electric Frankenstein - We Will Bury You! [2 CD]

Posted By: Toxxy
Electric Frankenstein - We Will Bury You! [2 CD]

Electric Frankenstein - We Will Bury You! [2 CD]
Year/Label: 2004 TKO Records | CD#: TKO ROUND 126
FLAC-5 images | Mp3 @320 CBR (tracks) | Artwork (JPG) | WinRAR Recovery 5%
Punk-Rock | FLAC: 686 MB | Mp3: 204 MB | Artwork: 31 MB | File-hosts: HF & RS

EAC Secure-rips with LOGS+CUES+COVERS | Source: My CD-collection

"WE WILL BURY YOU!" is a collection of all the cover songs Electric Frankenstein performed during the first ten years of the band's existence. Includes previously unreleased tracks. Great stuff here! Thirty-one cover tunes collected on two CDs. These tunes forced me to dig out old discs from Motörhead, DRI, the Misfits, Pink Floyd, The Clash, Iron Maiden and more than a few others, just for memory’s sake. A healthy reminder that music is supposed to be fun!


The veritable New Jersey rock 'n' roll outfit Electric Frankenstein have been plugging away for over 10 years with its blend of hard edged punky rawk music, and We Will Bury You commemorates that decade with a two-disc, 31-track collection of covers the band has amassed. Reading like a who's who of rock, everything from the obvious (Misfits, Motorhead, Dead Kennedys) to the obscure (F-Word, Fleetwood Mac, Pink Floyd) is covered. While a few of the covers are a bit sloppy, they're done with the pure unabashed spirit that embodies many of the original artist's recordings. Electric Frankenstein is the kind of band that isn't shy about wearing its influences on its sleeves. Having learned from the masters of rock, this release is a loving tribute to the bands and songs that have helped shape the band into the slash and burn rockers they are today. –-Mike SOS, In Music We Trust, Inc.

Official homepage

Electric Frankenstein at Wikipedia

Interview…"How To Make A Monster… With Mass Market Potential!"


I don't know Electric Frankenstein from Battery-Operated Count Chocula but I know half of these songs even before opening my eyes. How possible? You're telling LIES, Mark Prindle (is totally what you're thinking). But that's not true.

See, this is a double-CD of every cover tune that Electric Frankenstein has ever recorded! And sure, nobody but a weirdo has ever heard of no-popularity bands like "BeBop Deluxe" ("BeBop WHO?" HA HA! HA HA! "BeBop WHO?" HA HAHAH!) and "The Rubinoos" ("The RubiWHATS?" AHAHHEA HHAHA!), but anyone who doesn't know "Wild In The Streets, High Voltage, Sex & Dying In High Society, Your Emotions, 1977, Plastique, Aces High, The Chain, Sick As A Dog, We Are The Road Crew, Wish You Were Here, Tattoo Vampire, Frankenstein, Bad Reputation, Cocaine Blues, Queen Wasp, Coolest Little Monster" by Circle Jerks AC/DC X Dead Kennedys Clash DRI Iron Maiden Fleetwood Mac Aerosmith Motorhead Pink Floyd Blue Oyster Cult New York Dolls Joan Jett Johnny Cash Misfits Zacherly can EAT A PEACH!

Even better, Electric Frankenstein (or "E.F.", G.) not only try to imitate the original singers when possible (the singer does a great Steven Tyler, at any rate) but also rework what they feel needs to be reworked to make the songs fresher ("Wish You Were Here" has drums! "Your Emotions" is played more slowly! "Plastique" is played completely WRONG!). I love this double-CD - if you're a fan of rock and roll and a cover tune with spirit and volume, let We Will Bury You! marry you! That's my opinion. How come there aren't any Ramones covers though? [Citizinemag-com]

Track List:

Disc 1:

1. Wild in the Streets (Garland Jeffreys)
2. High Voltage (AC/DC)
3. Out There (Rik L Rik, F-Word)
4. Not For Sale (Girlschool)
5. Sex & Dying (X)
6. Borneo Jimmy (Dictators)
7. Savage (Fun Things)
8. Your Emotions (Dead Kennedys)
9. 1977 (Clash)
10. Just Like Your Mom (Clash)
11. She's My Bitch (Supersuckers)
12. Frustration (Crime)
13. Platique (DRI)
14. Ace's High (Iron Maiden)
15. I was a Punk Before You (The Tubes)
16. Home of the Brave (Naked Raygun)

Exact Audio Copy V0.99 prebeta 5 from 4. May 2009

EAC extraction logfile from 22. August 2009, 12:07

Electric Frankestein / We Will Bury You! (CD1)

Used drive : TSSTcorpCDDVDW SH-S202N Adapter: 0 ID: 0

Read mode : Secure
Utilize accurate stream : Yes
Defeat audio cache : Yes
Make use of C2 pointers : No

Read offset correction : 6
Overread into Lead-In and Lead-Out : No
Fill up missing offset samples with silence : Yes
Delete leading and trailing silent blocks : No
Null samples used in CRC calculations : Yes
Used interface : Installed external ASPI interface

Used output format : User Defined Encoder
Selected bitrate : 320 kBit/s
Quality : High
Add ID3 tag : Yes
Command line compressor : C:\Programmer\Exact Audio Copy\Flac\flac.exe
Additional command line options : -V -5 -T "artist=%a" -T "title=%t" -T "album=%g" -T "date=%y" -T "tracknumber=%n" -T "genre=%m" %s


TOC of the extracted CD

Track | Start | Length | Start sector | End sector
––––––––––––––––––––––––––––-
1 | 0:00.00 | 2:40.51 | 0 | 12050
2 | 2:40.51 | 3:28.56 | 12051 | 27706
3 | 6:09.32 | 1:37.50 | 27707 | 35031
4 | 7:47.07 | 3:31.70 | 35032 | 50926
5 | 11:19.02 | 2:13.05 | 50927 | 60906
6 | 13:32.07 | 2:45.45 | 60907 | 73326
7 | 16:17.52 | 2:31.35 | 73327 | 84686
8 | 18:49.12 | 2:44.28 | 84687 | 97014
9 | 21:33.40 | 1:32.05 | 97015 | 103919
10 | 23:05.45 | 2:39.52 | 103920 | 115896
11 | 25:45.22 | 2:04.48 | 115897 | 125244
12 | 27:49.70 | 2:41.25 | 125245 | 137344
13 | 30:31.20 | 0:22.50 | 137345 | 139044
14 | 30:53.70 | 4:42.17 | 139045 | 160211
15 | 35:36.12 | 2:33.15 | 160212 | 171701
16 | 38:09.27 | 2:13.37 | 171702 | 181713


Range status and errors

Selected range

Filename D:\Electric Frankestein - We Will Bury You! (CD1).wav

Peak level 97.7 %
Range quality 100.0 %
Test CRC BB23CF1B
Copy CRC BB23CF1B
Copy OK

No errors occurred


AccurateRip summary

Track 1 not present in database
Track 2 not present in database
Track 3 not present in database
Track 4 not present in database
Track 5 not present in database
Track 6 not present in database
Track 7 not present in database
Track 8 not present in database
Track 9 not present in database
Track 10 not present in database
Track 11 not present in database
Track 12 not present in database
Track 13 not present in database
Track 14 not present in database
Track 15 not present in database
Track 16 not present in database

None of the tracks are present in the AccurateRip database

End of status report


Disc 2:

17. Runnin with the Boss Sound (Generation X)
18. The Chain (Fleetwood Mac)
19. Third Generation Nation (Dead Boys)
20. Sick as a Dog (Aerosmith)
21. We are the Road Crew (Motorhead)
22. Rock N Roll is Dead (Rubinoos)
23. Wish You Were Here (Pink Floyd)
24. Tattoo Vampire (Blue Oyster Cult)
25. Frankenstein (NY Dolls)
26. Bad Reputation (Joan Jett)
27. Cocaine Blues (TP Arnold/Johnny Cash)
28. Don't Touch Me, I'm Electric (Bill Nelson's Red Noise)
29. Over at Frankenstein's Place (Rocky Horror Picture Show)
30. Queen Wasp (The Misfits)
31. Coolest Little Monster (Zacherle)

Exact Audio Copy V0.99 prebeta 5 from 4. May 2009

EAC extraction logfile from 23. August 2009, 11:55

Electric Frankenstein / We Will Bury You! (CD2)

Used drive : TSSTcorpCDDVDW SH-S202N Adapter: 0 ID: 0

Read mode : Secure
Utilize accurate stream : Yes
Defeat audio cache : Yes
Make use of C2 pointers : No

Read offset correction : 6
Overread into Lead-In and Lead-Out : No
Fill up missing offset samples with silence : Yes
Delete leading and trailing silent blocks : No
Null samples used in CRC calculations : Yes
Used interface : Installed external ASPI interface

Used output format : User Defined Encoder
Selected bitrate : 320 kBit/s
Quality : High
Add ID3 tag : Yes
Command line compressor : C:\Programmer\Exact Audio Copy\Flac\flac.exe
Additional command line options : -V -5 -T "artist=%a" -T "title=%t" -T "album=%g" -T "date=%y" -T "tracknumber=%n" -T "genre=%m" %s


TOC of the extracted CD

Track | Start | Length | Start sector | End sector
––––––––––––––––––––––––––––-
1 | 0:00.00 | 4:59.10 | 0 | 22434
2 | 4:59.10 | 3:32.15 | 22435 | 38349
3 | 8:31.25 | 2:37.57 | 38350 | 50181
4 | 11:09.07 | 4:30.03 | 50182 | 70434
5 | 15:39.10 | 2:58.17 | 70435 | 83801
6 | 18:37.27 | 2:43.58 | 83802 | 96084
7 | 21:21.10 | 4:01.27 | 96085 | 114186
8 | 25:22.37 | 2:48.15 | 114187 | 126801
9 | 28:10.52 | 5:57.58 | 126802 | 153634
10 | 34:08.35 | 2:56.55 | 153635 | 166889
11 | 37:05.15 | 2:11.50 | 166890 | 176764
12 | 39:16.65 | 1:49.30 | 176765 | 184969
13 | 41:06.20 | 2:46.55 | 184970 | 197474
14 | 43:53.00 | 2:07.12 | 197475 | 207011
15 | 46:00.12 | 2:32.05 | 207012 | 218416


Range status and errors

Selected range

Filename D:\Electric Frankenstein - We Will Bury You! (CD2).wav

Peak level 98.5 %
Range quality 99.9 %
Test CRC 8B199E5F
Copy CRC 8B199E5F
Copy OK

No errors occurred


AccurateRip summary

Track 1 not present in database
Track 2 not present in database
Track 3 not present in database
Track 4 not present in database
Track 5 not present in database
Track 6 not present in database
Track 7 not present in database
Track 8 not present in database
Track 9 not present in database
Track 10 not present in database
Track 11 not present in database
Track 12 not present in database
Track 13 not present in database
Track 14 not present in database
Track 15 not present in database

None of the tracks are present in the AccurateRip database

End of status report




HOTFILE LINX:

FLAC-5 image files:

Disc 1&2 - Part 1
Disc 1&2 - Part 2
Disc 1&2 - Part 3
Disc 1&2 - Part 4
Disc 1&2 - Part 5
Disc 1&2 - Part 6
Disc 1&2 - Part 7

Mp3 @320 CBR (tracks):

Disc 1&2 - part 1
Disc 1&2 - part 2
Disc 1&2 - part 3

Artwork - JPG's in 600 dpi

~*~

MIRROR LINX AT RAPIDSHARE:

FLAC-5 image files:

Disc 1&2 - Part 1
Disc 1&2 - Part 2
Disc 1&2 - Part 3
Disc 1&2 - Part 4
Disc 1&2 - Part 5
Disc 1&2 - Part 6
Disc 1&2 - Part 7

Mp3 @320 CBR (tracks):

Disc 1&2 - part 1
Disc 1&2 - part 2
Disc 1&2 - part 3

Artwork - JPG's in 600 dpi


All linx are interchangeable.

5% WinRar Recovery Record for ALL files.

Password = thetoxxster

Enjoy the tunes ;-)

No mirror linx. Do not write the actually linx in your comments. Thx & cheers!

Whenever you can afford it, support the artists and buy their stuff.