Subcategories

Edward Simoni - Festliches Panfloten Konzert (1991)

Posted By: Speedyclick
Edward Simoni - Festliches Panfloten Konzert (1991)

Edward Simoni - Festliches Panfloten Konzert (1991)
EAC Rip | APE (image & cue & log) & mp3 @ 320 kbps | tracks: 16 | Scans | 51:13 | ~ 319 Mb & 130 Mb
Label: Planet Music Series | 5% recovery record | Instrumental, easy listening, panflute

One of the early platinum albums of Edward Simoni. Wonderful music that showcases mainly the classical side of the german-polish virtuoso with tunes like Verdi's "Nabucco", Schubert's "Serenade", Liszt's "Liebestraum" and Tarrega's "Recuerdos de la Alhambra", but also includes some timeless melodies like "Bilitis" and "Don't cry for me Argentina". A small masterpiece with panflute backed by orchestra.

TRACKLIST
01. Romantica
02. Ave Maria
03. Gefangenenchor Aus 'Nabucco'
04. Das Einsame Glocklein
05. Etude E-dur
06. Bonjour Claire
07. Serenade
08. Don't Cry For Me Argentina
09. Freude, Schoner Gotterfunken
10. Bilitis
11. Schlafe, Mein Prinzchen Schlaf Ein
12. Varmeland
13. Barcarole
14. Recuerdos De La Alhambra
15. Liebestraum
16. Pan-Traume (New Version)

Exact Audio Copy V0.99 prebeta 4 from 23. January 2008

Отчёт EAC об извлечении, выполненном 17. мая 2008, 12:19

Edward Simoni / Festliches Panfloten-Konzert

Дисковод: ASUS DRW-1814BLT Adapter: 3 ID: 1

Режим чтения : Достоверность
Использование точного потока : Да
Отключение кэша аудио : Да
Использование указателей C2 : Нет

Коррекция смещения при чтении : 6
Способность читать области Lead-in и Lead-out : Нет
Заполнение пропущенных сэмплов тишиной : Да
Удаление блоков с тишиной в начале и конце : Нет
При вычислениях CRC использовались нулевые сэмплы : Да
Интерфейс : Встроенный Win32-интерфейс для Win NT/2000

Выходной формат : Внутренние WAV-операции
Формат сэмплов : 44.100 Гц; 16 бит; стерео


TOC извлечённого CD

Трек | Старт | Длительность | Начальный сектор | Конечный сектор
––––––––––––––––––––––––––––––––––-
1 | 0:00.00 | 3:28.50 | 0 | 15649
2 | 3:28.50 | 2:37.25 | 15650 | 27449
3 | 6:06.00 | 3:00.25 | 27450 | 40974
4 | 9:06.25 | 3:05.00 | 40975 | 54849
5 | 12:11.25 | 2:34.25 | 54850 | 66424
6 | 14:45.50 | 3:34.00 | 66425 | 82474
7 | 18:19.50 | 3:34.00 | 82475 | 98524
8 | 21:53.50 | 3:50.50 | 98525 | 115824
9 | 25:44.25 | 4:15.00 | 115825 | 134949
10 | 29:59.25 | 2:53.50 | 134950 | 147974
11 | 32:53.00 | 2:48.25 | 147975 | 160599
12 | 35:41.25 | 2:40.00 | 160600 | 172599
13 | 38:21.25 | 2:26.00 | 172600 | 183549
14 | 40:47.25 | 3:27.25 | 183550 | 199099
15 | 44:14.50 | 3:12.50 | 199100 | 213549
16 | 47:27.25 | 3:46.00 | 213550 | 230499


Характеристики диапазона извлечения и сообщения об ошибках

Выбранный диапазон

Имя файла E:\Torrents - мои раздачи\Edward Simoni - 1991 - Festliches Panfloten-Konzert\Edward Simoni - 1991 - Festliches Panfloten-Konzert.wav

Пиковый уровень 99.9 %
Качество диапазона 100.0 %
CRC копии 06EF8D01
Копирование… OK

Ошибок не произошло

Конец отчёта

All credits to the initial ripper / uploader