Subcategories

Edward Simoni - Golden Panflute (2001)

Posted By: Speedyclick
Edward Simoni - Golden Panflute (2001)

Edward Simoni - Golden Panflute (2001)
EAC Rip | APE (image & cue & log) & mp3 @ 320 kbps | tracks: 21 | Scans | 1:09:38 | ~ 472 Mb & 174 Mb
Label: Siko Records | 5% recovery record | Instrumental, easy listening, panflute

The German-Polish Edward Simoni, is one of the best and most famous panflute virtuosi of our times. "The magician of the panflute" as they call him, is also composer, arranger and multi-instrumentalist and many of his albums have become golden and platinum. His music covers a wide spectrum, spanning from rock and folk to classical. Together with Gheorghe Zamfir and Dana Dragomir are the pioneers of this wonderful musical instrument, that has acquired a worldwide allure through their numerous successful albums. Enjoy 21 relaxing and refreshing melodies, played by a master.

TRACKLIST
01. Einsamer Hirte
02. Gefangenenchor Aus 'Nabucco'
03. Ave Maria
04. Pan-serenade
05. Santa Lucia (Italien)
06. Lago Maggiore
07. Feuer Tanz
08. The House Of The Rising Sun
09. Scarborough Fair
10. Zauberwelt
11. Guantanamera
12. Wenn Der Tag Erwacht
13. Moscow Nights
14. Conquest Of Paradise
15. El Condor Pasa
16. Don't Cry For Me Argentina
17. Dolannes Melodie
18. Pan-phantasie
19. Nights In White Satin
20. Popcorn
21. Jamaica Farewell

Exact Audio Copy V0.99 prebeta 4 from 23. January 2008

Отчёт EAC об извлечении, выполненном 17. мая 2008, 12:02

Edward Simoni / Golden Panflute

Дисковод: ASUS DRW-1814BLT Adapter: 3 ID: 1

Режим чтения : Достоверность
Использование точного потока : Да
Отключение кэша аудио : Да
Использование указателей C2 : Нет

Коррекция смещения при чтении : 6
Способность читать области Lead-in и Lead-out : Нет
Заполнение пропущенных сэмплов тишиной : Да
Удаление блоков с тишиной в начале и конце : Нет
При вычислениях CRC использовались нулевые сэмплы : Да
Интерфейс : Встроенный Win32-интерфейс для Win NT/2000

Выходной формат : Внутренние WAV-операции
Формат сэмплов : 44.100 Гц; 16 бит; стерео


TOC извлечённого CD

Трек | Старт | Длительность | Начальный сектор | Конечный сектор
––––––––––––––––––––––––––––––––––-
1 | 0:00.00 | 4:12.30 | 0 | 18929
2 | 4:12.30 | 2:56.07 | 18930 | 32136
3 | 7:08.37 | 2:33.00 | 32137 | 43611
4 | 9:41.37 | 3:29.13 | 43612 | 59299
5 | 13:10.50 | 2:40.25 | 59300 | 71324
6 | 15:51.00 | 3:07.50 | 71325 | 85399
7 | 18:58.50 | 3:24.60 | 85400 | 100759
8 | 22:23.35 | 3:22.37 | 100760 | 115946
9 | 25:45.72 | 3:19.37 | 115947 | 130908
10 | 29:05.34 | 3:10.38 | 130909 | 145196
11 | 32:15.72 | 3:36.60 | 145197 | 161456
12 | 35:52.57 | 3:26.67 | 161457 | 176973
13 | 39:19.49 | 2:38.07 | 176974 | 188830
14 | 41:57.56 | 4:42.03 | 188831 | 209983
15 | 46:39.59 | 3:39.18 | 209984 | 226426
16 | 50:19.02 | 3:47.07 | 226427 | 243458
17 | 54:06.09 | 3:30.40 | 243459 | 259248
18 | 57:36.49 | 2:51.63 | 259249 | 272136
19 | 60:28.37 | 3:14.38 | 272137 | 286724
20 | 63:43.00 | 2:59.38 | 286725 | 300187
21 | 66:42.38 | 2:55.42 | 300188 | 313354


Характеристики диапазона извлечения и сообщения об ошибках

Выбранный диапазон

Имя файла E:\Torrents - мои раздачи\Edward Simoni - Golden Panflute\Edward Simoni - Golden Panflute.wav

Пиковый уровень 98.2 %
Качество диапазона 100.0 %
CRC копии 0B73B4BD
Копирование… OK

Ошибок не произошло

Конец отчёта

All credits to the initial ripper / uploader