Subcategories

Dvorák - Pieter Wispelwey - Cello Concerto [Channel Classics CCS 8695] {1996, Bonus CD}

Posted By: luckburz
Dvorák - Pieter Wispelwey - Cello Concerto [Channel Classics CCS 8695] {1996, Bonus CD}

Pieter Wispelwey - Dvorak: Concerto for Cello & Orchestra in B minor, Tchaikovsky / Arensky / Davidov
Netherlands Philharmonic Orchestra / Lawrence Renes / Paolo Giacometti
EAC+LOG+CUE | FLAC: 525 MB | Full Artwork | 5% Recovery Info
Label/Cat#: Channel Classics # CCS 8695 | Country/Year: Netherlands 1996
Genre: Classical | Style: Romantic

MD5 [X] CUE [X] LOG [X] INFO TEXT [X] ARTWORK [X]

selfrip [X] not my rip []

Dvorák - Pieter Wispelwey - Cello Concerto [Channel Classics CCS 8695] {1996, Bonus CD}


Exact Audio Copy V1.0 beta 3 from 29. August 2011

EAC extraction logfile from 9. October 2012, 15:35

Pieter Wispelwey / Dvorák - Cello Concerto CD 1

Used drive : PIONEER BD-RW BDR-206 Adapter: 0 ID: 2

Read mode : Secure
Utilize accurate stream : Yes
Defeat audio cache : Yes
Make use of C2 pointers : No

Read offset correction : 667
Overread into Lead-In and Lead-Out : No
Fill up missing offset samples with silence : Yes
Delete leading and trailing silent blocks : No
Null samples used in CRC calculations : Yes
Used interface : Native Win32 interface for Win NT & 2000

Used output format : User Defined Encoder
Selected bitrate : 1024 kBit/s
Quality : High
Add ID3 tag : Yes
Command line compressor : C:\Program Files\FLAC\flac.exe
Additional command line options : -5 -T "Artist=%artist%" -T "Title=%title%" -T "Album=%albumtitle%" -T "Date=%year%" -T "Tracknumber=%tracknr%" -T "Genre=%genre%" %source% -o %dest%


TOC of the extracted CD

Track | Start | Length | Start sector | End sector
––––––––––––––––––––––––––––-
1 | 0:00.00 | 6:53.65 | 0 | 31039
2 | 6:53.65 | 14:35.27 | 31040 | 96691
3 | 21:29.17 | 11:41.20 | 96692 | 149286
4 | 33:10.37 | 12:17.65 | 149287 | 204626
5 | 45:28.27 | 7:09.25 | 204627 | 236826
6 | 52:37.52 | 4:24.03 | 236827 | 256629
7 | 57:01.55 | 3:48.37 | 256630 | 273766
8 | 60:50.17 | 5:25.65 | 273767 | 298206


Range status and errors

Selected range

Filename F:\=== VINYL RIPS ===\=== EAC===\X FRESH RIP\Dvorák - Pieter Wispelwey - Cello Concerto CD 1.wav

Peak level 93.3 %
Extraction speed 7.5 X
Range quality 100.0 %
Test CRC B5F919D1
Copy CRC D854E478
Copy OK

No errors occurred


AccurateRip summary

Track 1 accurately ripped (confidence 10) [3412A4B0] (AR v1)
Track 2 accurately ripped (confidence 10) [78238651] (AR v1)
Track 3 accurately ripped (confidence 10) [D69B3D67] (AR v1)
Track 4 accurately ripped (confidence 10) [918A3741] (AR v1)
Track 5 accurately ripped (confidence 9) [BAE39309] (AR v1)
Track 6 accurately ripped (confidence 7) [F0D4CF84] (AR v1)
Track 7 accurately ripped (confidence 9) [A8B099C5] (AR v1)
Track 8 accurately ripped (confidence 8) [2E26564A] (AR v1)

All tracks accurately ripped

End of status report

–– CUETools DB Plugin V2.1.3

[CTDB TOCID: bOWwGOxQ0YPW.QvgbFIMARv4Uhk-] found, Submit result: bOWwGOxQ0YPW.QvgbFIMARv4Uhk- has been confirmed
[9e21a6fa] (2/2) Accurately ripped


==== Log checksum 6E41891C0A24DAEDE2C4B6F2D2FC59F6272B632C604AD9107E23128849A2BCAA ====

Exact Audio Copy V1.0 beta 3 from 29. August 2011

EAC extraction logfile from 9. October 2012, 17:23

Pieter Wispelwey / Styles [Dvorak - Cello Concerto CD 2]

Used drive : PIONEER BD-RW BDR-206 Adapter: 0 ID: 2

Read mode : Secure
Utilize accurate stream : Yes
Defeat audio cache : Yes
Make use of C2 pointers : No

Read offset correction : 667
Overread into Lead-In and Lead-Out : No
Fill up missing offset samples with silence : Yes
Delete leading and trailing silent blocks : No
Null samples used in CRC calculations : Yes
Used interface : Native Win32 interface for Win NT & 2000

Used output format : User Defined Encoder
Selected bitrate : 1024 kBit/s
Quality : High
Add ID3 tag : Yes
Command line compressor : C:\Program Files\FLAC\flac.exe
Additional command line options : -5 -T "Artist=%artist%" -T "Title=%title%" -T "Album=%albumtitle%" -T "Date=%year%" -T "Tracknumber=%tracknr%" -T "Genre=%genre%" %source% -o %dest%


TOC of the extracted CD

Track | Start | Length | Start sector | End sector
––––––––––––––––––––––––––––-
1 | 0:00.00 | 2:26.43 | 0 | 10992
2 | 2:26.43 | 2:46.07 | 10993 | 23449
3 | 5:12.50 | 4:09.43 | 23450 | 42167
4 | 9:22.18 | 7:37.25 | 42168 | 76467
5 | 16:59.43 | 1:48.02 | 76468 | 84569
6 | 18:47.45 | 9:10.55 | 84570 | 125874
7 | 27:58.25 | 2:43.15 | 125875 | 138114
8 | 30:41.40 | 1:55.15 | 138115 | 146754
9 | 32:36.55 | 7:04.40 | 146755 | 178594
10 | 39:41.20 | 2:34.30 | 178595 | 190174
11 | 42:15.50 | 2:27.50 | 190175 | 201249
12 | 44:43.25 | 2:21.65 | 201250 | 211889
13 | 47:05.15 | 3:50.40 | 211890 | 229179
14 | 50:55.55 | 11:17.58 | 229180 | 280012
15 | 62:13.38 | 4:34.50 | 280013 | 300612
16 | 66:48.13 | 6:06.50 | 300613 | 328112


Range status and errors

Selected range

Filename F:\=== VINYL RIPS ===\=== EAC===\X FRESH RIP\Pieter Wispelwey - Styles [Dvorak - Cello Concerto CD 2].wav

Peak level 99.4 %
Extraction speed 8.3 X
Range quality 100.0 %
Test CRC 36DF3704
Copy CRC 36DF3704
Copy OK

No errors occurred


AccurateRip summary

Track 1 cannot be verified as accurate (confidence 2) [1A45AA67], AccurateRip returned [4B845C0F] (AR v2)
Track 2 cannot be verified as accurate (confidence 2) [4C2DD174], AccurateRip returned [2F8768A2] (AR v2)
Track 3 cannot be verified as accurate (confidence 2) [37C40397], AccurateRip returned [979FCB07] (AR v2)
Track 4 cannot be verified as accurate (confidence 2) [C339CD9E], AccurateRip returned [E096CF20] (AR v2)
Track 5 cannot be verified as accurate (confidence 2) [FC8D077E], AccurateRip returned [4BD6FEBE] (AR v2)
Track 6 cannot be verified as accurate (confidence 2) [421B253D], AccurateRip returned [A98AA5EE] (AR v2)
Track 7 cannot be verified as accurate (confidence 2) [3AA47DBD], AccurateRip returned [0C43BEC8] (AR v2)
Track 8 cannot be verified as accurate (confidence 2) [66AA7C84], AccurateRip returned [E42DF4F5] (AR v2)
Track 9 cannot be verified as accurate (confidence 2) [9095953B], AccurateRip returned [E970796B] (AR v2)
Track 10 cannot be verified as accurate (confidence 2) [64D7BACC], AccurateRip returned [C7E6B51E] (AR v2)
Track 11 cannot be verified as accurate (confidence 2) [CC99B34A], AccurateRip returned [721781E1] (AR v2)
Track 12 cannot be verified as accurate (confidence 2) [CFC4EE19], AccurateRip returned [2FE197EE] (AR v2)
Track 13 cannot be verified as accurate (confidence 2) [C7754217], AccurateRip returned [144728C7] (AR v2)
Track 14 cannot be verified as accurate (confidence 2) [A2800E5C], AccurateRip returned [FC39FD13] (AR v2)
Track 15 cannot be verified as accurate (confidence 2) [9B0641EE], AccurateRip returned [27E5D72F] (AR v2)
Track 16 cannot be verified as accurate (confidence 2) [C14CC5D0], AccurateRip returned [313DB1AF] (AR v2)

No tracks could be verified as accurate
You may have a different pressing from the one(s) in the database

End of status report

–– CUETools DB Plugin V2.1.3

[CTDB TOCID: rbiywrETylMoVXlK3W.wUvFPHGE-] disk not present in database, Submit result: database access error: Timeout für Vorgang überschritten


==== Log checksum 9DC58C95302A0CE221ECD906F2C98FB55DA4CF8D26A25A3361CA36D2C74787ED ====

foobar2000 1.1.14a / Dynamic Range Meter 1.1.1
log date: 2012-11-06 21:50:04

––––––––––––––––––––––––––––––––––––––––
Analyzed: Antonín Dvorák / Dvorák - Cello Concerto CD 1
––––––––––––––––––––––––––––––––––––––––

DR Peak RMS Duration Track
––––––––––––––––––––––––––––––––––––––––
DR15 -0.60 dB -22.14 dB 14:35 02-Concerto op.104 - 1. Allegro
DR16 -3.35 dB -26.98 dB 11:41 03-Concerto op.104 - 2. Adagio ma non troppo
DR16 -1.20 dB -23.65 dB 12:18 04-Concerto op.104 - 3. Finale, Allegro moderato
DR16 -6.00 dB -28.70 dB 7:09 05-Rondo op.94
DR12 -12.69 dB -30.90 dB 5:26 08-Waldesruhe op.68 n°5
––––––––––––––––––––––––––––––––––––––––

Number of tracks: 5
Official DR value: DR15

Samplerate: 44100 Hz
Channels: 2
Bits per sample: 16
Bitrate: 506 kbps
Codec: FLAC
================================================================================

––––––––––––––––––––––––––––––––––––––––
Statistics for: 07-Am Springbrunnen op.20 N°2
Number of samples: 10076556
Duration: 3:48
––––––––––––––––––––––––––––––––––––––––

Left Right

Peak Value: -11.26 dB –- -11.39 dB
Avg RMS: -30.52 dB –- -30.53 dB
DR channel: 14.87 dB –- 15.12 dB
––––––––––––––––––––––––––––––––––––––––

Official DR Value: DR15

Samplerate: 44100 Hz
Channels: 2
Bits per sample: 16
Bitrate: 506 kbps
Codec: FLAC
================================================================================
––––––––––––––––––––––––––––––––––––––––
Statistics for: 01-Andante cantabile op.11
Number of samples: 18251520
Duration: 6:54
––––––––––––––––––––––––––––––––––––––––

Left Right

Peak Value: -11.42 dB –- -13.61 dB
Avg RMS: -31.18 dB –- -32.25 dB
DR channel: 13.07 dB –- 13.08 dB
––––––––––––––––––––––––––––––––––––––––

Official DR Value: DR13

Samplerate: 44100 Hz
Channels: 2
Bits per sample: 16
Bitrate: 506 kbps
Codec: FLAC
================================================================================

foobar2000 1.1.14a / Dynamic Range Meter 1.1.1
log date: 2012-11-06 21:49:54

––––––––––––––––––––––––––––––––––––––––
Statistics for: 06-Chant Triste op.56 n°3
Number of samples: 11644164
Duration: 4:24
––––––––––––––––––––––––––––––––––––––––

Left Right

Peak Value: -16.10 dB –- -15.53 dB
Avg RMS: -33.08 dB –- -32.93 dB
DR channel: 12.05 dB –- 12.41 dB
––––––––––––––––––––––––––––––––––––––––

Official DR Value: DR12

Samplerate: 44100 Hz
Channels: 2
Bits per sample: 16
Bitrate: 506 kbps
Codec: FLAC
================================================================================

foobar2000 1.1.14a / Dynamic Range Meter 1.1.1
log date: 2012-11-06 21:51:02

––––––––––––––––––––––––––––––––––––––––
Analyzed: Bach / Styles [Dvorak - Cello Concerto CD 2] (1-3)
Beethoven / Styles [Dvorak - Cello Concerto CD 2] (4-6)
––––––––––––––––––––––––––––––––––––––––

DR Peak RMS Duration Track
––––––––––––––––––––––––––––––––––––––––
DR13 -1.86 dB -19.95 dB 2:27 01-Suite nr. 1 G Major - Prelude
DR12 -4.04 dB -19.84 dB 2:46 02-Suite nr. 1 G Major - Courante
DR14 -7.14 dB -24.87 dB 7:37 04-Suite nr. 6 D Major - Allemande
DR13 -12.35 dB -31.06 dB 1:55 08-Sonata opus 69 in A Major - Adagio cantabile
DR17 -0.71 dB -24.00 dB 7:05 09-Sonata opus 69 in A Major - Allegro vivace
DR13 -3.21 dB -21.84 dB 4:35 15-Sonat fuer Violoncello und Klavier F Major, opus 17 - Rondo
––––––––––––––––––––––––––––––––––––––––

Number of tracks: 6
Official DR value: DR14

Samplerate: 44100 Hz
Channels: 2
Bits per sample: 16
Bitrate: 568 kbps
Codec: FLAC
================================================================================

––––––––––––––––––––––––––––––––––––––––
Analyzed: Brahms / Styles [Dvorak - Cello Concerto CD 2] (1)
Britten / Styles [Dvorak - Cello Concerto CD 2] (2)
Haydn / Styles [Dvorak - Cello Concerto CD 2] (3)
––––––––––––––––––––––––––––––––––––––––

DR Peak RMS Duration Track
––––––––––––––––––––––––––––––––––––––––
DR15 -0.33 dB -19.85 dB 9:11 06-Sonata for Pianoforte and Cello Opus99 in F Major - Allegro vivace
DR13 -3.01 dB -22.04 dB 3:51 13-Suite nr. 1 opus 72 for Cello Solo - Sixth Movement
DR13 -1.80 dB -20.41 dB 6:07 16-'Concerto per il Violoncello' in C Major - Allegro Molto
––––––––––––––––––––––––––––––––––––––––

Number of tracks: 3
Official DR value: DR14

Samplerate: 44100 Hz
Channels: 2
Bits per sample: 16
Bitrate: 568 kbps
Codec: FLAC
================================================================================

––––––––––––––––––––––––––––––––––––––––
Analyzed: Hindemith / Styles [Dvorak - Cello Concerto CD 2] (1)
Kodaly / Styles [Dvorak - Cello Concerto CD 2] (2)
––––––––––––––––––––––––––––––––––––––––

DR Peak RMS Duration Track
––––––––––––––––––––––––––––––––––––––––
DR12 -1.13 dB -17.16 dB 1:48 05-Sonata Opus 25 nr. 3 - First Movement
DR14 -0.05 dB -18.78 dB 11:18 14-Sonata for Solo Violoncello, opus 8 - Allegro molto vivace
––––––––––––––––––––––––––––––––––––––––

Number of tracks: 2
Official DR value: DR13

Samplerate: 44100 Hz
Channels: 2
Bits per sample: 16
Bitrate: 568 kbps
Codec: FLAC
================================================================================

––––––––––––––––––––––––––––––––––––––––
Analyzed: Ligeti / Styles [Dvorak - Cello Concerto CD 2] (1)
Sessions / Styles [Dvorak - Cello Concerto CD 2] (2-3)
Vivaldi / Styles [Dvorak - Cello Concerto CD 2] (4-5)
––––––––––––––––––––––––––––––––––––––––

DR Peak RMS Duration Track
––––––––––––––––––––––––––––––––––––––––
DR13 -0.50 dB -19.85 dB 4:10 03-Sonata for Violoncello Solo - Cappriccio (Presto con slancio)
DR13 -11.22 dB -31.52 dB 2:43 07-Six Pieces for Violoncello - Berceuse
DR13 -3.19 dB -25.86 dB 2:34 10-Six Pieces for Violoncello - Epilogue
DR11 -2.56 dB -18.25 dB 2:28 11-Sonata nr. 6 B Flat Major - Preludio
DR13 -0.57 dB -19.01 dB 2:22 12-Sonata nr. 6 B Flat Major - Allemanda
––––––––––––––––––––––––––––––––––––––––

Number of tracks: 5
Official DR value: DR13

Samplerate: 44100 Hz
Channels: 2
Bits per sample: 16
Bitrate: 568 kbps
Codec: FLAC
================================================================================



CD Info:

Pieter Wispelwey - Dvorak: Concerto for Cello & Orchestra in B minor, Tchaikovsky / Arensky / Davidov

Netherlands Philharmonic Orchestra / Lawrence Renes / Paolo Giacometti

+ Bonus CD "Pieter Wispelwey - Styles"

Label: Channel Classics
Catalog#: CCS 8695
Format: 2x CD, Album
Country: Netherlands
Released: 1996
Genre: Classical

Dvorák - Pieter Wispelwey - Cello Concerto [Channel Classics CCS 8695] {1996, Bonus CD}


Tracklist:

CD 01:

1 - Piotr Ilitch Tchaïkovsky - Andante cantabile op.11 6:54
2 - Antonín Dvorák - Concerto op.104 - 1. Allegro 14:35
3 - Antonín Dvorák - Concerto op.104 - 2. Adagio ma non troppo 11:41
4 - Antonín Dvorák - Concerto op.104 - 3. Finale, Allegro moderato 12:18
5 - Antonín Dvorák - Rondo op.94 7:09
6 - Anton Arensky - Chant Triste op.56 n°3 4:24
7 - Karl Davïdov - Am Springbrunnen op.20 N°2 3:48
8 - Antonín Dvorák - Waldesruhe op.68 n°5 5:26

CD 02:

1 - Bach - Suite nr. 1 G Major - Prelude 2:27
2 - Bach - Suite nr. 1 G Major - Courante 2:46
3 - Ligeti - Sonata for Violoncello Solo - Cappriccio (Presto con slancio) 4:10
4 - Bach - Suite nr. 6 D Major - Allemande 7:37
5 - Hindemith - Sonata Opus 25 nr. 3 - First Movement 1:48
6 - Brahms - Sonata for Pianoforte and Cello Opus99 in F Major - Allegro vivace 9:11
7 - Sessions - Six Pieces for Violoncello - Berceuse 2:43
8 - Beethoven - Sonata opus 69 in A Major - Adagio cantabile 1:55
9 - Beethoven - Sonata opus 69 in A Major - Allegro vivace 7:05
10 - Sessions - Six Pieces for Violoncello - Epilogue 2:34
11 - Vivaldi - Sonata nr. 6 B Flat Major - Preludio 2:28
12 - Vivaldi - Sonata nr. 6 B Flat Major - Allemanda 2:22
13 - Britten - Suite nr. 1 opus 72 for Cello Solo - Sixth Movement 3:51
14 - Kodaly - Sonata for Solo Violoncello, opus 8 - Allegro molto vivace 11:18
15 - Beethoven - Sonat fuer Violoncello und Klavier F Major, opus 17 - Rondo 4:35
16 - Haydn - 'Concerto per il Violoncello' in C Major - Allegro Molto 6:07

Recording:

Concertgebouw, Amsterdam, 10-14 December 1995
Renswoude, The Netherlands, 8-10 November 1995

Pieter Wispelwey - violoncello (anonymus french ca. 1860)
Paolo Giacometti - harmonium (DeBain, ca. 1870) & piano (Blüthner, ca. 1890)
Dvorák - Pieter Wispelwey - Cello Concerto [Channel Classics CCS 8695] {1996, Bonus CD}

// classical music \\
// all of my uploads \\
________________

Download:

Filepost FLAC Part 1
Filepost FLAC Part 2
Filepost Artwork
________________