Subcategories

David Bowie - The Buddha of Suburbia (1993)

Posted By: ruskaval
David Bowie - The Buddha of Suburbia (1993)

David Bowie - The Buddha of Suburbia (1993)
EAC rip | FLAC+CUE+LOG -> 369Mb | MP3 @320 -> 126Mb
55:31 | Full artwork @ 400 dpi -> 26Mb
Virgin (USA)


David Bowie - The Buddha of Suburbia (1993)

The album is David Bowie's nineteenth full-length studio recording. The Buddha of Suburbia is a 1993 soundtrack album by David Bowie which accompanied the 4-part television serial The Buddha of Suburbia on BBC2 (itself adapted from the book The Buddha of Suburbia by Hanif Kureishi). Three of the tracks are ambient instrumentals and two of these tracks ("The Mysteries" and "Ian Fish, UK Heir") are similar to Bowie's work with Brian Eno in the late 1970s. The other tracks on the album make strong use of saxophone, keyboard and piano.
tracklist
1. "Buddha of Suburbia" – 4:28
2. "Sex and the Church" – 6:25
3. "South Horizon" – 5:26
4. "The Mysteries" – 7:12
5. "Bleed Like a Craze, Dad" – 5:22
6. "Strangers When We Meet" – 4:58
7. "Dead Against It" – 5:48
8. "Untitled No. 1" – 5:01
9. "Ian Fish, U.K. Heir" – 6:27
10. "Buddha of Suburbia" (featuring Lenny Kravitz on guitar) – 4:19

David Bowie - The Buddha of Suburbia (1993)

Exact Audio Copy V0.99 prebeta 5 from 4. May 2009

EAC extraction logfile from 27. September 2009, 20:29

David Bowie / The Buddha of Suburbia

Used drive : TSSTcorpCD/DVDW TS-H552L Adapter: 3 ID: 0

Read mode : Secure
Utilize accurate stream : Yes
Defeat audio cache : Yes
Make use of C2 pointers : No

Read offset correction : 6
Overread into Lead-In and Lead-Out : No
Fill up missing offset samples with silence : Yes
Delete leading and trailing silent blocks : No
Null samples used in CRC calculations : Yes
Used interface : Native Win32 interface for Win NT & 2000
Gap handling : Appended to previous track

Used output format : User Defined Encoder
Selected bitrate : 1024 kBit/s
Quality : High
Add ID3 tag : No
Command line compressor : C:\Program Files\FLAC\flac.exe
Additional command line options : -6 -V -T "ARTIST=%a" -T "TITLE=%t" -T "ALBUM=%g" -T "DATE=%y" -T "TRACKNUMBER=%n" -T "GENRE=%m" -T "COMMENT=EAC FLAC -6" %s


TOC of the extracted CD

Track | Start | Length | Start sector | End sector
––––––––––––––––––––––––––––-
1 | 0:00.00 | 4:24.60 | 0 | 19859
2 | 4:24.60 | 6:27.62 | 19860 | 48946
3 | 10:52.47 | 5:23.43 | 48947 | 73214
4 | 16:16.15 | 7:11.40 | 73215 | 105579
5 | 23:27.55 | 5:23.07 | 105580 | 129811
6 | 28:50.62 | 4:58.08 | 129812 | 152169
7 | 33:48.70 | 5:48.07 | 152170 | 178276
8 | 39:37.02 | 5:02.45 | 178277 | 200971
9 | 44:39.47 | 6:29.08 | 200972 | 230154
10 | 51:08.55 | 4:21.70 | 230155 | 249799


Track 1

Filename C:\David Bowie - The Buddha of Suburbia\01 - Buddha Of Suburbia.wav

Pre-gap length 0:00:02.00

Peak level 100.0 %
Track quality 100.0 %
Test CRC C8B6DA84
Copy CRC C8B6DA84
Accurately ripped (confidence 6) [922DCC36]
Copy OK

Track 2

Filename C:\David Bowie - The Buddha of Suburbia\02 - Sex And The Church.wav

Peak level 98.3 %
Track quality 99.9 %
Test CRC 85A3C87F
Copy CRC 85A3C87F
Accurately ripped (confidence 6) [0CC98663]
Copy OK

Track 3

Filename C:\David Bowie - The Buddha of Suburbia\03 - South Horizon.wav

Peak level 79.4 %
Track quality 100.0 %
Test CRC BFF0CF8A
Copy CRC BFF0CF8A
Accurately ripped (confidence 6) [8FA7842E]
Copy OK

Track 4

Filename C:\David Bowie - The Buddha of Suburbia\04 - The Mysteries.wav

Peak level 81.8 %
Track quality 100.0 %
Test CRC 6026CF63
Copy CRC 6026CF63
Accurately ripped (confidence 5) [0A451B9E]
Copy OK

Track 5

Filename C:\David Bowie - The Buddha of Suburbia\05 - Bleed Like A Craze, Dad.wav

Peak level 97.7 %
Track quality 99.9 %
Test CRC C7CED3BD
Copy CRC C7CED3BD
Accurately ripped (confidence 6) [2D37E0FA]
Copy OK

Track 6

Filename C:\David Bowie - The Buddha of Suburbia\06 - Strangers When We Meet.wav

Peak level 98.1 %
Track quality 100.0 %
Test CRC C14D5955
Copy CRC C14D5955
Accurately ripped (confidence 6) [389B8D16]
Copy OK

Track 7

Filename C:\David Bowie - The Buddha of Suburbia\07 - Dead Against It.wav

Peak level 98.2 %
Track quality 100.0 %
Test CRC 33CBBD45
Copy CRC 33CBBD45
Accurately ripped (confidence 6) [F8DCC45C]
Copy OK

Track 8

Filename C:\David Bowie - The Buddha of Suburbia\08 - Untitled No.1.wav

Peak level 98.8 %
Track quality 100.0 %
Test CRC 31E23ED8
Copy CRC 31E23ED8
Accurately ripped (confidence 5) [B30D6D58]
Copy OK

Track 9

Filename C:\David Bowie - The Buddha of Suburbia\09 - Ian Fish, UK Heir.wav

Peak level 78.7 %
Track quality 100.0 %
Test CRC 9B902EC7
Copy CRC 9B902EC7
Accurately ripped (confidence 6) [AF4B4AEC]
Copy OK

Track 10

Filename C:\David Bowie - The Buddha of Suburbia\10 - Buddha Of Suburbia (ft. Lenny Kravitz).wav

Peak level 95.4 %
Track quality 100.0 %
Test CRC 0867F202
Copy CRC 0867F202
Accurately ripped (confidence 6) [F1976F16]
Copy OK


All tracks accurately ripped

No errors occurred

End of status report

FileSonic Linkz

or

FileServe Linkz

p.s. the files are interchangeable…

pass: ruskaval

No Mirror, plz!