Subcategories

Maynard Ferguson - The Complete Roulette Recordings Of The Maynard Ferguson Orchestra (1958-62) [10CD] {1994 Mosaic Remaster}

Posted By: ruskaval
Maynard Ferguson - The Complete Roulette Recordings Of The Maynard Ferguson Orchestra (1958-62) [10CD] {1994 Mosaic Remaster}

Maynard Ferguson - The Complete Roulette Recordings Of The Maynard Ferguson Orchestra (1958-62) [10CD BoxSet] {1994 Mosaic Remaster}
EAC rip (secure mode) | FLAC (tracks)+CUE+LOG -> 3.40 Gb | MP3 @320 -> 1.28 Gb
Artwork @ 300 dpi (jpg) -> 36 Mb | 5% repair rar
© 1994 Mosaic Records / Capitol | MD10-156
Jazz / Bop / Hard Bop / Trumpet

Trumpeter Maynard Ferguson led his greatest big band during the years that he was signed to Roulette and all of the music from his 13 Roulette LPs (plus 11 previously unissued selections) are included on this deluxe limited-edition ten-CD box set. Although three of the LPs were originally recorded as dance records (and stick close to the melodies), this box as a whole finds Maynard at his peak and with an orchestra that includes such talented soloists as trombonists Slide Hampton and Don Sebesky (both of whom contributed arrangements), altoist Lanny Morgan, the tenors of Carmen Leggio, Willie Maiden, Joe Farrell, and Don Menza, pianists Jaki Byard and Joe Zawinul, and drummer Rufus Jones in addition to the leader. The music is very jazz-oriented and contains more than its share of classic moments, particularly the sessions that resulted in A Message From Newport and Newport Suite. It's highly recommended.
The Complete Roulette Recordings of the Maynard Ferguson Orchestra (CD Version)

The Complete Roulette Recordings of the Maynard Ferguson Orchestra Box Set (from here on referred to as 'the MF Box Set') is limited to a production run of 5000 copies. My main reason for writing this review is that Mosaic is nearly out of the CD version of this box set. Hopefully this will allow you to decide if you want to purchase the set before it is no longer available. The MF box set is a product of Mosaic records. Mosaic specializes in re-issuing vintage jazz recordings. All of their box sets include either "audiophile vinyl" or CD versions of fully remastered music and a nice book that contains stories and pictures of the band. All contained in a nice protective box. Pricing for each of their sets is determined by the number of discs that comprises the set (more on this later).
The Good…
The MF Box Set comes on 10 CD's and includes everything MF did for Roulette except for his collaberations with Chris Connor and two charts he did with a string orchestra. What you end up with is 141 songs totaling about 9 hours and 12 minutes. Everything on this box set appears on CD for the first time except for the tracks that appeared on the early 1990's CD releases of A Message from Newport, Maynard '61, and Si! Si! MF (each of which contained more tracks than the original releases). There are also 14 tracks here that have been released for the first time ever. Album-wise, the following is included with the set:

Swingin' my Way Through College
A Message from Newport
A Message from Birdland
Plays Jazz for Dancing
Newport Suite
Let's Face the Music and Dance
Maynard '61
Straightaway Jazz Themes
Maynard '62
Si! Si! MF
Maynard '63
Message from Maynard
Maynard '64
The World of Maynard Ferguson


The sound quality is excellent. Even the tracks they single out as having been culled from imperfect masters sound fine to me. Note that I am NOT using very expensive equipment, however. Even better than the sound quality is the music. This music is great! This music is loud! This music is exciting! This music is Big Band JAZZ. This is not the Maynard Ferguson of the 1970's. So if you can't swallow jazz unless it's in the form of fusion, you might want to avoid this set. However, if you enjoy jazz or want what is probably the best introduction to Big Band jazz then don't hesitate, here is the prize set.

The Bad…
So it sounds great and has great charts, what's the catch? The catch is that this is a re-issue of the recording sessions and not the original albums. Make sense? I'll explain. The discs are arranged so that the songs are grouped by recording sessions, or more specifically by incarnations of the orchestra. This may be preferrable to some people, but it's not to me. If MF's old albums had been the result of a single recording session or group of musicians then it would have worked out fine, but it's obvious that during this period the MF Orchestra was a recording machine. Anything recorded went into the MF library where it was pulled at random to create an album. Adding to the problem is that nowhere in the set can you easily find out what songs were included on a particular album. Instead you get, "One for Otis - arr. Don Menza - originally issued on Roulette 52101". Time to turn 4 pages and do a album number cross-reference! Ummmm…I guess it originally came out on Message from Maynard (of course I had to go upstairs and get the book out of my room so I could look that up). To top it off the original artwork is nowhere to be found!!! Mosaic should have re-issued all of the original albums keeping their original track listings and artwork. The new songs could have fit onto their own CD.

The Conclusion…
Despite it's weaknesses, the MF Box Set is still a fantastic, recommended purchase. From what Mosaic has said in their catalog, they will be out of the CD version of the MF Box Set sometime around May 1999. If this sounds like something you're interested in you better start calling Mosaic now.

tracklist:
Disc I [53:38]


01. And We Listened (5:45)
02. The Fugue (3:28)
03. Humbug (3:31)
04. Slide's Derangement (7:56)
05. Frame For The Blues (6:55)
06. The Waltz (4:04)
07. Three Little Foxes (4:05)
08. Tag Team (5:08)
09. Fan It, Janet (3:14)
10. Don'cha Go 'Way Mad (2:46)
11. Bye Bye Blackbird (3:03)
12. Tenderly (3:42)

Disc II [46:17]

01. It's A Pity To Say Goodnight (2:30)
02. B.J.'s Back In Town (3:11)
03. Bittersweet (3:12)
04. They Can't Take That Away From Me (3:10)
05. Love Walked In (3:20)
06. Dancing In The Dark (2:07)
07. What's New (3:12)
08. Can't We Be Friends (4:06)
09. That Old Feeling (3:28)
10. Secret Love (2:25)
11. Full Moon And Empty Arms (3:20)
12. 'Tis Autumn (3:13)
13. You Took Advantage Of Me (2:49)
14. Soft Winds (3:31)
15. It's Only A Paper Moon (2:43)

Disc III [43:41]

01. Aren't You Glad You're You (2:38)
02. 'Round Midnight (3:16)
03. She's Funny That Way (2:44)
04. Lonely Town (3:34)
05. I'm Beginning To See The Light (2:52)
06. Do Nothin' Till You Hear From Me (2:23)
07. Stompin' At The Savoy (2:30)
08. It Might As Well Be Spring (3:36)
09. I'll Be Seeing You (2:28)
10. If I Should Lose You (3:35)
11. Don't Take Your Love From Me (3:03)
12. Let's Fall In Love (2:23)
13. Where's Teddy (2:41)
14. This Is Always (2:56)
15. Hey There (3:02)

Maynard Ferguson - The Complete Roulette Recordings Of The Maynard Ferguson Orchestra (1958-62) [10CD] {1994 Mosaic Remaster}


Disc IV [49:27]

01. Newport (8:41)
02. Sometimes I Feel Like A Motherless Child (2:57)
03. Old Man River (7:05)
04. Three More Foxes (7:12)
05. Jazz Bary (4:28)
06. Foxy (5:11)
07. Got The Spirit (3:56)
08. Doin' The Madison, Part 1 (2:55)
09. Doin' The Madison, Part 2 (2:54)
10. Mangos (4:06)

Disc V [53:28]

01. Don't Take Your Love From Me (2:57)
02. My Foolish Heart (2:56)
03. Let's Face The Music And Dance (1:59)
04. You Don't Know What Love Is (2:54)
05. It's Only A Paper Moon (2:46)
06. The Party's Over (3:47)
07. The Masquerade Is Over (3:37)
08. Let's Do It (3:11)
09. Spring Is Here (4:03)
10. It Could Happen To You (2:24)
11. Teach Me Tonight (3:32)
12. Ole (6:31)
13. Christmas For Moderns: The First Noel / White Christmas / O Come All Ye Faithful / The Christmas Song / Silent Night / Jingle Bells (7:07)
14. New Blue (5:44)

Disc VI [54:57]

01. The Pharaoh (7:45)
02. Ultimate Rejection (6:18)
03. Go East, Young Man (4:34)
04. Saturday Night (2:52)
05. Blues For Kapp (5:13)
06. This Is My Lucky Day (3:03)
07. Goodbye (4:50)
08. Straight Away (2:23)
09. Stroking (5:59)
10. Melancholia (2:26)
11. Mambo Le Mans (5:13)
12. 'Round About The Blues (4:22)

Disc VII [55:08]

01. Apprehensions (4:16)
02. Cocky Scott (3:44)
03. Up Shift (2:46)
04. Last Lap (3:53)
05. Pit Stop (2:04)
06. After The Race (2:08)
07. Lazy Afternoon (4:22)
08. Ain't Life Grand (2:57)
09. Have You Met Miss Jones (2:32)
10. Four (3:35)
11. Maria (3:06)
12. ''X'' Stream (3:20)
13. Go East, Young Man (5:52)
14. Pretty Little Nieda (5:50)
15. This Is My Lucky Day (2:28)
16. Hip Twist (2:15)

Maynard Ferguson - The Complete Roulette Recordings Of The Maynard Ferguson Orchestra (1958-62) [10CD] {1994 Mosaic Remaster}


Disc VIII [64:38]

01. Almost Like Being In Love (2:04)
02. Born To Be Blue (3:38)
03. A Soulful Moment (4:59)
04. My Sweetie Went Away, She Didn't Say Where, When Or Why (2:55)
05. Straight Out (3:36)
06. Si! Si! M.F. (6:16)
07. Mimi (5:19)
08. Morgan's Organ (4:24)
09. What'll I Do (2:43)
10. Early Hours (3:57)
11. Great Guns (5:23)
12. Easy Chair (4:03)
13. New Bag Blues (3:11)
14. September Moan (4:05)
15. Sin Blues (2:51)
16. Hate Notes (2:34)
17. Overcoat Stomp (2:39)

Disc IX [60:45]

01. Nude Mood (2:48)
02. In Retrospect (3:08)
03. For The Cats (2:49)
04. L & M (3:09)
05. Lament For Susan (3:46)
06. Antibes (2:56)
07. One For Otis (2:48)
08. Animated Suspension (2:25)
09. Knarf (4:41)
10. Head Hunter (3:02)
11. Fox Hunt (3:17)
12. Let's Try (4:37)
13. Guess Again (3:33)
14. Reflection (2:54)
15. Spookin' (3:17)
16. Vignette (2:57)
17. Jennifer's Bounce (2:24)
18. Statement (6:13)

Disc X [69:48]

01. Oleo (9:12)
02. Starfire (4:50)
03. The Mark Of Jazz (6:47)
04. Night Life (4:40)
05. Stella By Starlight (6:10)
06. Lonely Time (4:47)
07. Back In The Satellite Again (2:54)
08. Three More Foxes (7:22)
09. Sea Isle Stomp (8:03)
10. Night Life (alt tk) (5:00)
11. The Mark Of Jazz (alt tk) (8:08)
12. Blue Birdland (1:55)

Maynard Ferguson - The Complete Roulette Recordings Of The Maynard Ferguson Orchestra (1958-62) [10CD] {1994 Mosaic Remaster}


Exact Audio Copy V1.0 beta 3 from 29. August 2011

EAC extraction logfile from 19. April 2013, 15:29

The Maynard Ferguson Orchestra / The Complete Roulette Recordings of the Maynard Ferguson Orchestra

Used drive : hp DVDWBD TS-LB23L Adapter: 3 ID: 0

Read mode : Secure
Utilize accurate stream : Yes
Defeat audio cache : Yes
Make use of C2 pointers : No

Read offset correction : 6
Overread into Lead-In and Lead-Out : No
Fill up missing offset samples with silence : Yes
Delete leading and trailing silent blocks : No
Null samples used in CRC calculations : Yes
Used interface : Native Win32 interface for Win NT & 2000
Gap handling : Appended to previous track

Used output format : User Defined Encoder
Selected bitrate : 1024 kBit/s
Quality : High
Add ID3 tag : No
Command line compressor : C:\Program Files (x86)\FLAC\flac.exe
Additional command line options : -8 -V -T "ARTIST=%artist%" -T "TITLE=%title%" -T "ALBUM=%albumtitle%" -T "DATE=%year%" -T "TRACKNUMBER=%tracknr%" -T "GENRE=%genre%" -T "PERFORMER=%albuminterpret%" -T "COMPOSER=%composer%" %haslyrics%–tag-from-file=LYRICS="%lyricsfile%"%haslyrics% -T "ALBUMARTIST=%albumartist%" -T "DISCNUMBER=%cdnumber%" -T "TOTALDISCS=%totalcds%" -T "TOTALTRACKS=%numtracks%" -T "COMMENT=%comment%" %source% -o %dest%


TOC of the extracted CD

Track | Start | Length | Start sector | End sector
––––––––––––––––––––––––––––-
1 | 0:00.00 | 5:45.10 | 0 | 25884
2 | 5:45.10 | 3:27.47 | 25885 | 41456
3 | 9:12.57 | 3:31.00 | 41457 | 57281
4 | 12:43.57 | 7:56.35 | 57282 | 93016
5 | 20:40.17 | 6:54.60 | 93017 | 124126
6 | 27:35.02 | 4:04.13 | 124127 | 142439
7 | 31:39.15 | 4:05.07 | 142440 | 160821
8 | 35:44.22 | 5:08.03 | 160822 | 183924
9 | 40:52.25 | 3:14.07 | 183925 | 198481
10 | 44:06.32 | 2:46.18 | 198482 | 210949
11 | 46:52.50 | 3:02.42 | 210950 | 224641
12 | 49:55.17 | 3:42.35 | 224642 | 241326


Track 1

Filename C:\Ripping\The Complete Roulette Recordings of the Maynard Ferguson Orchestra\CD1\01 - And We Listened.wav

Pre-gap length 0:00:02.00

Peak level 97.1 %
Extraction speed 1.6 X
Track quality 100.0 %
Test CRC 00FD256F
Copy CRC 00FD256F
Accurately ripped (confidence 2) [7699DB09] (AR v1)
Copy OK

Track 2

Filename C:\Ripping\The Complete Roulette Recordings of the Maynard Ferguson Orchestra\CD1\02 - The Fugue.wav

Pre-gap length 0:00:02.25

Peak level 96.6 %
Extraction speed 1.6 X
Track quality 100.0 %
Test CRC 0A91BF89
Copy CRC 0A91BF89
Accurately ripped (confidence 2) [0DE91BCD] (AR v1)
Copy OK

Track 3

Filename C:\Ripping\The Complete Roulette Recordings of the Maynard Ferguson Orchestra\CD1\03 - Humbug.wav

Pre-gap length 0:00:02.62

Peak level 100.0 %
Extraction speed 1.4 X
Track quality 100.0 %
Test CRC 31D40513
Copy CRC 31D40513
Accurately ripped (confidence 2) [3AF4C504] (AR v1)
Copy OK

Track 4

Filename C:\Ripping\The Complete Roulette Recordings of the Maynard Ferguson Orchestra\CD1\04 - Slide's Derangement.wav

Pre-gap length 0:00:02.17

Peak level 100.0 %
Extraction speed 2.0 X
Track quality 100.0 %
Test CRC 4DCB7EA1
Copy CRC 4DCB7EA1
Accurately ripped (confidence 2) [82FB6160] (AR v1)
Copy OK

Track 5

Filename C:\Ripping\The Complete Roulette Recordings of the Maynard Ferguson Orchestra\CD1\05 - Frame for the Blues.wav

Pre-gap length 0:00:03.20

Peak level 94.9 %
Extraction speed 2.3 X
Track quality 100.0 %
Test CRC 07BE3FB5
Copy CRC 07BE3FB5
Accurately ripped (confidence 2) [B10163A4] (AR v1)
Copy OK

Track 6

Filename C:\Ripping\The Complete Roulette Recordings of the Maynard Ferguson Orchestra\CD1\06 - The Waltz.wav

Pre-gap length 0:00:02.27

Peak level 99.1 %
Extraction speed 2.3 X
Track quality 100.0 %
Test CRC 81A42114
Copy CRC 81A42114
Accurately ripped (confidence 2) [80960B3E] (AR v1)
Copy OK

Track 7

Filename C:\Ripping\The Complete Roulette Recordings of the Maynard Ferguson Orchestra\CD1\07 - Three Little Foxes.wav

Pre-gap length 0:00:02.23

Peak level 100.0 %
Extraction speed 2.6 X
Track quality 100.0 %
Test CRC F6CA4B2B
Copy CRC F6CA4B2B
Accurately ripped (confidence 2) [06AB63FB] (AR v1)
Copy OK

Track 8

Filename C:\Ripping\The Complete Roulette Recordings of the Maynard Ferguson Orchestra\CD1\08 - Tag Team.wav

Pre-gap length 0:00:02.17

Peak level 97.1 %
Extraction speed 2.5 X
Track quality 100.0 %
Test CRC 3FEFB94A
Copy CRC 3FEFB94A
Accurately ripped (confidence 2) [D41B17F7] (AR v1)
Copy OK

Track 9

Filename C:\Ripping\The Complete Roulette Recordings of the Maynard Ferguson Orchestra\CD1\09 - Fan It, Janet.wav

Pre-gap length 0:00:02.45

Peak level 99.6 %
Extraction speed 2.2 X
Track quality 100.0 %
Test CRC 7A259EFC
Copy CRC 7A259EFC
Accurately ripped (confidence 2) [36148F0C] (AR v1)
Copy OK

Track 10

Filename C:\Ripping\The Complete Roulette Recordings of the Maynard Ferguson Orchestra\CD1\10 - Don'cha Go 'Way Mad.wav

Pre-gap length 0:00:02.07

Peak level 100.0 %
Extraction speed 2.2 X
Track quality 100.0 %
Test CRC B9532773
Copy CRC B9532773
Accurately ripped (confidence 2) [5A08A784] (AR v1)
Copy OK

Track 11

Filename C:\Ripping\The Complete Roulette Recordings of the Maynard Ferguson Orchestra\CD1\11 - Bye Bye Blackbird.wav

Pre-gap length 0:00:01.55

Peak level 97.5 %
Extraction speed 2.2 X
Track quality 99.9 %
Test CRC 6985B65D
Copy CRC 6985B65D
Accurately ripped (confidence 2) [77C45902] (AR v1)
Copy OK

Track 12

Filename C:\Ripping\The Complete Roulette Recordings of the Maynard Ferguson Orchestra\CD1\12 - Tenderly.wav

Pre-gap length 0:00:01.37

Peak level 100.0 %
Extraction speed 2.6 X
Track quality 99.9 %
Test CRC 79EE0E83
Copy CRC 79EE0E83
Accurately ripped (confidence 2) [24CFD7A2] (AR v1)
Copy OK


All tracks accurately ripped

No errors occurred

End of status report

–– CUETools DB Plugin V2.1.3

[CTDB TOCID: KGAuWZeaJmy6xlhtGkB8GUvRy.M-] disk not present in database, Submit result: KGAuWZeaJmy6xlhtGkB8GUvRy.M- has been uploaded


==== Log checksum E65A5C25E6BBE4D199ACCE55EF84A028A94752FFBD8243741B817F732E50D6C4 ====

Exact Audio Copy V1.0 beta 3 from 29. August 2011

EAC extraction logfile from 19. April 2013, 15:47

The Maynard Ferguson Orchestra / The Complete Roulette Recordings of the Maynard Ferguson Orchestra

Used drive : MATSHITADVD-RAM UJ-842S Adapter: 2 ID: 0

Read mode : Secure
Utilize accurate stream : Yes
Defeat audio cache : Yes
Make use of C2 pointers : No

Read offset correction : 102
Overread into Lead-In and Lead-Out : No
Fill up missing offset samples with silence : Yes
Delete leading and trailing silent blocks : No
Null samples used in CRC calculations : Yes
Used interface : Native Win32 interface for Win NT & 2000
Gap handling : Appended to previous track

Used output format : User Defined Encoder
Selected bitrate : 1024 kBit/s
Quality : High
Add ID3 tag : No
Command line compressor : C:\Program Files\FLAC\flac.exe
Additional command line options : -8 -V -T "ARTIST=%artist%" -T "TITLE=%title%" -T "ALBUM=%albumtitle%" -T "DATE=%year%" -T "TRACKNUMBER=%tracknr%" -T "GENRE=%genre%" -T "PERFORMER=%albuminterpret%" -T "COMPOSER=%composer%" %haslyrics%–tag-from-file=LYRICS="%lyricsfile%"%haslyrics% -T "ALBUMARTIST=%albumartist%" -T "DISCNUMBER=%cdnumber%" -T "TOTALDISCS=%totalcds%" -T "TOTALTRACKS=%numtracks%" -T "COMMENT=%comment%" %source% -o %dest%


TOC of the extracted CD

Track | Start | Length | Start sector | End sector
––––––––––––––––––––––––––––-
1 | 0:00.00 | 2:29.52 | 0 | 11226
2 | 2:29.52 | 3:11.10 | 11227 | 25561
3 | 5:40.62 | 3:11.48 | 25562 | 39934
4 | 8:52.35 | 3:09.40 | 39935 | 54149
5 | 12:02.00 | 3:19.57 | 54150 | 69131
6 | 15:21.57 | 2:07.23 | 69132 | 78679
7 | 17:29.05 | 3:12.10 | 78680 | 93089
8 | 20:41.15 | 4:06.20 | 93090 | 111559
9 | 24:47.35 | 3:28.20 | 111560 | 127179
10 | 28:15.55 | 2:25.02 | 127180 | 138056
11 | 30:40.57 | 3:19.53 | 138057 | 153034
12 | 34:00.35 | 3:12.45 | 153035 | 167479
13 | 37:13.05 | 2:49.02 | 167480 | 180156
14 | 40:02.07 | 3:31.25 | 180157 | 196006
15 | 43:33.32 | 2:43.23 | 196007 | 208254


Track 1

Filename D:\Ripping\The Complete Roulette Recordings of the Maynard Ferguson Orchestra\CD2\01 - It's a Pity to Say Goodnight.wav

Pre-gap length 0:00:02.00

Peak level 100.0 %
Extraction speed 1.8 X
Track quality 99.9 %
Test CRC 2C7DEAC0
Copy CRC 2C7DEAC0
Accurately ripped (confidence 2) [D919A9AE] (AR v1)
Copy OK

Track 2

Filename D:\Ripping\The Complete Roulette Recordings of the Maynard Ferguson Orchestra\CD2\02 - B.J.'s Back in Town.wav

Pre-gap length 0:00:02.11

Peak level 100.0 %
Extraction speed 2.4 X
Track quality 100.0 %
Test CRC 90356801
Copy CRC 90356801
Accurately ripped (confidence 2) [8BD89305] (AR v1)
Copy OK

Track 3

Filename D:\Ripping\The Complete Roulette Recordings of the Maynard Ferguson Orchestra\CD2\03 - Bittersweet.wav

Pre-gap length 0:00:02.15

Peak level 100.0 %
Extraction speed 2.6 X
Track quality 100.0 %
Test CRC A19A8FDF
Copy CRC A19A8FDF
Accurately ripped (confidence 2) [CB8CC8BE] (AR v1)
Copy OK

Track 4

Filename D:\Ripping\The Complete Roulette Recordings of the Maynard Ferguson Orchestra\CD2\04 - They Can't Take That Away From Me.wav

Pre-gap length 0:00:01.58

Peak level 100.0 %
Extraction speed 2.4 X
Track quality 99.9 %
Test CRC B6AF43D6
Copy CRC B6AF43D6
Accurately ripped (confidence 2) [F6EDE3E0] (AR v1)
Copy OK

Track 5

Filename D:\Ripping\The Complete Roulette Recordings of the Maynard Ferguson Orchestra\CD2\05 - Love Walked In.wav

Pre-gap length 0:00:01.55

Peak level 99.9 %
Extraction speed 3.0 X
Track quality 100.0 %
Test CRC 037A2A54
Copy CRC 037A2A54
Accurately ripped (confidence 2) [C5828194] (AR v1)
Copy OK

Track 6

Filename D:\Ripping\The Complete Roulette Recordings of the Maynard Ferguson Orchestra\CD2\06 - Dancing in the Dark.wav

Pre-gap length 0:00:01.45

Peak level 97.3 %
Extraction speed 2.8 X
Track quality 100.0 %
Test CRC 190E32A2
Copy CRC 190E32A2
Accurately ripped (confidence 2) [3501340E] (AR v1)
Copy OK

Track 7

Filename D:\Ripping\The Complete Roulette Recordings of the Maynard Ferguson Orchestra\CD2\07 - What's New.wav

Pre-gap length 0:00:01.70

Peak level 100.0 %
Extraction speed 3.2 X
Track quality 100.0 %
Test CRC 8A02AB4F
Copy CRC 8A02AB4F
Accurately ripped (confidence 2) [EB8A62A8] (AR v1)
Copy OK

Track 8

Filename D:\Ripping\The Complete Roulette Recordings of the Maynard Ferguson Orchestra\CD2\08 - Can't We Be Friends.wav

Pre-gap length 0:00:01.60

Peak level 97.7 %
Extraction speed 3.5 X
Track quality 100.0 %
Test CRC B2227B3D
Copy CRC B2227B3D
Accurately ripped (confidence 2) [037834FF] (AR v1)
Copy OK

Track 9

Filename D:\Ripping\The Complete Roulette Recordings of the Maynard Ferguson Orchestra\CD2\09 - That Old Feeling.wav

Pre-gap length 0:00:02.03

Peak level 100.0 %
Extraction speed 3.6 X
Track quality 100.0 %
Test CRC CA9ED154
Copy CRC CA9ED154
Accurately ripped (confidence 2) [B9821CC4] (AR v1)
Copy OK

Track 10

Filename D:\Ripping\The Complete Roulette Recordings of the Maynard Ferguson Orchestra\CD2\10 - Secret Love.wav

Peak level 97.7 %
Extraction speed 3.4 X
Track quality 100.0 %
Test CRC 53956210
Copy CRC 53956210
Accurately ripped (confidence 2) [5CDFBF88] (AR v1)
Copy OK

Track 11

Filename D:\Ripping\The Complete Roulette Recordings of the Maynard Ferguson Orchestra\CD2\11 - Full Moon and Empty Arms.wav

Pre-gap length 0:00:02.00

Peak level 92.8 %
Extraction speed 3.8 X
Track quality 100.0 %
Test CRC 3B7A542F
Copy CRC 3B7A542F
Accurately ripped (confidence 2) [2EDB9510] (AR v1)
Copy OK

Track 12

Filename D:\Ripping\The Complete Roulette Recordings of the Maynard Ferguson Orchestra\CD2\12 - 'Tis Autumn.wav

Pre-gap length 0:00:01.55

Peak level 99.0 %
Extraction speed 3.9 X
Track quality 100.0 %
Test CRC 56DF245B
Copy CRC 56DF245B
Accurately ripped (confidence 2) [FC22B62A] (AR v1)
Copy OK

Track 13

Filename D:\Ripping\The Complete Roulette Recordings of the Maynard Ferguson Orchestra\CD2\13 - You Took Advantage of Me.wav

Pre-gap length 0:00:01.38

Peak level 92.9 %
Extraction speed 3.8 X
Track quality 100.0 %
Test CRC ED6F2E28
Copy CRC ED6F2E28
Accurately ripped (confidence 2) [BC2EE148] (AR v1)
Copy OK

Track 14

Filename D:\Ripping\The Complete Roulette Recordings of the Maynard Ferguson Orchestra\CD2\14 - Soft Winds.wav

Pre-gap length 0:00:01.50

Peak level 94.1 %
Extraction speed 4.1 X
Track quality 100.0 %
Test CRC CA52D619
Copy CRC CA52D619
Accurately ripped (confidence 2) [99AAA477] (AR v1)
Copy OK

Track 15

Filename D:\Ripping\The Complete Roulette Recordings of the Maynard Ferguson Orchestra\CD2\15 - It's Only a Paper Moon.wav

Pre-gap length 0:00:01.65

Peak level 90.1 %
Extraction speed 3.9 X
Track quality 100.0 %
Test CRC 88149B26
Copy CRC 88149B26
Accurately ripped (confidence 2) [14D972A2] (AR v1)
Copy OK


All tracks accurately ripped

No errors occurred

End of status report

–– CUETools DB Plugin V2.1.3

[CTDB TOCID: 06H_mcPONdp2tu8X_iWDKENDmYw-] disk not present in database, Submit result: 06H_mcPONdp2tu8X_iWDKENDmYw- has been uploaded


==== Log checksum 9F7B99422FFD3E6C3097F7BD68F009AAD132BDC564E74AE11B4C00BF677C8477 ====

Exact Audio Copy V1.0 beta 3 from 29. August 2011

EAC extraction logfile from 19. April 2013, 16:22

The Maynard Ferguson Orchestra / The Complete Roulette Recordings of the Maynard Ferguson Orchestra

Used drive : hp DVDWBD TS-LB23L Adapter: 3 ID: 0

Read mode : Secure
Utilize accurate stream : Yes
Defeat audio cache : Yes
Make use of C2 pointers : No

Read offset correction : 6
Overread into Lead-In and Lead-Out : No
Fill up missing offset samples with silence : Yes
Delete leading and trailing silent blocks : No
Null samples used in CRC calculations : Yes
Used interface : Native Win32 interface for Win NT & 2000
Gap handling : Appended to previous track

Used output format : User Defined Encoder
Selected bitrate : 1024 kBit/s
Quality : High
Add ID3 tag : No
Command line compressor : C:\Program Files (x86)\FLAC\flac.exe
Additional command line options : -8 -V -T "ARTIST=%artist%" -T "TITLE=%title%" -T "ALBUM=%albumtitle%" -T "DATE=%year%" -T "TRACKNUMBER=%tracknr%" -T "GENRE=%genre%" -T "PERFORMER=%albuminterpret%" -T "COMPOSER=%composer%" %haslyrics%–tag-from-file=LYRICS="%lyricsfile%"%haslyrics% -T "ALBUMARTIST=%albumartist%" -T "DISCNUMBER=%cdnumber%" -T "TOTALDISCS=%totalcds%" -T "TOTALTRACKS=%numtracks%" -T "COMMENT=%comment%" %source% -o %dest%


TOC of the extracted CD

Track | Start | Length | Start sector | End sector
––––––––––––––––––––––––––––-
1 | 0:00.00 | 2:38.30 | 0 | 11879
2 | 2:38.30 | 3:16.07 | 11880 | 26586
3 | 5:54.37 | 2:44.03 | 26587 | 38889
4 | 8:38.40 | 3:33.47 | 38890 | 54911
5 | 12:12.12 | 2:52.13 | 54912 | 67824
6 | 15:04.25 | 2:23.20 | 67825 | 78569
7 | 17:27.45 | 2:30.35 | 78570 | 89854
8 | 19:58.05 | 3:35.40 | 89855 | 106019
9 | 23:33.45 | 2:27.60 | 106020 | 117104
10 | 26:01.30 | 3:35.37 | 117105 | 133266
11 | 29:36.67 | 3:03.05 | 133267 | 146996
12 | 32:39.72 | 2:22.40 | 146997 | 157686
13 | 35:02.37 | 2:41.20 | 157687 | 169781
14 | 37:43.57 | 2:55.63 | 169782 | 182969
15 | 40:39.45 | 3:01.62 | 182970 | 196606


Track 1

Filename C:\Ripping\The Complete Roulette Recordings of the Maynard Ferguson Orchestra\CD3\01 - Aren't You Glad You're You.wav

Pre-gap length 0:00:02.00

Peak level 100.0 %
Extraction speed 1.2 X
Track quality 100.0 %
Test CRC 3A2E9691
Copy CRC 3A2E9691
Accurately ripped (confidence 2) [4494A879] (AR v1)
Copy OK

Track 2

Filename C:\Ripping\The Complete Roulette Recordings of the Maynard Ferguson Orchestra\CD3\02 - 'Round Midnight.wav

Pre-gap length 0:00:01.13

Peak level 100.0 %
Extraction speed 1.5 X
Track quality 100.0 %
Test CRC 5DACCDE6
Copy CRC 5DACCDE6
Accurately ripped (confidence 2) [4797451B] (AR v1)
Copy OK

Track 3

Filename C:\Ripping\The Complete Roulette Recordings of the Maynard Ferguson Orchestra\CD3\03 - She's Funny That Way.wav

Pre-gap length 0:00:01.57

Peak level 90.2 %
Extraction speed 1.5 X
Track quality 100.0 %
Test CRC F0F340B8
Copy CRC F0F340B8
Accurately ripped (confidence 2) [B9ABB5DB] (AR v1)
Copy OK

Track 4

Filename C:\Ripping\The Complete Roulette Recordings of the Maynard Ferguson Orchestra\CD3\04 - Lonely Town.wav

Pre-gap length 0:00:01.68

Peak level 88.5 %
Extraction speed 1.4 X
Track quality 100.0 %
Test CRC AAC79618
Copy CRC AAC79618
Accurately ripped (confidence 2) [5FBF7EAD] (AR v1)
Copy OK

Track 5

Filename C:\Ripping\The Complete Roulette Recordings of the Maynard Ferguson Orchestra\CD3\05 - I'm Beginning to See the Light.wav

Pre-gap length 0:00:01.25

Peak level 100.0 %
Extraction speed 1.7 X
Track quality 100.0 %
Test CRC 8286F9D1
Copy CRC 8286F9D1
Accurately ripped (confidence 2) [E36E82DD] (AR v1)
Copy OK

Track 6

Filename C:\Ripping\The Complete Roulette Recordings of the Maynard Ferguson Orchestra\CD3\06 - Do Nothin' Till You Hear From Me.wav

Pre-gap length 0:00:01.45

Peak level 87.5 %
Extraction speed 1.9 X
Track quality 100.0 %
Test CRC FBA376AF
Copy CRC FBA376AF
Accurately ripped (confidence 2) [6633994A] (AR v1)
Copy OK

Track 7

Filename C:\Ripping\The Complete Roulette Recordings of the Maynard Ferguson Orchestra\CD3\07 - Stompin' at the Savoy.wav

Pre-gap length 0:00:02.20

Peak level 96.2 %
Extraction speed 1.7 X
Track quality 100.0 %
Test CRC 7C8514EA
Copy CRC 7C8514EA
Accurately ripped (confidence 2) [28E4FBF7] (AR v1)
Copy OK

Track 8

Filename C:\Ripping\The Complete Roulette Recordings of the Maynard Ferguson Orchestra\CD3\08 - It Might as Well Be Spring.wav

Pre-gap length 0:00:01.68

Peak level 95.2 %
Extraction speed 1.9 X
Track quality 100.0 %
Test CRC 71395E21
Copy CRC 71395E21
Accurately ripped (confidence 2) [EC360135] (AR v1)
Copy OK

Track 9

Filename C:\Ripping\The Complete Roulette Recordings of the Maynard Ferguson Orchestra\CD3\09 - I'll Be Seeing You.wav

Pre-gap length 0:00:00.45

Peak level 94.1 %
Extraction speed 1.9 X
Track quality 100.0 %
Test CRC 2D50AE1D
Copy CRC 2D50AE1D
Accurately ripped (confidence 2) [EFB03770] (AR v1)
Copy OK

Track 10

Filename C:\Ripping\The Complete Roulette Recordings of the Maynard Ferguson Orchestra\CD3\10 - If I Should Lose You.wav

Pre-gap length 0:00:01.43

Peak level 98.1 %
Extraction speed 2.9 X
Track quality 100.0 %
Test CRC 7ACD8A74
Copy CRC 7ACD8A74
Accurately ripped (confidence 2) [FCC7F452] (AR v1)
Copy OK

Track 11

Filename C:\Ripping\The Complete Roulette Recordings of the Maynard Ferguson Orchestra\CD3\11 - Don't Take Your Love From Me.wav

Pre-gap length 0:00:01.42

Peak level 100.0 %
Extraction speed 2.3 X
Track quality 100.0 %
Test CRC C8A80CA2
Copy CRC C8A80CA2
Accurately ripped (confidence 2) [7EB2E14D] (AR v1)
Copy OK

Track 12

Filename C:\Ripping\The Complete Roulette Recordings of the Maynard Ferguson Orchestra\CD3\12 - Let's Fall in Love.wav

Pre-gap length 0:00:01.62

Peak level 89.7 %
Extraction speed 2.4 X
Track quality 100.0 %
Test CRC E9A6AC39
Copy CRC E9A6AC39
Accurately ripped (confidence 2) [E8A52B1E] (AR v1)
Copy OK

Track 13

Filename C:\Ripping\The Complete Roulette Recordings of the Maynard Ferguson Orchestra\CD3\13 - Where's Teddy.wav

Pre-gap length 0:00:01.62

Peak level 98.7 %
Extraction speed 2.7 X
Track quality 100.0 %
Test CRC 4D6FDB17
Copy CRC 4D6FDB17
Accurately ripped (confidence 2) [83E56AD1] (AR v1)
Copy OK

Track 14

Filename C:\Ripping\The Complete Roulette Recordings of the Maynard Ferguson Orchestra\CD3\14 - This Is Always.wav

Pre-gap length 0:00:01.40

Peak level 100.0 %
Extraction speed 2.6 X
Track quality 100.0 %
Test CRC E8E0E3E1
Copy CRC E8E0E3E1
Accurately ripped (confidence 2) [ADB18348] (AR v1)
Copy OK

Track 15

Filename C:\Ripping\The Complete Roulette Recordings of the Maynard Ferguson Orchestra\CD3\15 - Hey There.wav

Pre-gap length 0:00:01.60

Peak level 98.4 %
Extraction speed 2.3 X
Track quality 100.0 %
Test CRC 3E7DC77B
Copy CRC 3E7DC77B
Accurately ripped (confidence 2) [CEB34DDF] (AR v1)
Copy OK


All tracks accurately ripped

No errors occurred

End of status report

–– CUETools DB Plugin V2.1.3

[CTDB TOCID: TTeuqtE.f8TR4EdUF92U9GcMMDM-] disk not present in database, Submit result: TTeuqtE.f8TR4EdUF92U9GcMMDM- has been uploaded


==== Log checksum 1C7273752DD0C0739BBF1B5C66F660E4075DB7791B7E7B49ED1FB7FB4B9F22BF ====

Exact Audio Copy V1.0 beta 3 from 29. August 2011

EAC extraction logfile from 19. April 2013, 16:22

The Maynard Ferguson Orchestra / The Complete Roulette Recordings of the Maynard Ferguson Orchestra

Used drive : MATSHITADVD-RAM UJ-842S Adapter: 2 ID: 0

Read mode : Secure
Utilize accurate stream : Yes
Defeat audio cache : Yes
Make use of C2 pointers : No

Read offset correction : 102
Overread into Lead-In and Lead-Out : No
Fill up missing offset samples with silence : Yes
Delete leading and trailing silent blocks : No
Null samples used in CRC calculations : Yes
Used interface : Native Win32 interface for Win NT & 2000
Gap handling : Appended to previous track

Used output format : User Defined Encoder
Selected bitrate : 1024 kBit/s
Quality : High
Add ID3 tag : No
Command line compressor : C:\Program Files\FLAC\flac.exe
Additional command line options : -8 -V -T "ARTIST=%artist%" -T "TITLE=%title%" -T "ALBUM=%albumtitle%" -T "DATE=%year%" -T "TRACKNUMBER=%tracknr%" -T "GENRE=%genre%" -T "PERFORMER=%albuminterpret%" -T "COMPOSER=%composer%" %haslyrics%–tag-from-file=LYRICS="%lyricsfile%"%haslyrics% -T "ALBUMARTIST=%albumartist%" -T "DISCNUMBER=%cdnumber%" -T "TOTALDISCS=%totalcds%" -T "TOTALTRACKS=%numtracks%" -T "COMMENT=%comment%" %source% -o %dest%


TOC of the extracted CD

Track | Start | Length | Start sector | End sector
––––––––––––––––––––––––––––-
1 | 0:00.00 | 8:41.20 | 0 | 39094
2 | 8:41.20 | 2:56.72 | 39095 | 52366
3 | 11:38.17 | 7:05.08 | 52367 | 84249
4 | 18:43.25 | 7:12.25 | 84250 | 116674
5 | 25:55.50 | 4:28.32 | 116675 | 136806
6 | 30:24.07 | 5:10.73 | 136807 | 160129
7 | 35:35.05 | 3:56.07 | 160130 | 177836
8 | 39:31.12 | 2:55.05 | 177837 | 190966
9 | 42:26.17 | 2:54.20 | 190967 | 204036
10 | 45:20.37 | 4:06.28 | 204037 | 222514


Track 1

Filename D:\Ripping\The Complete Roulette Recordings of the Maynard Ferguson Orchestra\CD4\01 - Newport.wav

Pre-gap length 0:00:02.00

Peak level 100.0 %
Extraction speed 2.7 X
Track quality 100.0 %
Test CRC F24841FF
Copy CRC F24841FF
Accurately ripped (confidence 2) [C1887C16] (AR v1)
Copy OK

Track 2

Filename D:\Ripping\The Complete Roulette Recordings of the Maynard Ferguson Orchestra\CD4\02 - Sometimes I Feel Like a Motherless Child.wav

Pre-gap length 0:00:01.05

Peak level 100.0 %
Extraction speed 2.3 X
Track quality 99.9 %
Test CRC 630AC4FB
Copy CRC 630AC4FB
Accurately ripped (confidence 2) [6FB9C9B0] (AR v1)
Copy OK

Track 3

Filename D:\Ripping\The Complete Roulette Recordings of the Maynard Ferguson Orchestra\CD4\03 - Old Man River.wav

Pre-gap length 0:00:02.45

Peak level 100.0 %
Extraction speed 3.1 X
Track quality 100.0 %
Test CRC 5CA39B0D
Copy CRC 5CA39B0D
Accurately ripped (confidence 2) [EE53AE29] (AR v1)
Copy OK

Track 4

Filename D:\Ripping\The Complete Roulette Recordings of the Maynard Ferguson Orchestra\CD4\04 - Three More Foxes.wav

Pre-gap length 0:00:02.60

Peak level 99.3 %
Extraction speed 3.7 X
Track quality 100.0 %
Test CRC 22A6B88A
Copy CRC 22A6B88A
Accurately ripped (confidence 2) [14C5A050] (AR v1)
Copy OK

Track 5

Filename D:\Ripping\The Complete Roulette Recordings of the Maynard Ferguson Orchestra\CD4\05 - Jazz Bary.wav

Pre-gap length 0:00:02.05

Peak level 99.5 %
Extraction speed 3.7 X
Track quality 100.0 %
Test CRC 0EFE29D3
Copy CRC 0EFE29D3
Accurately ripped (confidence 2) [4AF9D59D] (AR v1)
Copy OK

Track 6

Filename D:\Ripping\The Complete Roulette Recordings of the Maynard Ferguson Orchestra\CD4\06 - Foxy.wav

Pre-gap length 0:00:01.65

Peak level 100.0 %
Extraction speed 4.0 X
Track quality 100.0 %
Test CRC 52F50621
Copy CRC 52F50621
Accurately ripped (confidence 2) [A7686A74] (AR v1)
Copy OK

Track 7

Filename D:\Ripping\The Complete Roulette Recordings of the Maynard Ferguson Orchestra\CD4\07 - Got the Spirit.wav

Pre-gap length 0:00:02.03

Peak level 100.0 %
Extraction speed 4.1 X
Track quality 100.0 %
Test CRC 0584A7EB
Copy CRC 0584A7EB
Accurately ripped (confidence 2) [82F700A1] (AR v1)
Copy OK

Track 8

Filename D:\Ripping\The Complete Roulette Recordings of the Maynard Ferguson Orchestra\CD4\08 - Doin' the Madison, Part 1.wav

Pre-gap length 0:00:02.30

Peak level 100.0 %
Extraction speed 3.9 X
Track quality 100.0 %
Test CRC 197E42B7
Copy CRC 197E42B7
Accurately ripped (confidence 2) [203AB6D6] (AR v1)
Copy OK

Track 9

Filename D:\Ripping\The Complete Roulette Recordings of the Maynard Ferguson Orchestra\CD4\09 - Doin' the Madison, Part 2.wav

Pre-gap length 0:00:02.02

Peak level 100.0 %
Extraction speed 3.4 X
Track quality 99.9 %
Test CRC 3B85DE20
Copy CRC 3B85DE20
Accurately ripped (confidence 2) [3136A97B] (AR v1)
Copy OK

Track 10

Filename D:\Ripping\The Complete Roulette Recordings of the Maynard Ferguson Orchestra\CD4\10 - Mangos.wav

Pre-gap length 0:00:01.37

Peak level 100.0 %
Extraction speed 4.3 X
Track quality 100.0 %
Test CRC 1B309F50
Copy CRC 1B309F50
Accurately ripped (confidence 2) [C1A87C81] (AR v1)
Copy OK


All tracks accurately ripped

No errors occurred

End of status report

–– CUETools DB Plugin V2.1.3

[CTDB TOCID: vArUceVKBD.NZugBx.rJftGbuwQ-] disk not present in database, Submit result: vArUceVKBD.NZugBx.rJftGbuwQ- has been uploaded


==== Log checksum CABF237CC68A819C12A278E624071EFD4D7C253EA469DBD918B39548C71A031C ====

Exact Audio Copy V1.0 beta 3 from 29. August 2011

EAC extraction logfile from 19. April 2013, 16:49

The Maynard Ferguson Orchestra / The Complete Roulette Recordings of the Maynard Ferguson Orchestra

Used drive : MATSHITADVD-RAM UJ-842S Adapter: 2 ID: 0

Read mode : Secure
Utilize accurate stream : Yes
Defeat audio cache : Yes
Make use of C2 pointers : No

Read offset correction : 102
Overread into Lead-In and Lead-Out : No
Fill up missing offset samples with silence : Yes
Delete leading and trailing silent blocks : No
Null samples used in CRC calculations : Yes
Used interface : Native Win32 interface for Win NT & 2000
Gap handling : Appended to previous track

Used output format : User Defined Encoder
Selected bitrate : 1024 kBit/s
Quality : High
Add ID3 tag : No
Command line compressor : C:\Program Files\FLAC\flac.exe
Additional command line options : -8 -V -T "ARTIST=%artist%" -T "TITLE=%title%" -T "ALBUM=%albumtitle%" -T "DATE=%year%" -T "TRACKNUMBER=%tracknr%" -T "GENRE=%genre%" -T "PERFORMER=%albuminterpret%" -T "COMPOSER=%composer%" %haslyrics%–tag-from-file=LYRICS="%lyricsfile%"%haslyrics% -T "ALBUMARTIST=%albumartist%" -T "DISCNUMBER=%cdnumber%" -T "TOTALDISCS=%totalcds%" -T "TOTALTRACKS=%numtracks%" -T "COMMENT=%comment%" %source% -o %dest%


TOC of the extracted CD

Track | Start | Length | Start sector | End sector
––––––––––––––––––––––––––––-
1 | 0:00.00 | 2:56.50 | 0 | 13249
2 | 2:56.50 | 2:56.22 | 13250 | 26471
3 | 5:52.72 | 1:59.18 | 26472 | 35414
4 | 7:52.15 | 2:53.60 | 35415 | 48449
5 | 10:46.00 | 2:46.22 | 48450 | 60921
6 | 13:32.22 | 3:46.60 | 60922 | 77931
7 | 17:19.07 | 3:36.65 | 77932 | 94196
8 | 20:55.72 | 3:10.53 | 94197 | 108499
9 | 24:06.50 | 4:02.62 | 108500 | 126711
10 | 28:09.37 | 2:23.73 | 126712 | 137509
11 | 30:33.35 | 3:32.00 | 137510 | 153409
12 | 34:05.35 | 6:31.25 | 153410 | 182759
13 | 40:36.60 | 7:07.25 | 182760 | 214809
14 | 47:44.10 | 5:43.65 | 214810 | 240599


Track 1

Filename D:\Ripping\The Complete Roulette Recordings of the Maynard Ferguson Orchestra\CD5\01 - Don't Take Your Love From Me.wav

Pre-gap length 0:00:02.00

Peak level 100.0 %
Extraction speed 2.3 X
Track quality 100.0 %
Test CRC 6B339751
Copy CRC 6B339751
Track not present in AccurateRip database
Copy OK

Track 2

Filename D:\Ripping\The Complete Roulette Recordings of the Maynard Ferguson Orchestra\CD5\02 - My Foolish Heart.wav

Pre-gap length 0:00:01.28

Peak level 100.0 %
Extraction speed 2.0 X
Track quality 99.9 %
Test CRC D74EEFE2
Copy CRC D74EEFE2
Track not present in AccurateRip database
Copy OK

Track 3

Filename D:\Ripping\The Complete Roulette Recordings of the Maynard Ferguson Orchestra\CD5\03 - Let's Face the Music and Dance.wav

Pre-gap length 0:00:01.60

Peak level 100.0 %
Extraction speed 2.4 X
Track quality 100.0 %
Test CRC DCCB9221
Copy CRC DCCB9221
Track not present in AccurateRip database
Copy OK

Track 4

Filename D:\Ripping\The Complete Roulette Recordings of the Maynard Ferguson Orchestra\CD5\04 - You Don't Know What Love Is.wav

Pre-gap length 0:00:01.55

Peak level 98.9 %
Extraction speed 2.7 X
Track quality 100.0 %
Test CRC 50CCB384
Copy CRC 50CCB384
Track not present in AccurateRip database
Copy OK

Track 5

Filename D:\Ripping\The Complete Roulette Recordings of the Maynard Ferguson Orchestra\CD5\05 - It's Only a Paper Moon.wav

Pre-gap length 0:00:02.13

Peak level 100.0 %
Extraction speed 2.8 X
Track quality 100.0 %
Test CRC 2893CD8B
Copy CRC 2893CD8B
Track not present in AccurateRip database
Copy OK

Track 6

Filename D:\Ripping\The Complete Roulette Recordings of the Maynard Ferguson Orchestra\CD5\06 - The Party's Over.wav

Pre-gap length 0:00:01.50

Peak level 100.0 %
Extraction speed 3.2 X
Track quality 100.0 %
Test CRC 121E78CC
Copy CRC 121E78CC
Track not present in AccurateRip database
Copy OK

Track 7

Filename D:\Ripping\The Complete Roulette Recordings of the Maynard Ferguson Orchestra\CD5\07 - The Masquerade Is Over.wav

Pre-gap length 0:00:02.00

Peak level 100.0 %
Extraction speed 3.3 X
Track quality 100.0 %
Test CRC 10320337
Copy CRC 10320337
Track not present in AccurateRip database
Copy OK

Track 8

Filename D:\Ripping\The Complete Roulette Recordings of the Maynard Ferguson Orchestra\CD5\08 - Let's Do It.wav

Pre-gap length 0:00:01.60

Peak level 100.0 %
Extraction speed 3.4 X
Track quality 100.0 %
Test CRC FA28ED55
Copy CRC FA28ED55
Track not present in AccurateRip database
Copy OK

Track 9

Filename D:\Ripping\The Complete Roulette Recordings of the Maynard Ferguson Orchestra\CD5\09 - Spring Is Here.wav

Pre-gap length 0:00:01.65

Peak level 100.0 %
Extraction speed 3.6 X
Track quality 100.0 %
Test CRC 215317AB
Copy CRC 215317AB
Track not present in AccurateRip database
Copy OK

Track 10

Filename D:\Ripping\The Complete Roulette Recordings of the Maynard Ferguson Orchestra\CD5\10 - It Could Happen to You.wav

Pre-gap length 0:00:02.20

Peak level 100.0 %
Extraction speed 3.4 X
Track quality 100.0 %
Test CRC 0F6B210B
Copy CRC 0F6B210B
Track not present in AccurateRip database
Copy OK

Track 11

Filename D:\Ripping\The Complete Roulette Recordings of the Maynard Ferguson Orchestra\CD5\11 - Teach Me Tonight.wav

Pre-gap length 0:00:01.73

Peak level 100.0 %
Extraction speed 3.8 X
Track quality 100.0 %
Test CRC 5BAB40DA
Copy CRC 5BAB40DA
Track not present in AccurateRip database
Copy OK

Track 12

Filename D:\Ripping\The Complete Roulette Recordings of the Maynard Ferguson Orchestra\CD5\12 - Ole.wav

Pre-gap length 0:00:02.25

Copy aborted

Track 13

Pre-gap length 0:00:02.45

Copy aborted

Track 14

Pre-gap length 0:00:01.55

Copy aborted


11 track(s) not present in the AccurateRip database
3 track(s) canceled

No tracks could be verified as accurate

There were errors

End of status report

==== Log checksum 554F48F85724BA2ACCCB1CA7C08B326A474336A93969189299E57518605139C3 ====

––––––––––––––––––––––––––––––

Exact Audio Copy V1.0 beta 3 from 29. August 2011

EAC extraction logfile from 21. April 2013, 17:09

The Maynard Ferguson Orchestra / The Complete Roulette Recordings of the Maynard Ferguson Orchestra

Used drive : MATSHITADVD-RAM UJ-842S Adapter: 2 ID: 0

Read mode : Secure
Utilize accurate stream : Yes
Defeat audio cache : Yes
Make use of C2 pointers : No

Read offset correction : 102
Overread into Lead-In and Lead-Out : No
Fill up missing offset samples with silence : Yes
Delete leading and trailing silent blocks : No
Null samples used in CRC calculations : Yes
Used interface : Native Win32 interface for Win NT & 2000
Gap handling : Appended to previous track

Used output format : User Defined Encoder
Selected bitrate : 1024 kBit/s
Quality : High
Add ID3 tag : No
Command line compressor : C:\Program Files\FLAC\flac.exe
Additional command line options : -8 -V -T "ARTIST=%artist%" -T "TITLE=%title%" -T "ALBUM=%albumtitle%" -T "DATE=%year%" -T "TRACKNUMBER=%tracknr%" -T "GENRE=%genre%" -T "PERFORMER=%albuminterpret%" -T "COMPOSER=%composer%" %haslyrics%–tag-from-file=LYRICS="%lyricsfile%"%haslyrics% -T "ALBUMARTIST=%albumartist%" -T "DISCNUMBER=%cdnumber%" -T "TOTALDISCS=%totalcds%" -T "TOTALTRACKS=%numtracks%" -T "COMMENT=%comment%" %source% -o %dest%


TOC of the extracted CD

Track | Start | Length | Start sector | End sector
––––––––––––––––––––––––––––-
1 | 0:00.00 | 2:56.50 | 0 | 13249
2 | 2:56.50 | 2:56.22 | 13250 | 26471
3 | 5:52.72 | 1:59.18 | 26472 | 35414
4 | 7:52.15 | 2:53.60 | 35415 | 48449
5 | 10:46.00 | 2:46.22 | 48450 | 60921
6 | 13:32.22 | 3:46.60 | 60922 | 77931
7 | 17:19.07 | 3:36.65 | 77932 | 94196
8 | 20:55.72 | 3:10.53 | 94197 | 108499
9 | 24:06.50 | 4:02.62 | 108500 | 126711
10 | 28:09.37 | 2:23.73 | 126712 | 137509
11 | 30:33.35 | 3:32.00 | 137510 | 153409
12 | 34:05.35 | 6:31.25 | 153410 | 182759
13 | 40:36.60 | 7:07.25 | 182760 | 214809
14 | 47:44.10 | 5:43.65 | 214810 | 240599


Track 12

Filename D:\Ripping\The Complete Roulette Recordings of the Maynard Ferguson Orchestra\CD5\12 - Ole.wav

Pre-gap length 0:00:02.25

Peak level 95.0 %
Extraction speed 4.3 X
Track quality 100.0 %
Test CRC B3213E55
Copy CRC B3213E55
Track not present in AccurateRip database
Copy OK

Track 13

Filename D:\Ripping\The Complete Roulette Recordings of the Maynard Ferguson Orchestra\CD5\13 - Christmas for Moderns- The First Noel , White Christmas , O Come All Ye Faithful , The Christmas Song , Silent Night , Jingle Bells.wav

Pre-gap length 0:00:02.45

Peak level 100.0 %
Extraction speed 4.6 X
Track quality 100.0 %
Test CRC 0856C8FB
Copy CRC 0856C8FB
Track not present in AccurateRip database
Copy OK

Track 14

Filename D:\Ripping\The Complete Roulette Recordings of the Maynard Ferguson Orchestra\CD5\14 - New Blue.wav

Pre-gap length 0:00:01.55

Peak level 100.0 %
Extraction speed 4.7 X
Track quality 100.0 %
Test CRC 1042146E
Copy CRC 1042146E
Track not present in AccurateRip database
Copy OK


None of the tracks are present in the AccurateRip database

No errors occurred

End of status report

==== Log checksum 87D024E2A3B97E916C1EB171C40DC97BE1A84ACFA1A1B6F78EA1C9EB42232F55 ====

Exact Audio Copy V1.0 beta 3 from 29. August 2011

EAC extraction logfile from 21. April 2013, 17:59

The Maynard Ferguson Orchestra / The Complete Roulette Recordings of the Maynard Ferguson Orchestra

Used drive : hp DVDWBD TS-LB23L Adapter: 3 ID: 0

Read mode : Secure
Utilize accurate stream : Yes
Defeat audio cache : Yes
Make use of C2 pointers : No

Read offset correction : 6
Overread into Lead-In and Lead-Out : No
Fill up missing offset samples with silence : Yes
Delete leading and trailing silent blocks : No
Null samples used in CRC calculations : Yes
Used interface : Native Win32 interface for Win NT & 2000
Gap handling : Appended to previous track

Used output format : User Defined Encoder
Selected bitrate : 1024 kBit/s
Quality : High
Add ID3 tag : No
Command line compressor : C:\Program Files (x86)\FLAC\flac.exe
Additional command line options : -8 -V -T "ARTIST=%artist%" -T "TITLE=%title%" -T "ALBUM=%albumtitle%" -T "DATE=%year%" -T "TRACKNUMBER=%tracknr%" -T "GENRE=%genre%" -T "PERFORMER=%albuminterpret%" -T "COMPOSER=%composer%" %haslyrics%–tag-from-file=LYRICS="%lyricsfile%"%haslyrics% -T "ALBUMARTIST=%albumartist%" -T "DISCNUMBER=%cdnumber%" -T "TOTALDISCS=%totalcds%" -T "TOTALTRACKS=%numtracks%" -T "COMMENT=%comment%" %source% -o %dest%


TOC of the extracted CD

Track | Start | Length | Start sector | End sector
––––––––––––––––––––––––––––-
1 | 0:00.00 | 7:44.70 | 0 | 34869
2 | 7:44.70 | 6:18.00 | 34870 | 63219
3 | 14:02.70 | 4:34.02 | 63220 | 83771
4 | 18:36.72 | 2:51.53 | 83772 | 96649
5 | 21:28.50 | 5:13.10 | 96650 | 120134
6 | 26:41.60 | 3:03.07 | 120135 | 133866
7 | 29:44.67 | 4:49.65 | 133867 | 155606
8 | 34:34.57 | 2:22.65 | 155607 | 166321
9 | 36:57.47 | 5:59.03 | 166322 | 193249
10 | 42:56.50 | 2:25.67 | 193250 | 204191
11 | 45:22.42 | 5:12.60 | 204192 | 227651
12 | 50:35.27 | 4:21.38 | 227652 | 247264


Track 1

Filename C:\Ripping\The Complete Roulette Recordings of the Maynard Ferguson Orchestra\CD6\01 - The Pharaoh.wav

Pre-gap length 0:00:02.00

Peak level 100.0 %
Extraction speed 1.6 X
Track quality 100.0 %
Test CRC 9A40D125
Copy CRC 9A40D125
Accurately ripped (confidence 2) [71F3B974] (AR v1)
Copy OK

Track 2

Filename C:\Ripping\The Complete Roulette Recordings of the Maynard Ferguson Orchestra\CD6\02 - Ultimate Rejection.wav

Pre-gap length 0:00:02.10

Peak level 95.8 %
Extraction speed 1.6 X
Track quality 100.0 %
Test CRC 92C2575C
Copy CRC 92C2575C
Accurately ripped (confidence 2) [D61BC00D] (AR v1)
Copy OK

Track 3

Filename C:\Ripping\The Complete Roulette Recordings of the Maynard Ferguson Orchestra\CD6\03 - Go East, Young Man.wav

Pre-gap length 0:00:01.45

Peak level 100.0 %
Extraction speed 2.0 X
Track quality 100.0 %
Test CRC C003998D
Copy CRC C003998D
Accurately ripped (confidence 2) [798B645E] (AR v1)
Copy OK

Track 4

Filename C:\Ripping\The Complete Roulette Recordings of the Maynard Ferguson Orchestra\CD6\04 - Saturday Night.wav

Pre-gap length 0:00:01.30

Peak level 100.0 %
Extraction speed 1.9 X
Track quality 100.0 %
Test CRC B367B253
Copy CRC B367B253
Accurately ripped (confidence 2) [40D8F910] (AR v1)
Copy OK

Track 5

Filename C:\Ripping\The Complete Roulette Recordings of the Maynard Ferguson Orchestra\CD6\05 - Blues for Kapp.wav

Pre-gap length 0:00:01.60

Peak level 100.0 %
Extraction speed 2.3 X
Track quality 100.0 %
Test CRC 14EA4B02
Copy CRC 14EA4B02
Accurately ripped (confidence 2) [D170DF5E] (AR v1)
Copy OK

Track 6

Filename C:\Ripping\The Complete Roulette Recordings of the Maynard Ferguson Orchestra\CD6\06 - This Is My Lucky Day.wav

Pre-gap length 0:00:02.20

Peak level 100.0 %
Extraction speed 2.4 X
Track quality 100.0 %
Test CRC 9216EF25
Copy CRC 9216EF25
Accurately ripped (confidence 2) [AFD1D408] (AR v1)
Copy OK

Track 7

Filename C:\Ripping\The Complete Roulette Recordings of the Maynard Ferguson Orchestra\CD6\07 - Goodbye.wav

Pre-gap length 0:00:02.12

Peak level 100.0 %
Extraction speed 2.2 X
Track quality 100.0 %
Test CRC BE097D85
Copy CRC BE097D85
Accurately ripped (confidence 2) [22E8CC03] (AR v1)
Copy OK

Track 8

Filename C:\Ripping\The Complete Roulette Recordings of the Maynard Ferguson Orchestra\CD6\08 - Straight Away.wav

Pre-gap length 0:00:01.57

Peak level 97.4 %
Extraction speed 2.8 X
Track quality 100.0 %
Test CRC 63300A98
Copy CRC 63300A98
Accurately ripped (confidence 2) [25D65770] (AR v1)
Copy OK

Track 9

Filename C:\Ripping\The Complete Roulette Recordings of the Maynard Ferguson Orchestra\CD6\09 - Stroking.wav

Pre-gap length 0:00:02.15

Peak level 100.0 %
Extraction speed 2.7 X
Track quality 100.0 %
Test CRC 3EE9B0B7
Copy CRC 3EE9B0B7
Accurately ripped (confidence 2) [355A4311] (AR v1)
Copy OK

Track 10

Filename C:\Ripping\The Complete Roulette Recordings of the Maynard Ferguson Orchestra\CD6\10 - Melancholia.wav

Pre-gap length 0:00:01.63

Peak level 88.4 %
Extraction speed 2.4 X
Track quality 100.0 %
Test CRC 84349B61
Copy CRC 84349B61
Accurately ripped (confidence 2) [E0DF5E62] (AR v1)
Copy OK

Track 11

Filename C:\Ripping\The Complete Roulette Recordings of the Maynard Ferguson Orchestra\CD6\11 - Mambo le mans.wav

Pre-gap length 0:00:02.15

Peak level 100.0 %
Extraction speed 2.8 X
Track quality 100.0 %
Test CRC 1E1788A8
Copy CRC 1E1788A8
Accurately ripped (confidence 2) [95DD816F] (AR v1)
Copy OK

Track 12

Filename C:\Ripping\The Complete Roulette Recordings of the Maynard Ferguson Orchestra\CD6\12 - 'Round About the Blues.wav

Pre-gap length 0:00:02.17

Peak level 100.0 %
Extraction speed 2.9 X
Track quality 100.0 %
Test CRC 475C3D27
Copy CRC 475C3D27
Track not present in AccurateRip database
Copy OK


11 track(s) accurately ripped
1 track(s) not present in the AccurateRip database

Some tracks could not be verified as accurate

No errors occurred

End of status report

–– CUETools DB Plugin V2.1.3

[CTDB TOCID: kY0n0Ai2yPkUvX41OWB8UAvOlGA-] disk not present in database, Submit result: kY0n0Ai2yPkUvX41OWB8UAvOlGA- has been uploaded


==== Log checksum 91CBC16376293795CACBD9F38E4E389400952B59AD95E4F41695A57AD5AF1803 ====

Exact Audio Copy V1.0 beta 3 from 29. August 2011

EAC extraction logfile from 21. April 2013, 17:48

The Maynard Ferguson Orchestra / The Complete Roulette Recordings of the Maynard Ferguson Orchestra

Used drive : MATSHITADVD-RAM UJ-842S Adapter: 2 ID: 0

Read mode : Secure
Utilize accurate stream : Yes
Defeat audio cache : Yes
Make use of C2 pointers : No

Read offset correction : 102
Overread into Lead-In and Lead-Out : No
Fill up missing offset samples with silence : Yes
Delete leading and trailing silent blocks : No
Null samples used in CRC calculations : Yes
Used interface : Native Win32 interface for Win NT & 2000
Gap handling : Appended to previous track

Used output format : User Defined Encoder
Selected bitrate : 1024 kBit/s
Quality : High
Add ID3 tag : No
Command line compressor : C:\Program Files\FLAC\flac.exe
Additional command line options : -8 -V -T "ARTIST=%artist%" -T "TITLE=%title%" -T "ALBUM=%albumtitle%" -T "DATE=%year%" -T "TRACKNUMBER=%tracknr%" -T "GENRE=%genre%" -T "PERFORMER=%albuminterpret%" -T "COMPOSER=%composer%" %haslyrics%–tag-from-file=LYRICS="%lyricsfile%"%haslyrics% -T "ALBUMARTIST=%albumartist%" -T "DISCNUMBER=%cdnumber%" -T "TOTALDISCS=%totalcds%" -T "TOTALTRACKS=%numtracks%" -T "COMMENT=%comment%" %source% -o %dest%


TOC of the extracted CD

Track | Start | Length | Start sector | End sector
––––––––––––––––––––––––––––-
1 | 0:00.00 | 4:16.10 | 0 | 19209
2 | 4:16.10 | 3:44.35 | 19210 | 36044
3 | 8:00.45 | 2:45.57 | 36045 | 48476
4 | 10:46.27 | 3:53.05 | 48477 | 65956
5 | 14:39.32 | 2:03.53 | 65957 | 75234
6 | 16:43.10 | 2:08.07 | 75235 | 84841
7 | 18:51.17 | 4:21.43 | 84842 | 104459
8 | 23:12.60 | 2:56.55 | 104460 | 117714
9 | 26:09.40 | 2:31.42 | 117715 | 129081
10 | 28:41.07 | 3:35.18 | 129082 | 145224
11 | 32:16.25 | 3:06.22 | 145225 | 159196
12 | 35:22.47 | 3:19.73 | 159197 | 174194
13 | 38:42.45 | 5:52.17 | 174195 | 200611
14 | 44:34.62 | 5:49.70 | 200612 | 226856
15 | 50:24.57 | 2:27.53 | 226857 | 237934
16 | 52:52.35 | 2:15.12 | 237935 | 248071


Track 1

Filename D:\Ripping\The Complete Roulette Recordings of the Maynard Ferguson Orchestra\CD7\01 - Apprehensions.wav

Pre-gap length 0:00:02.00

Peak level 100.0 %
Extraction speed 2.4 X
Track quality 100.0 %
Test CRC 50882B5B
Copy CRC 50882B5B
Accurately ripped (confidence 2) [54828F35] (AR v1)
Copy OK

Track 2

Filename D:\Ripping\The Complete Roulette Recordings of the Maynard Ferguson Orchestra\CD7\02 - Cocky Scott.wav

Pre-gap length 0:00:01.58

Peak level 96.6 %
Extraction speed 2.6 X
Track quality 100.0 %
Test CRC 1B3FE310
Copy CRC 1B3FE310
Accurately ripped (confidence 2) [E383390E] (AR v1)
Copy OK

Track 3

Filename D:\Ripping\The Complete Roulette Recordings of the Maynard Ferguson Orchestra\CD7\03 - Up Shift.wav

Pre-gap length 0:00:01.68

Peak level 100.0 %
Extraction speed 2.7 X
Track quality 100.0 %
Test CRC 320233A4
Copy CRC 320233A4
Accurately ripped (confidence 2) [F7E7348A] (AR v1)
Copy OK

Track 4

Filename D:\Ripping\The Complete Roulette Recordings of the Maynard Ferguson Orchestra\CD7\04 - Last Lap.wav

Pre-gap length 0:00:01.02

Peak level 100.0 %
Extraction speed 2.6 X
Track quality 99.9 %
Test CRC DA8CF76A
Copy CRC DA8CF76A
Accurately ripped (confidence 2) [E89B510B] (AR v1)
Copy OK

Track 5

Filename D:\Ripping\The Complete Roulette Recordings of the Maynard Ferguson Orchestra\CD7\05 - Pit Stop.wav

Pre-gap length 0:00:02.10

Peak level 95.0 %
Extraction speed 2.8 X
Track quality 100.0 %
Test CRC 3E070A78
Copy CRC 3E070A78
Accurately ripped (confidence 2) [BDE592CB] (AR v1)
Copy OK

Track 6

Filename D:\Ripping\The Complete Roulette Recordings of the Maynard Ferguson Orchestra\CD7\06 - After the Race.wav

Pre-gap length 0:00:01.53

Peak level 84.5 %
Extraction speed 2.9 X
Track quality 100.0 %
Test CRC 911BB76C
Copy CRC 911BB76C
Accurately ripped (confidence 2) [2D167918] (AR v1)
Copy OK

Track 7

Filename D:\Ripping\The Complete Roulette Recordings of the Maynard Ferguson Orchestra\CD7\07 - Lazy Afternoon.wav

Pre-gap length 0:00:01.47

Peak level 93.6 %
Extraction speed 3.1 X
Track quality 99.9 %
Test CRC 6BA9F2EE
Copy CRC 6BA9F2EE
Accurately ripped (confidence 2) [D5545478] (AR v1)
Copy OK

Track 8

Filename D:\Ripping\The Complete Roulette Recordings of the Maynard Ferguson Orchestra\CD7\08 - Ain't Life Grand.wav

Pre-gap length 0:00:01.33

Peak level 100.0 %
Extraction speed 3.4 X
Track quality 100.0 %
Test CRC C0C5BDD6
Copy CRC C0C5BDD6
Accurately ripped (confidence 2) [4FABFF18] (AR v1)
Copy OK

Track 9

Filename D:\Ripping\The Complete Roulette Recordings of the Maynard Ferguson Orchestra\CD7\09 - Have You Met Miss Jones.wav

Pre-gap length 0:00:02.13

Peak level 100.0 %
Extraction speed 3.4 X
Track quality 100.0 %
Test CRC 8A3AF037
Copy CRC 8A3AF037
Accurately ripped (confidence 2) [829E0142] (AR v1)
Copy OK

Track 10

Filename D:\Ripping\The Complete Roulette Recordings of the Maynard Ferguson Orchestra\CD7\10 - Four.wav

Pre-gap length 0:00:01.45

Peak level 95.0 %
Extraction speed 3.8 X
Track quality 100.0 %
Test CRC F78F86D2
Copy CRC F78F86D2
Accurately ripped (confidence 2) [2072ECF5] (AR v1)
Copy OK

Track 11

Filename D:\Ripping\The Complete Roulette Recordings of the Maynard Ferguson Orchestra\CD7\11 - Maria.wav

Pre-gap length 0:00:01.70

Peak level 100.0 %
Extraction speed 3.8 X
Track quality 100.0 %
Test CRC 9AA6B5CD
Copy CRC 9AA6B5CD
Accurately ripped (confidence 2) [C41F0B6A] (AR v1)
Copy OK

Track 12

Filename D:\Ripping\The Complete Roulette Recordings of the Maynard Ferguson Orchestra\CD7\12 - ''X'' Stream.wav

Pre-gap length 0:00:01.40

Peak level 100.0 %
Extraction speed 3.9 X
Track quality 100.0 %
Test CRC 78C25999
Copy CRC 78C25999
Accurately ripped (confidence 2) [55AE6D7B] (AR v1)
Copy OK

Track 13

Filename D:\Ripping\The Complete Roulette Recordings of the Maynard Ferguson Orchestra\CD7\13 - Go East, Young Man.wav

Pre-gap length 0:00:02.00

Peak level 100.0 %
Extraction speed 4.0 X
Track quality 99.9 %
Test CRC EB23E51A
Copy CRC EB23E51A
Accurately ripped (confidence 2) [24C81A2F] (AR v1)
Copy OK

Track 14

Filename D:\Ripping\The Complete Roulette Recordings of the Maynard Ferguson Orchestra\CD7\14 - Pretty Little Nieda.wav

Pre-gap length 0:00:01.62

Peak level 100.0 %
Extraction speed 4.1 X
Track quality 99.9 %
Test CRC 7AC97CA2
Copy CRC 7AC97CA2
Accurately ripped (confidence 2) [B5AB3956] (AR v1)
Copy OK

Track 15

Filename D:\Ripping\The Complete Roulette Recordings of the Maynard Ferguson Orchestra\CD7\15 - This Is My Lucky Day.wav

Pre-gap length 0:00:02.22

Peak level 100.0 %
Extraction speed 3.4 X
Track quality 99.9 %
Test CRC 056454E1
Copy CRC 056454E1
Accurately ripped (confidence 2) [5D183026] (AR v1)
Copy OK

Track 16

Filename D:\Ripping\The Complete Roulette Recordings of the Maynard Ferguson Orchestra\CD7\16 - Hip Twist.wav

Pre-gap length 0:00:01.38

Peak level 100.0 %
Extraction speed 4.1 X
Track quality 100.0 %
Test CRC CD0B55D7
Copy CRC CD0B55D7
Accurately ripped (confidence 2) [7AE7B7FC] (AR v1)
Copy OK


All tracks accurately ripped

No errors occurred

End of status report

–– CUETools DB Plugin V2.1.3

[CTDB TOCID: U9YhCaV77cIZ.BoYDXHLNn.awOg-] disk not present in database, Submit result: U9YhCaV77cIZ.BoYDXHLNn.awOg- has been uploaded


==== Log checksum 3EFB7274847E63BEC51746D8811BD12FF235D83C91D4027E0EC572B183D45908 ====

Exact Audio Copy V1.0 beta 3 from 29. August 2011

EAC extraction logfile from 21. April 2013, 18:31

The Maynard Ferguson Orchestra / The Complete Roulette Recordings of the Maynard Ferguson Orchestra

Used drive : MATSHITADVD-RAM UJ-842S Adapter: 2 ID: 0

Read mode : Secure
Utilize accurate stream : Yes
Defeat audio cache : Yes
Make use of C2 pointers : No

Read offset correction : 102
Overread into Lead-In and Lead-Out : No
Fill up missing offset samples with silence : Yes
Delete leading and trailing silent blocks : No
Null samples used in CRC calculations : Yes
Used interface : Native Win32 interface for Win NT & 2000
Gap handling : Appended to previous track

Used output format : User Defined Encoder
Selected bitrate : 1024 kBit/s
Quality : High
Add ID3 tag : No
Command line compressor : C:\Program Files\FLAC\flac.exe
Additional command line options : -8 -V -T "ARTIST=%artist%" -T "TITLE=%title%" -T "ALBUM=%albumtitle%" -T "DATE=%year%" -T "TRACKNUMBER=%tracknr%" -T "GENRE=%genre%" -T "PERFORMER=%albuminterpret%" -T "COMPOSER=%composer%" %haslyrics%–tag-from-file=LYRICS="%lyricsfile%"%haslyrics% -T "ALBUMARTIST=%albumartist%" -T "DISCNUMBER=%cdnumber%" -T "TOTALDISCS=%totalcds%" -T "TOTALTRACKS=%numtracks%" -T "COMMENT=%comment%" %source% -o %dest%


TOC of the extracted CD

Track | Start | Length | Start sector | End sector
––––––––––––––––––––––––––––-
1 | 0:00.00 | 2:03.62 | 0 | 9286
2 | 2:03.62 | 3:38.03 | 9287 | 25639
3 | 5:41.65 | 4:58.55 | 25640 | 48044
4 | 10:40.45 | 2:55.17 | 48045 | 61186
5 | 13:35.62 | 3:36.13 | 61187 | 77399
6 | 17:12.00 | 6:15.47 | 77400 | 105571
7 | 23:27.47 | 5:19.28 | 105572 | 129524
8 | 28:47.00 | 4:24.10 | 129525 | 149334
9 | 33:11.10 | 2:42.70 | 149335 | 161554
10 | 35:54.05 | 3:57.17 | 161555 | 179346
11 | 39:51.22 | 5:22.68 | 179347 | 203564
12 | 45:14.15 | 4:02.67 | 203565 | 221781
13 | 49:17.07 | 3:10.63 | 221782 | 236094
14 | 52:27.70 | 4:05.27 | 236095 | 254496
15 | 56:33.22 | 2:51.33 | 254497 | 267354
16 | 59:24.55 | 2:33.62 | 267355 | 278891
17 | 61:58.42 | 2:39.25 | 278892 | 290841


Track 1

Filename D:\Ripping\The Complete Roulette Recordings of the Maynard Ferguson Orchestra\CD8\01 - Almost Like Being in Love.wav

Pre-gap length 0:00:02.00

Peak level 100.0 %
Extraction speed 1.8 X
Track quality 99.9 %
Test CRC 0C325AAC
Copy CRC 0C325AAC
Accurately ripped (confidence 2) [B9EAE1FC] (AR v1)
Copy OK

Track 2

Filename D:\Ripping\The Complete Roulette Recordings of the Maynard Ferguson Orchestra\CD8\02 - Born to Be Blue.wav

Pre-gap length 0:00:01.57

Peak level 100.0 %
Extraction speed 2.6 X
Track quality 100.0 %
Test CRC 30F1B3D5
Copy CRC 30F1B3D5
Accurately ripped (confidence 2) [3E94B512] (AR v1)
Copy OK

Track 3

Filename D:\Ripping\The Complete Roulette Recordings of the Maynard Ferguson Orchestra\CD8\03 - A Soulful Moment.wav

Pre-gap length 0:00:02.10

Peak level 100.0 %
Extraction speed 3.0 X
Track quality 100.0 %
Test CRC AED3C039
Copy CRC AED3C039
Accurately ripped (confidence 2) [610B46E4] (AR v1)
Copy OK

Track 4

Filename D:\Ripping\The Complete Roulette Recordings of the Maynard Ferguson Orchestra\CD8\04 - My Sweetie Went Away, She Didn't Say Where, When or Why.wav

Pre-gap length 0:00:01.45

Peak level 100.0 %
Extraction speed 2.9 X
Track quality 100.0 %
Test CRC 7061C131
Copy CRC 7061C131
Accurately ripped (confidence 2) [DF7219B1] (AR v1)
Copy OK

Track 5

Filename D:\Ripping\The Complete Roulette Recordings of the Maynard Ferguson Orchestra\CD8\05 - Straight Out.wav

Pre-gap length 0:00:01.62

Peak level 100.0 %
Extraction speed 3.3 X
Track quality 100.0 %
Test CRC 8E378D2B
Copy CRC 8E378D2B
Accurately ripped (confidence 2) [763D96C5] (AR v1)
Copy OK

Track 6

Filename D:\Ripping\The Complete Roulette Recordings of the Maynard Ferguson Orchestra\CD8\06 - Si! Si! M.F..wav

Pre-gap length 0:00:02.05

Peak level 100.0 %
Extraction speed 3.7 X
Track quality 100.0 %
Test CRC CC584ED9
Copy CRC CC584ED9
Accurately ripped (confidence 2) [830A4E2E] (AR v1)
Copy OK

Track 7

Filename D:\Ripping\The Complete Roulette Recordings of the Maynard Ferguson Orchestra\CD8\07 - Mimi.wav

Pre-gap length 0:00:01.42

Peak level 100.0 %
Extraction speed 3.5 X
Track quality 99.9 %
Test CRC 981A52C4
Copy CRC 981A52C4
Accurately ripped (confidence 2) [C9EDEE1F] (AR v1)
Copy OK

Track 8

Filename D:\Ripping\The Complete Roulette Recordings of the Maynard Ferguson Orchestra\CD8\08 - Morgan's Organ.wav

Pre-gap length 0:00:01.43

Peak level 100.0 %
Extraction speed 4.1 X
Track quality 100.0 %
Test CRC F8BB6ECF
Copy CRC F8BB6ECF
Accurately ripped (confidence 2) [E36D875B] (AR v1)
Copy OK

Track 9

Filename D:\Ripping\The Complete Roulette Recordings of the Maynard Ferguson Orchestra\CD8\09 - What'll I Do.wav

Pre-gap length 0:00:01.70

Peak level 100.0 %
Extraction speed 3.8 X
Track quality 100.0 %
Test CRC 892D812D
Copy CRC 892D812D
Accurately ripped (confidence 2) [2CCD309E] (AR v1)
Copy OK

Track 10

Filename D:\Ripping\The Complete Roulette Recordings of the Maynard Ferguson Orchestra\CD8\10 - Early Hours.wav

Pre-gap length 0:00:01.63

Peak level 100.0 %
Extraction speed 4.3 X
Track quality 100.0 %
Test CRC D88CBA46
Copy CRC D88CBA46
Accurately ripped (confidence 2) [41B5E24E] (AR v1)
Copy OK

Track 11

Filename D:\Ripping\The Complete Roulette Recordings of the Maynard Ferguson Orchestra\CD8\11 - Great Guns.wav

Pre-gap length 0:00:02.17

Peak level 100.0 %
Extraction speed 4.6 X
Track quality 100.0 %
Test CRC EBED9013
Copy CRC EBED9013
Accurately ripped (confidence 2) [5DBD3C3F] (AR v1)
Copy OK

Track 12

Filename D:\Ripping\The Complete Roulette Recordings of the Maynard Ferguson Orchestra\CD8\12 - Easy Chair.wav

Pre-gap length 0:00:02.05

Peak level 100.0 %
Extraction speed 4.6 X
Track quality 100.0 %
Test CRC 535375CE
Copy CRC 535375CE
Track not present in AccurateRip database
Copy OK

Track 13

Filename D:\Ripping\The Complete Roulette Recordings of the Maynard Ferguson Orchestra\CD8\13 - New Bag Blues.wav

Pre-gap length 0:00:02.10

Peak level 100.0 %
Extraction speed 4.5 X
Track quality 100.0 %
Test CRC 5367BBDF
Copy CRC 5367BBDF
Track not present in AccurateRip database
Copy OK

Track 14

Filename D:\Ripping\The Complete Roulette Recordings of the Maynard Ferguson Orchestra\CD8\14 - September Moan.wav

Pre-gap length 0:00:01.50

Peak level 98.4 %
Extraction speed 4.2 X
Track quality 99.9 %
Test CRC AC9726C1
Copy CRC AC9726C1
Track not present in AccurateRip database
Copy OK

Track 15

Filename D:\Ripping\The Complete Roulette Recordings of the Maynard Ferguson Orchestra\CD8\15 - Sin Blues.wav

Pre-gap length 0:00:01.70

Peak level 100.0 %
Extraction speed 4.7 X
Track quality 100.0 %
Test CRC 02B87213
Copy CRC 02B87213
Track not present in AccurateRip database
Copy OK

Track 16

Filename D:\Ripping\The Complete Roulette Recordings of the Maynard Ferguson Orchestra\CD8\16 - Hate Notes.wav

Pre-gap length 0:00:01.45

Peak level 100.0 %
Extraction speed 4.4 X
Track quality 100.0 %
Test CRC 99F5D964
Copy CRC 99F5D964
Track not present in AccurateRip database
Copy OK

Track 17

Filename D:\Ripping\The Complete Roulette Recordings of the Maynard Ferguson Orchestra\CD8\17 - Overcoat Stomp.wav

Pre-gap length 0:00:01.60

Peak level 100.0 %
Extraction speed 4.7 X
Track quality 100.0 %
Test CRC FF2E214C
Copy CRC FF2E214C
Track not present in AccurateRip database
Copy OK


11 track(s) accurately ripped
6 track(s) not present in the AccurateRip database

Some tracks could not be verified as accurate

No errors occurred

End of status report

–– CUETools DB Plugin V2.1.3

[CTDB TOCID: jOeLEj9AMIlzQplmDtXXKmt9Yl4-] disk not present in database, Submit result: jOeLEj9AMIlzQplmDtXXKmt9Yl4- has been uploaded


==== Log checksum 6954549A1AA88B602C7EE9B8A13C56FCFAED79E53FB688565E8D7F155A5A1861 ====

Exact Audio Copy V1.0 beta 3 from 29. August 2011

EAC extraction logfile from 21. April 2013, 19:06

The Maynard Ferguson Orchestra / The Complete Roulette Recordings of the Maynard Ferguson Orchestra

Used drive : hp DVDWBD TS-LB23L Adapter: 3 ID: 0

Read mode : Secure
Utilize accurate stream : Yes
Defeat audio cache : Yes
Make use of C2 pointers : No

Read offset correction : 6
Overread into Lead-In and Lead-Out : No
Fill up missing offset samples with silence : Yes
Delete leading and trailing silent blocks : No
Null samples used in CRC calculations : Yes
Used interface : Native Win32 interface for Win NT & 2000
Gap handling : Appended to previous track

Used output format : User Defined Encoder
Selected bitrate : 1024 kBit/s
Quality : High
Add ID3 tag : No
Command line compressor : C:\Program Files (x86)\FLAC\flac.exe
Additional command line options : -8 -V -T "ARTIST=%artist%" -T "TITLE=%title%" -T "ALBUM=%albumtitle%" -T "DATE=%year%" -T "TRACKNUMBER=%tracknr%" -T "GENRE=%genre%" -T "PERFORMER=%albuminterpret%" -T "COMPOSER=%composer%" %haslyrics%–tag-from-file=LYRICS="%lyricsfile%"%haslyrics% -T "ALBUMARTIST=%albumartist%" -T "DISCNUMBER=%cdnumber%" -T "TOTALDISCS=%totalcds%" -T "TOTALTRACKS=%numtracks%" -T "COMMENT=%comment%" %source% -o %dest%


TOC of the extracted CD

Track | Start | Length | Start sector | End sector
––––––––––––––––––––––––––––-
1 | 0:00.00 | 2:48.27 | 0 | 12626
2 | 2:48.27 | 3:08.05 | 12627 | 26731
3 | 5:56.32 | 2:48.53 | 26732 | 39384
4 | 8:45.10 | 3:09.07 | 39385 | 53566
5 | 11:54.17 | 3:46.35 | 53567 | 70551
6 | 15:40.52 | 2:56.30 | 70552 | 83781
7 | 18:37.07 | 2:47.53 | 83782 | 96359
8 | 21:24.60 | 2:24.62 | 96360 | 107221
9 | 23:49.47 | 4:41.00 | 107222 | 128296
10 | 28:30.47 | 3:02.18 | 128297 | 141964
11 | 31:32.65 | 3:17.32 | 141965 | 156771
12 | 34:50.22 | 4:37.23 | 156772 | 177569
13 | 39:27.45 | 3:32.52 | 177570 | 193521
14 | 43:00.22 | 2:53.55 | 193522 | 206551
15 | 45:54.02 | 3:16.55 | 206552 | 221306
16 | 49:10.57 | 2:56.50 | 221307 | 234556
17 | 52:07.32 | 2:23.68 | 234557 | 245349
18 | 54:31.25 | 6:13.25 | 245350 | 273349


Track 1

Filename C:\Ripping\The Complete Roulette Recordings of the Maynard Ferguson Orchestra\CD9\01 - Nude Mood.wav

Pre-gap length 0:00:02.00

Peak level 96.2 %
Extraction speed 1.3 X
Track quality 100.0 %
Test CRC A3492B6E
Copy CRC A3492B6E
Accurately ripped (confidence 2) [81941F82] (AR v1)
Copy OK

Track 2

Filename C:\Ripping\The Complete Roulette Recordings of the Maynard Ferguson Orchestra\CD9\02 - In Retrospect.wav

Pre-gap length 0:00:01.10

Peak level 100.0 %
Extraction speed 1.6 X
Track quality 100.0 %
Test CRC DF9A28CD
Copy CRC DF9A28CD
Accurately ripped (confidence 2) [46A147F2] (AR v1)
Copy OK

Track 3

Filename C:\Ripping\The Complete Roulette Recordings of the Maynard Ferguson Orchestra\CD9\03 - For the Cats.wav

Pre-gap length 0:00:01.55

Peak level 100.0 %
Extraction speed 1.5 X
Track quality 100.0 %
Test CRC E5E29116
Copy CRC E5E29116
Accurately ripped (confidence 2) [8147B13F] (AR v1)
Copy OK

Track 4

Filename C:\Ripping\The Complete Roulette Recordings of the Maynard Ferguson Orchestra\CD9\04 - L & M.wav

Pre-gap length 0:00:02.03

Peak level 100.0 %
Extraction speed 1.4 X
Track quality 100.0 %
Test CRC 01B9FE4E
Copy CRC 01B9FE4E
Accurately ripped (confidence 2) [6784F396] (AR v1)
Copy OK

Track 5

Filename C:\Ripping\The Complete Roulette Recordings of the Maynard Ferguson Orchestra\CD9\05 - Lament for Susan.wav

Pre-gap length 0:00:00.50

Peak level 100.0 %
Extraction speed 1.7 X
Track quality 100.0 %
Test CRC 05518C5D
Copy CRC 05518C5D
Accurately ripped (confidence 2) [A79E21E4] (AR v1)
Copy OK

Track 6

Filename C:\Ripping\The Complete Roulette Recordings of the Maynard Ferguson Orchestra\CD9\06 - Antibes.wav

Pre-gap length 0:00:01.70

Peak level 100.0 %
Extraction speed 1.7 X
Track quality 100.0 %
Test CRC DBBDF4E5
Copy CRC DBBDF4E5
Accurately ripped (confidence 2) [48188B1C] (AR v1)
Copy OK

Track 7

Filename C:\Ripping\The Complete Roulette Recordings of the Maynard Ferguson Orchestra\CD9\07 - One for Otis.wav

Pre-gap length 0:00:01.35

Peak level 85.3 %
Extraction speed 1.9 X
Track quality 100.0 %
Test CRC A423605B
Copy CRC A423605B
Accurately ripped (confidence 2) [3D2F7891] (AR v1)
Copy OK

Track 8

Filename C:\Ripping\The Complete Roulette Recordings of the Maynard Ferguson Orchestra\CD9\08 - Animated Suspension.wav

Pre-gap length 0:00:01.50

Peak level 100.0 %
Extraction speed 2.1 X
Track quality 100.0 %
Test CRC 9C23F343
Copy CRC 9C23F343
Accurately ripped (confidence 2) [0BD2F349] (AR v1)
Copy OK

Track 9

Filename C:\Ripping\The Complete Roulette Recordings of the Maynard Ferguson Orchestra\CD9\09 - Knarf.wav

Pre-gap length 0:00:01.70

Peak level 100.0 %
Extraction speed 2.3 X
Track quality 100.0 %
Test CRC 3DE5F364
Copy CRC 3DE5F364
Accurately ripped (confidence 2) [1A5931BF] (AR v1)
Copy OK

Track 10

Filename C:\Ripping\The Complete Roulette Recordings of the Maynard Ferguson Orchestra\CD9\10 - Head Hunter.wav

Pre-gap length 0:00:01.37

Peak level 96.4 %
Extraction speed 1.7 X
Track quality 99.9 %
Test CRC 74399055
Copy CRC 74399055
Accurately ripped (confidence 2) [B072AFF6] (AR v1)
Copy OK

Track 11

Filename C:\Ripping\The Complete Roulette Recordings of the Maynard Ferguson Orchestra\CD9\11 - Fox Hunt.wav

Pre-gap length 0:00:01.48

Peak level 100.0 %
Extraction speed 2.1 X
Track quality 100.0 %
Test CRC 7A7636A0
Copy CRC 7A7636A0
Accurately ripped (confidence 2) [5FD3B9D7] (AR v1)
Copy OK

Track 12

Filename C:\Ripping\The Complete Roulette Recordings of the Maynard Ferguson Orchestra\CD9\12 - Let's Try.wav

Pre-gap length 0:00:02.02

Peak level 100.0 %
Extraction speed 2.4 X
Track quality 100.0 %
Test CRC 8C497D87
Copy CRC 8C497D87
Accurately ripped (confidence 2) [79C55774] (AR v1)
Copy OK

Track 13

Filename C:\Ripping\The Complete Roulette Recordings of the Maynard Ferguson Orchestra\CD9\13 - Guess Again.wav

Pre-gap length 0:00:00.68

Peak level 100.0 %
Extraction speed 2.5 X
Track quality 100.0 %
Test CRC 64FE5F1D
Copy CRC 64FE5F1D
Accurately ripped (confidence 2) [D433D1AC] (AR v1)
Copy OK

Track 14

Filename C:\Ripping\The Complete Roulette Recordings of the Maynard Ferguson Orchestra\CD9\14 - Reflection.wav

Pre-gap length 0:00:01.20

Peak level 100.0 %
Extraction speed 2.2 X
Track quality 100.0 %
Test CRC D6EF6C45
Copy CRC D6EF6C45
Accurately ripped (confidence 2) [6E6C5E7B] (AR v1)
Copy OK

Track 15

Filename C:\Ripping\The Complete Roulette Recordings of the Maynard Ferguson Orchestra\CD9\15 - Spookin'.wav

Pre-gap length 0:00:01.70

Peak level 96.1 %
Extraction speed 2.5 X
Track quality 100.0 %
Test CRC 79722F22
Copy CRC 79722F22
Accurately ripped (confidence 2) [3D9ADD82] (AR v1)
Copy OK

Track 16

Filename C:\Ripping\The Complete Roulette Recordings of the Maynard Ferguson Orchestra\CD9\16 - Vignette.wav

Pre-gap length 0:00:02.12

Peak level 100.0 %
Extraction speed 2.5 X
Track quality 100.0 %
Test CRC 939093C0
Copy CRC 939093C0
Accurately ripped (confidence 2) [56BEFC97] (AR v1)
Copy OK

Track 17

Filename C:\Ripping\The Complete Roulette Recordings of the Maynard Ferguson Orchestra\CD9\17 - Jennifer's Bounce.wav

Pre-gap length 0:00:02.15

Peak level 100.0 %
Extraction speed 2.9 X
Track quality 100.0 %
Test CRC 42E0C143
Copy CRC 42E0C143
Accurately ripped (confidence 2) [172AEEA3] (AR v1)
Copy OK

Track 18

Filename C:\Ripping\The Complete Roulette Recordings of the Maynard Ferguson Orchestra\CD9\18 - Statement.wav

Pre-gap length 0:00:01.68

Peak level 100.0 %
Extraction speed 2.6 X
Track quality 100.0 %
Test CRC F0422040
Copy CRC F0422040
Accurately ripped (confidence 2) [62371FCB] (AR v1)
Copy OK


All tracks accurately ripped

No errors occurred

End of status report

–– CUETools DB Plugin V2.1.3

[CTDB TOCID: jq4us_7QeHA7Q.510Vf0cDakTbU-] disk not present in database, Submit result: jq4us_7QeHA7Q.510Vf0cDakTbU- has been uploaded


==== Log checksum 6441DA83C2D14E9D5AE097967A932BB54A9B8302E91D662BEE7D832F1CFCEED9 ====

Exact Audio Copy V1.0 beta 3 from 29. August 2011

EAC extraction logfile from 21. April 2013, 19:12

The Maynard Ferguson Orchestra / The Complete Roulette Recordings of the Maynard Ferguson Orchestra

Used drive : MATSHITADVD-RAM UJ-842S Adapter: 2 ID: 0

Read mode : Secure
Utilize accurate stream : Yes
Defeat audio cache : Yes
Make use of C2 pointers : No

Read offset correction : 102
Overread into Lead-In and Lead-Out : No
Fill up missing offset samples with silence : Yes
Delete leading and trailing silent blocks : No
Null samples used in CRC calculations : Yes
Used interface : Native Win32 interface for Win NT & 2000
Gap handling : Appended to previous track

Used output format : User Defined Encoder
Selected bitrate : 1024 kBit/s
Quality : High
Add ID3 tag : No
Command line compressor : C:\Program Files\FLAC\flac.exe
Additional command line options : -8 -V -T "ARTIST=%artist%" -T "TITLE=%title%" -T "ALBUM=%albumtitle%" -T "DATE=%year%" -T "TRACKNUMBER=%tracknr%" -T "GENRE=%genre%" -T "PERFORMER=%albuminterpret%" -T "COMPOSER=%composer%" %haslyrics%–tag-from-file=LYRICS="%lyricsfile%"%haslyrics% -T "ALBUMARTIST=%albumartist%" -T "DISCNUMBER=%cdnumber%" -T "TOTALDISCS=%totalcds%" -T "TOTALTRACKS=%numtracks%" -T "COMMENT=%comment%" %source% -o %dest%


TOC of the extracted CD

Track | Start | Length | Start sector | End sector
––––––––––––––––––––––––––––-
1 | 0:00.00 | 9:11.55 | 0 | 41379
2 | 9:11.55 | 4:50.12 | 41380 | 63141
3 | 14:01.67 | 6:46.60 | 63142 | 93651
4 | 20:48.52 | 4:39.73 | 93652 | 114649
5 | 25:28.50 | 6:10.10 | 114650 | 142409
6 | 31:38.60 | 4:47.22 | 142410 | 163956
7 | 36:26.07 | 2:54.23 | 163957 | 177029
8 | 39:20.30 | 7:21.72 | 177030 | 210176
9 | 46:42.27 | 8:02.45 | 210177 | 246371
10 | 54:44.72 | 4:59.73 | 246372 | 268869
11 | 59:44.70 | 8:08.07 | 268870 | 305476
12 | 67:53.02 | 1:54.45 | 305477 | 314071


Track 1

Filename D:\Ripping\The Complete Roulette Recordings of the Maynard Ferguson Orchestra\CD10\01 - Oleo.wav

Pre-gap length 0:00:02.00

Peak level 100.0 %
Extraction speed 2.8 X
Track quality 99.9 %
Test CRC 59E84094
Copy CRC 59E84094
Accurately ripped (confidence 2) [5E7A3AAA] (AR v1)
Copy OK

Track 2

Filename D:\Ripping\The Complete Roulette Recordings of the Maynard Ferguson Orchestra\CD10\02 - Starfire.wav

Peak level 100.0 %
Extraction speed 2.9 X
Track quality 99.9 %
Test CRC 8F8760FC
Copy CRC 8F8760FC
Accurately ripped (confidence 2) [D5E5A0F5] (AR v1)
Copy OK

Track 3

Filename D:\Ripping\The Complete Roulette Recordings of the Maynard Ferguson Orchestra\CD10\03 - The Mark of Jazz.wav

Peak level 100.0 %
Extraction speed 3.6 X
Track quality 100.0 %
Test CRC DCAC1BA0
Copy CRC DCAC1BA0
Accurately ripped (confidence 2) [2C349DFD] (AR v1)
Copy OK

Track 4

Filename D:\Ripping\The Complete Roulette Recordings of the Maynard Ferguson Orchestra\CD10\04 - Night Life.wav

Peak level 93.1 %
Extraction speed 3.7 X
Track quality 100.0 %
Test CRC 59929816
Copy CRC 59929816
Accurately ripped (confidence 2) [76865A85] (AR v1)
Copy OK

Track 5

Filename D:\Ripping\The Complete Roulette Recordings of the Maynard Ferguson Orchestra\CD10\05 - Stella by Starlight.wav

Peak level 100.0 %
Extraction speed 4.1 X
Track quality 100.0 %
Test CRC 0486C408
Copy CRC 0486C408
Accurately ripped (confidence 2) [16A04480] (AR v1)
Copy OK

Track 6

Filename D:\Ripping\The Complete Roulette Recordings of the Maynard Ferguson Orchestra\CD10\06 - Lonely Time.wav

Peak level 100.0 %
Extraction speed 4.2 X
Track quality 100.0 %
Test CRC 67B092C4
Copy CRC 67B092C4
Accurately ripped (confidence 2) [E1D4E150] (AR v1)
Copy OK

Track 7

Filename D:\Ripping\The Complete Roulette Recordings of the Maynard Ferguson Orchestra\CD10\07 - Back in the Satellite Again.wav

Peak level 100.0 %
Extraction speed 3.3 X
Track quality 99.9 %
Test CRC 05B2B277
Copy CRC 05B2B277
Accurately ripped (confidence 2) [48732E08] (AR v1)
Copy OK

Track 8

Filename D:\Ripping\The Complete Roulette Recordings of the Maynard Ferguson Orchestra\CD10\08 - Three More Foxes.wav

Peak level 100.0 %
Extraction speed 4.7 X
Track quality 100.0 %
Test CRC 53215AC8
Copy CRC 53215AC8
Accurately ripped (confidence 2) [C4500FAC] (AR v1)
Copy OK

Track 9

Filename D:\Ripping\The Complete Roulette Recordings of the Maynard Ferguson Orchestra\CD10\09 - Sea Isle Stomp.wav

Peak level 100.0 %
Extraction speed 5.0 X
Track quality 100.0 %
Test CRC 9E652854
Copy CRC 9E652854
Accurately ripped (confidence 2) [9364E934] (AR v1)
Copy OK

Track 10

Filename D:\Ripping\The Complete Roulette Recordings of the Maynard Ferguson Orchestra\CD10\10 - Night Life (alternate take).wav

Peak level 100.0 %
Extraction speed 5.0 X
Track quality 100.0 %
Test CRC FD74DFF8
Copy CRC FD74DFF8
Accurately ripped (confidence 2) [E5032507] (AR v1)
Copy OK

Track 11

Filename D:\Ripping\The Complete Roulette Recordings of the Maynard Ferguson Orchestra\CD10\11 - The Mark of Jazz (alternate take).wav

Peak level 100.0 %
Extraction speed 5.5 X
Track quality 100.0 %
Test CRC D46B6085
Copy CRC D46B6085
Accurately ripped (confidence 2) [98861744] (AR v1)
Copy OK

Track 12

Filename D:\Ripping\The Complete Roulette Recordings of the Maynard Ferguson Orchestra\CD10\12 - Blue Birdland.wav

Peak level 100.0 %
Extraction speed 4.5 X
Track quality 100.0 %
Test CRC 6FD64B01
Copy CRC 6FD64B01
Accurately ripped (confidence 2) [780524B0] (AR v1)
Copy OK


All tracks accurately ripped

No errors occurred

End of status report

–– CUETools DB Plugin V2.1.3

[CTDB TOCID: FuunQxb8m13xiXpv1c8_Gszjo_c-] disk not present in database, Submit result: FuunQxb8m13xiXpv1c8_Gszjo_c- has been uploaded


==== Log checksum 11F99334B61BA7265FEA95722FA9E4D536D97E1A438B2FAE5A939CE368139C44 ====


Maynard Ferguson - The Complete Roulette Recordings Of The Maynard Ferguson Orchestra (1958-62) [10CD] {1994 Mosaic Remaster}

Maynard Ferguson - The Complete Roulette Recordings Of The Maynard Ferguson Orchestra (1958-62) [10CD] {1994 Mosaic Remaster}


All thanks goes to the original releaser!