Subcategories

Chet Atkins - Galloping Guitar, The Early Years: 1945-1954 (1993) [4 CD Box Set] RE-UP

Posted By: perfecta
Chet Atkins - Galloping Guitar, The Early Years: 1945-1954 (1993) [4 CD Box Set] RE-UP

Chet Atkins - Galloping Guitar, The Early Years: 1945-1954 (1993) [4 CD Box Set]
4x EAC-FLAC(Tracks) with CUEs & LOGs - 757 MB | PNG Covers & Booklet - 995 MB | MP3 CBR 320 Kbps - 627 MB
Traditional Country / Nashville Sound / Country Pop | Total Time - 412:49 minutes | Label: Bear Family Records # BCD 15714 DI

Without Chet Atkins, country music may never have crossed over into the pop charts in the '50s and '60s. Although he recorded hundreds of solo records, Atkins' largest influence came as a session musician and a record producer. During the '50s and '60s, he helped create the Nashville sound, a style of country music that owed nearly as much to pop as it did to honky tonks. This is a wonderful multi-disc boxed set retrospective of Atkins's earliest recordings. Casual fans will be surprised to hear that Chet was originally marketed as a vocalist/guitarist, much the same as then popular Merle Travis was on Capitol. His eventual move over to strict instrumentals doesn't come until the end of this box set, with guest vocalists flitting in and out of the picture, but Atkins's guitar is solid throughout.


Here's the guitar that changed the world, and the recordings that proved it! Just one of the ultra-rare 10-inch albums included here fetches more than the cost of the set! In these early recordings, made between 1946 and 1954, Chet was exploring the guitar's potential, taking risks, and showing why every country and rockabilly picker was listening to him. By the end of the set, he was acknowledged as the greatest instrumentalist in country music. The 115 sides here include rare demos from Knoxville circa mid-'40s, the Bullet sides, and all the RCA recordings until 1954, such as Canned Heat, Dizzy Strings, Jitterbug Waltz, One Man Boogie, Country Gentleman, and The Old Spinning Wheel. Backing or duet musicians include Homer and Jethro, Hank Snow, and George Barnes.

TRACKLIST:

Disc One:


01. Guitar Blues
02. Brown Eyes Cryin' In The Rain
03. Ain'tcha Tired Of Makin' Me Blue
04. I'm Gonna Get Tight
05. Canned Heat
06. Standing Room Only
07. Don't Hand Me That Line
08. Big Dance
09. (I Know My Baby Love Me) In Her Own Peculiar Way
10. The Nashville Jump
11. My Guitar Is My Sweetheart
12. I'm Pickin' The Blues
13. Gone, Gone, Gone
14. Barnyard Shuffle
15. Save Your Money
16. (I May Be Color Blind But) I Know When I'm Blue
17. I've Been Working On The Guitar
18. Dizzy Strings
19. Money, Marbles And Chalk
20. Wednesday Night Waltz
21. Guitar Waltz
22. Telling My Troubles To My Old Guitar
23. Dance Of The Goldenrod
24. Galloping Guitar
25. Barber Shop Rag
26. Centipede Boogie

Disc Two:

01. Under The Hickory Nut Tree
02. I Was Bitten By The Same Bug Twice
03. One More Chance
04. The Old Buck Dance
05. Boogie Man Boogie
06. Main Street Breakdown
07. Confusin'
08. Music In My Heart
09. Indian Love Call
10. Birth Of The Blues
11. Mountain Melody
12. You're Always Brand New
13. My Crazy Heart
14. Hybrid Corn
15. Jitterbug Waltz
16. One Man Boogie (take H)
17. Crazy Rhythm (instr.)
18. Crazy Rhythm (vocal)
19. Rustic Dance
20. Rainbow
21. In The Mood
22. Spanish Fandango
23. Midnight
24. Good-Bye Blues
25. Your Mean Little Heart
26. Sweet Bunch Of Daisies
27. Blue Gypsy
28. The Third Man Theme
29. One Man Boogie (take D)
23. Jeannie With The Light Brown Hair
24. Everyday
25. Popcorn Polly
26. Cloud Nine
27. Gentle As A Lamb
28. The Wedding Is Over
29. I Need Your Love (alt.)
30. Lonely Weekends (alt.)

Disc Three:

01. St. Louis Blues
02. Nobody's Sweetheart
03. Lover Come Back To Me
04. Stephen Foster Medley
05. Hangover Blues
06. Imagination
07. Black Mountain Rag
08. Guitar Polka (vocal Rosalie Allen)
09. Dream Train (vocal Rosalie Allen)
10. Meet Mr. Callaghan
11. Chinatown, My Chinatown
12. High Rockin' Swing
13. Pig Leaf Rag
14. Oh By Jingo!
15. Hello My Baby
16. The Bells Of St. Mary's
17. Country Gentleman
18. Memphis Blues
19. Alice Blue Gown
20. 12th Street Rag
21. Peeping Tom
22. Three O'Clock In The Morning
23. Georgia Camp Meeting
24. City Slicker
25. Dill Pickle Rag
26. Rubber Doll Rag
27. Beautiful Ohio (version 1)
28. Kentucky Derby
29. Wildwood Flower
30. Guitars On Parade
31. Simple Simon
32. Rubber Doll Rag (alt.)

Disc Four:

01. Get Up And Go (vocal Chet Atkins)
02. Pagan Love Song
03. Beautiful Ohio (version 2)
04. Downhill Drag
05. Avalon
06. Sunrize Serenade
07. San Antonio Rose
08. Set A Spell (vocal Red Kirk)
09. Mister Misery (duet vocal)
10. Get Up And Go (vocal Red Kirk)
11. South
12. Alabama Jubilee
13. Corrine, Corrina
14. Indiana (Back Home In Indiana)
15. Red Wing
16. Frankie And Johnnie
17. A Gay Ranchero
18. Ballin' The Jack
19. Honeysuckle Rose
20. Darktown Strutters Ball (with Hank Snow)
21. The Old Spinning Wheel (with Hank Snow)
22. Silver Bells (with Hank Snow)
23. Under The Double Eagle (with Hank Snow)
24. The Birth Of The Blues
25. Have You Ever Been Lonely
26. Caravan
27. Old Man River
28. Mister Sandman
29. New Spanish Two Step

More info @ Wikipedia

Producers include: Stephen H. Sholes, Chester B. Atkins
Re-Issue Produced by Richard Weize. Mastered by Bob Jones.

Exact Audio Copy V1.0 beta 2 from 29. April 2011

EAC extraction logfile from 7. July 2011, 15:36

Chet Atkins / Galloping Guitar - The Early Years, CD 1

Used drive : PLEXTOR CD-R PREMIUM Adapter: 0 ID: 1

Read mode : Secure
Utilize accurate stream : Yes
Defeat audio cache : Yes
Make use of C2 pointers : No

Read offset correction : 30
Overread into Lead-In and Lead-Out : Yes
Fill up missing offset samples with silence : Yes
Delete leading and trailing silent blocks : No
Null samples used in CRC calculations : Yes
Used interface : Installed external ASPI interface
Gap handling : Appended to previous track

Used output format : User Defined Encoder
Selected bitrate : 768 kBit/s
Quality : High
Add ID3 tag : No
Command line compressor : C:\Program Files\Exact Audio Copy\FLAC\FLAC.EXE
Additional command line options : -8 -V -T "ARTIST=%artist%" -T "TITLE=%title%" -T "ALBUM=%albumtitle%" -T "DATE=%year%" -T "TRACKNUMBER=%tracknr%" -T "TOTALTRACKS=%numtracks%" -T "GENRE=%genre%" -T "ALBUMARTIST=%albumartist%" -T "ALBUM ARTIST=%albumartist%


TOC of the extracted CD

Track | Start | Length | Start sector | End sector
––––––––––––––––––––––––––––-
1 | 0:00.00 | 2:50.50 | 0 | 12799
2 | 2:50.50 | 2:49.60 | 12800 | 25534
3 | 5:40.35 | 2:45.32 | 25535 | 37941
4 | 8:25.67 | 2:55.28 | 37942 | 51094
5 | 11:21.20 | 2:35.22 | 51095 | 62741
6 | 13:56.42 | 2:54.73 | 62742 | 75864
7 | 16:51.40 | 2:37.00 | 75865 | 87639
8 | 19:28.40 | 2:57.15 | 87640 | 100929
9 | 22:25.55 | 2:27.52 | 100930 | 112006
10 | 24:53.32 | 2:32.08 | 112007 | 123414
11 | 27:25.40 | 2:40.25 | 123415 | 135439
12 | 30:05.65 | 2:50.10 | 135440 | 148199
13 | 32:56.00 | 2:40.30 | 148200 | 160229
14 | 35:36.30 | 2:52.05 | 160230 | 173134
15 | 38:28.35 | 2:34.32 | 173135 | 184716
16 | 41:02.67 | 2:33.58 | 184717 | 196249
17 | 43:36.50 | 2:30.32 | 196250 | 207531
18 | 46:07.07 | 2:45.05 | 207532 | 219911
19 | 48:52.12 | 2:54.05 | 219912 | 232966
20 | 51:46.17 | 2:32.58 | 232967 | 244424
21 | 54:19.00 | 3:04.32 | 244425 | 258256
22 | 57:23.32 | 2:46.43 | 258257 | 270749
23 | 60:10.00 | 2:41.57 | 270750 | 282881
24 | 62:51.57 | 2:29.40 | 282882 | 294096
25 | 65:21.22 | 2:50.00 | 294097 | 306846
26 | 68:11.22 | 2:38.63 | 306847 | 318759


Track 1

Filename I:\Chet Atkins - Galloping Guitar, The Early Years 1945-1954 (1993) [FLAC] {4 CD Box Bear Family BCD 15714}\Disc 1 of 4\01 - Guitar Blues.wav

Pre-gap length 0:00:02.00

Peak level 74.5 %
Extraction speed 7.2 X
Track quality 99.9 %
Test CRC 48261657
Copy CRC 48261657
Accurately ripped (confidence 2) [D35E5BC1] (AR v1)
Copy OK

Track 2

Filename I:\Chet Atkins - Galloping Guitar, The Early Years 1945-1954 (1993) [FLAC] {4 CD Box Bear Family BCD 15714}\Disc 1 of 4\02 - Brown Eyes Cryin' In The Rain.wav

Pre-gap length 0:00:02.38

Peak level 72.8 %
Extraction speed 9.1 X
Track quality 100.0 %
Test CRC 383DE36A
Copy CRC 383DE36A
Accurately ripped (confidence 2) [C29F2761] (AR v1)
Copy OK

Track 3

Filename I:\Chet Atkins - Galloping Guitar, The Early Years 1945-1954 (1993) [FLAC] {4 CD Box Bear Family BCD 15714}\Disc 1 of 4\03 - Ain'tcha Tired Of Makin' Me Blue.wav

Pre-gap length 0:00:04.13

Peak level 80.4 %
Extraction speed 9.5 X
Track quality 100.0 %
Test CRC 25D04AB4
Copy CRC 25D04AB4
Accurately ripped (confidence 2) [210D87BF] (AR v1)
Copy OK

Track 4

Filename I:\Chet Atkins - Galloping Guitar, The Early Years 1945-1954 (1993) [FLAC] {4 CD Box Bear Family BCD 15714}\Disc 1 of 4\04 - I'm Gonna Get Tight.wav

Pre-gap length 0:00:03.42

Peak level 83.3 %
Extraction speed 10.2 X
Track quality 100.0 %
Test CRC 7A7C67EC
Copy CRC 7A7C67EC
Accurately ripped (confidence 2) [B4A5E7FE] (AR v1)
Copy OK

Track 5

Filename I:\Chet Atkins - Galloping Guitar, The Early Years 1945-1954 (1993) [FLAC] {4 CD Box Bear Family BCD 15714}\Disc 1 of 4\05 - Canned Heat.wav

Pre-gap length 0:00:02.63

Peak level 78.2 %
Extraction speed 10.6 X
Track quality 100.0 %
Test CRC AB9147F4
Copy CRC AB9147F4
Accurately ripped (confidence 2) [E92C4BED] (AR v1)
Copy OK

Track 6

Filename I:\Chet Atkins - Galloping Guitar, The Early Years 1945-1954 (1993) [FLAC] {4 CD Box Bear Family BCD 15714}\Disc 1 of 4\06 - Standing Room Only.wav

Pre-gap length 0:00:03.62

Peak level 80.1 %
Extraction speed 9.1 X
Track quality 99.9 %
Test CRC 4C0DEBAF
Copy CRC 4C0DEBAF
Accurately ripped (confidence 2) [86870FDA] (AR v1)
Copy OK

Track 7

Filename I:\Chet Atkins - Galloping Guitar, The Early Years 1945-1954 (1993) [FLAC] {4 CD Box Bear Family BCD 15714}\Disc 1 of 4\07 - Don't Hand Me That Line.wav

Pre-gap length 0:00:03.68

Peak level 73.7 %
Extraction speed 9.0 X
Track quality 99.9 %
Test CRC F854E028
Copy CRC F854E028
Accurately ripped (confidence 2) [152CD972] (AR v1)
Copy OK

Track 8

Filename I:\Chet Atkins - Galloping Guitar, The Early Years 1945-1954 (1993) [FLAC] {4 CD Box Bear Family BCD 15714}\Disc 1 of 4\08 - Big Dance.wav

Pre-gap length 0:00:04.13

Peak level 72.7 %
Extraction speed 11.9 X
Track quality 100.0 %
Test CRC D34A2657
Copy CRC D34A2657
Accurately ripped (confidence 2) [832FB6AE] (AR v1)
Copy OK

Track 9

Filename I:\Chet Atkins - Galloping Guitar, The Early Years 1945-1954 (1993) [FLAC] {4 CD Box Bear Family BCD 15714}\Disc 1 of 4\09 - (I Know My Baby Love Me) In Her Own Peculiar Way.wav

Pre-gap length 0:00:03.25

Peak level 81.2 %
Extraction speed 9.3 X
Track quality 99.9 %
Test CRC 3D8EEA96
Copy CRC 3D8EEA96
Accurately ripped (confidence 2) [69E41436] (AR v1)
Copy OK

Track 10

Filename I:\Chet Atkins - Galloping Guitar, The Early Years 1945-1954 (1993) [FLAC] {4 CD Box Bear Family BCD 15714}\Disc 1 of 4\10 - The Nashville Jump.wav

Pre-gap length 0:00:02.20

Peak level 73.9 %
Extraction speed 12.4 X
Track quality 100.0 %
Test CRC D8AB3DF8
Copy CRC D8AB3DF8
Accurately ripped (confidence 2) [93D361FC] (AR v1)
Copy OK

Track 11

Filename I:\Chet Atkins - Galloping Guitar, The Early Years 1945-1954 (1993) [FLAC] {4 CD Box Bear Family BCD 15714}\Disc 1 of 4\11 - My Guitar Is My Sweetheart.wav

Pre-gap length 0:00:03.33

Peak level 72.4 %
Extraction speed 10.0 X
Track quality 99.9 %
Test CRC AB717CBE
Copy CRC AB717CBE
Accurately ripped (confidence 2) [6B8B4B82] (AR v1)
Copy OK

Track 12

Filename I:\Chet Atkins - Galloping Guitar, The Early Years 1945-1954 (1993) [FLAC] {4 CD Box Bear Family BCD 15714}\Disc 1 of 4\12 - I'm Pickin' The Blues.wav

Pre-gap length 0:00:03.28

Peak level 62.7 %
Extraction speed 13.1 X
Track quality 100.0 %
Test CRC A4A1AAC9
Copy CRC A4A1AAC9
Accurately ripped (confidence 2) [9DFA25DC] (AR v1)
Copy OK

Track 13

Filename I:\Chet Atkins - Galloping Guitar, The Early Years 1945-1954 (1993) [FLAC] {4 CD Box Bear Family BCD 15714}\Disc 1 of 4\13 - Gone, Gone, Gone.wav

Pre-gap length 0:00:03.13

Peak level 76.9 %
Extraction speed 13.3 X
Track quality 100.0 %
Test CRC BF3A8574
Copy CRC BF3A8574
Accurately ripped (confidence 2) [3030E3FB] (AR v1)
Copy OK

Track 14

Filename I:\Chet Atkins - Galloping Guitar, The Early Years 1945-1954 (1993) [FLAC] {4 CD Box Bear Family BCD 15714}\Disc 1 of 4\14 - Barnyard Shuffle.wav

Pre-gap length 0:00:14.25

Peak level 70.5 %
Extraction speed 13.8 X
Track quality 100.0 %
Test CRC C2229525
Copy CRC C2229525
Accurately ripped (confidence 2) [F5DEC519] (AR v1)
Copy OK

Track 15

Filename I:\Chet Atkins - Galloping Guitar, The Early Years 1945-1954 (1993) [FLAC] {4 CD Box Bear Family BCD 15714}\Disc 1 of 4\15 - Save Your Money.wav

Pre-gap length 0:00:02.55

Peak level 79.8 %
Extraction speed 14.0 X
Track quality 100.0 %
Test CRC 7987723C
Copy CRC 7987723C
Accurately ripped (confidence 2) [7897ED06] (AR v1)
Copy OK

Track 16

Filename I:\Chet Atkins - Galloping Guitar, The Early Years 1945-1954 (1993) [FLAC] {4 CD Box Bear Family BCD 15714}\Disc 1 of 4\16 - (I May Be Color Blind But) I Know When I'm Blue.wav

Pre-gap length 0:00:04.50

Peak level 75.1 %
Extraction speed 14.2 X
Track quality 100.0 %
Test CRC BAF3A509
Copy CRC BAF3A509
Accurately ripped (confidence 2) [DCDBF50E] (AR v1)
Copy OK

Track 17

Filename I:\Chet Atkins - Galloping Guitar, The Early Years 1945-1954 (1993) [FLAC] {4 CD Box Bear Family BCD 15714}\Disc 1 of 4\17 - I've Been Working On The Guitar.wav

Pre-gap length 0:00:02.55

Peak level 68.9 %
Extraction speed 14.2 X
Track quality 100.0 %
Test CRC 066068B6
Copy CRC 066068B6
Accurately ripped (confidence 2) [978C2A09] (AR v1)
Copy OK

Track 18

Filename I:\Chet Atkins - Galloping Guitar, The Early Years 1945-1954 (1993) [FLAC] {4 CD Box Bear Family BCD 15714}\Disc 1 of 4\18 - Dizzy Strings.wav

Pre-gap length 0:00:02.25

Peak level 76.8 %
Extraction speed 14.9 X
Track quality 100.0 %
Test CRC FB72CA00
Copy CRC FB72CA00
Accurately ripped (confidence 2) [EC84A783] (AR v1)
Copy OK

Track 19

Filename I:\Chet Atkins - Galloping Guitar, The Early Years 1945-1954 (1993) [FLAC] {4 CD Box Bear Family BCD 15714}\Disc 1 of 4\19 - Money, Marbles And Chalk.wav

Pre-gap length 0:00:04.52

Peak level 83.2 %
Extraction speed 15.2 X
Track quality 100.0 %
Test CRC 2A1D2D50
Copy CRC 2A1D2D50
Accurately ripped (confidence 2) [436F1DC7] (AR v1)
Copy OK

Track 20

Filename I:\Chet Atkins - Galloping Guitar, The Early Years 1945-1954 (1993) [FLAC] {4 CD Box Bear Family BCD 15714}\Disc 1 of 4\20 - Wednesday Night Waltz.wav

Pre-gap length 0:00:03.40

Peak level 60.9 %
Extraction speed 15.2 X
Track quality 100.0 %
Test CRC F39384B2
Copy CRC F39384B2
Accurately ripped (confidence 2) [C1267C19] (AR v1)
Copy OK

Track 21

Filename I:\Chet Atkins - Galloping Guitar, The Early Years 1945-1954 (1993) [FLAC] {4 CD Box Bear Family BCD 15714}\Disc 1 of 4\21 - Guitar Waltz.wav

Pre-gap length 0:00:02.68

Peak level 57.0 %
Extraction speed 15.9 X
Track quality 100.0 %
Test CRC 3DD29C1C
Copy CRC 3DD29C1C
Accurately ripped (confidence 2) [7D54F05E] (AR v1)
Copy OK

Track 22

Filename I:\Chet Atkins - Galloping Guitar, The Early Years 1945-1954 (1993) [FLAC] {4 CD Box Bear Family BCD 15714}\Disc 1 of 4\22 - Telling My Troubles To My Old Guitar.wav

Pre-gap length 0:00:02.07

Peak level 59.8 %
Extraction speed 15.6 X
Track quality 100.0 %
Test CRC C8F62548
Copy CRC C8F62548
Accurately ripped (confidence 2) [24F1B872] (AR v1)
Copy OK

Track 23

Filename I:\Chet Atkins - Galloping Guitar, The Early Years 1945-1954 (1993) [FLAC] {4 CD Box Bear Family BCD 15714}\Disc 1 of 4\23 - Dance Of The Goldenrod.wav

Pre-gap length 0:00:02.63

Peak level 50.3 %
Extraction speed 16.2 X
Track quality 100.0 %
Test CRC 35E17E19
Copy CRC 35E17E19
Accurately ripped (confidence 2) [203BCB1C] (AR v1)
Copy OK

Track 24

Filename I:\Chet Atkins - Galloping Guitar, The Early Years 1945-1954 (1993) [FLAC] {4 CD Box Bear Family BCD 15714}\Disc 1 of 4\24 - Galloping Guitar.wav

Pre-gap length 0:00:03.35

Peak level 83.7 %
Extraction speed 16.2 X
Track quality 100.0 %
Test CRC AA8F9209
Copy CRC AA8F9209
Accurately ripped (confidence 2) [90983E13] (AR v1)
Copy OK

Track 25

Filename I:\Chet Atkins - Galloping Guitar, The Early Years 1945-1954 (1993) [FLAC] {4 CD Box Bear Family BCD 15714}\Disc 1 of 4\25 - Barber Shop Rag.wav

Pre-gap length 0:00:02.55

Peak level 95.8 %
Extraction speed 12.6 X
Track quality 99.9 %
Test CRC 0F5297FB
Copy CRC 0F5297FB
Accurately ripped (confidence 2) [D911C6C4] (AR v1)
Copy OK

Track 26

Filename I:\Chet Atkins - Galloping Guitar, The Early Years 1945-1954 (1993) [FLAC] {4 CD Box Bear Family BCD 15714}\Disc 1 of 4\26 - Centipede Boogie.wav

Pre-gap length 0:00:03.15

Peak level 87.4 %
Extraction speed 18.4 X
Track quality 100.0 %
Test CRC 6C628816
Copy CRC 6C628816
Accurately ripped (confidence 2) [425081A9] (AR v1)
Copy OK


All tracks accurately ripped

No errors occurred

End of status report

==== Log checksum 14870AAEC363438D6C250E246AA8ED6FAF9B4BB769C12B3F87D510C04C56F184 ====




Exact Audio Copy V1.0 beta 2 from 29. April 2011

EAC extraction logfile from 7. July 2011, 16:57

Chet Atkins / Galloping Guitar - The Early Years, CD 2

Used drive : PLEXTOR CD-R PREMIUM Adapter: 0 ID: 1

Read mode : Secure
Utilize accurate stream : Yes
Defeat audio cache : Yes
Make use of C2 pointers : No

Read offset correction : 30
Overread into Lead-In and Lead-Out : Yes
Fill up missing offset samples with silence : Yes
Delete leading and trailing silent blocks : No
Null samples used in CRC calculations : Yes
Used interface : Installed external ASPI interface
Gap handling : Appended to previous track

Used output format : User Defined Encoder
Selected bitrate : 768 kBit/s
Quality : High
Add ID3 tag : No
Command line compressor : C:\Program Files\Exact Audio Copy\FLAC\FLAC.EXE
Additional command line options : -8 -V -T "ARTIST=%artist%" -T "TITLE=%title%" -T "ALBUM=%albumtitle%" -T "DATE=%year%" -T "TRACKNUMBER=%tracknr%" -T "TOTALTRACKS=%numtracks%" -T "GENRE=%genre%" -T "ALBUMARTIST=%albumartist%" -T "ALBUM ARTIST=%albumartist%


TOC of the extracted CD

Track | Start | Length | Start sector | End sector
––––––––––––––––––––––––––––-
1 | 0:00.00 | 2:58.12 | 0 | 13361
2 | 2:58.12 | 2:31.25 | 13362 | 24711
3 | 5:29.37 | 2:49.38 | 24712 | 37424
4 | 8:19.00 | 2:27.05 | 37425 | 48454
5 | 10:46.05 | 2:49.62 | 48455 | 61191
6 | 13:35.67 | 2:18.15 | 61192 | 71556
7 | 15:54.07 | 2:14.33 | 71557 | 81639
8 | 18:08.40 | 2:17.65 | 81640 | 91979
9 | 20:26.30 | 2:39.70 | 91980 | 103974
10 | 23:06.25 | 2:33.00 | 103975 | 115449
11 | 25:39.25 | 2:10.65 | 115450 | 125264
12 | 27:50.15 | 2:39.20 | 125265 | 137209
13 | 30:29.35 | 2:41.35 | 137210 | 149319
14 | 33:10.70 | 2:15.07 | 149320 | 159451
15 | 35:26.02 | 2:37.70 | 159452 | 171296
16 | 38:03.72 | 2:40.48 | 171297 | 183344
17 | 40:44.45 | 2:25.35 | 183345 | 194254
18 | 43:10.05 | 2:23.62 | 194255 | 205041
19 | 45:33.67 | 2:06.40 | 205042 | 214531
20 | 47:40.32 | 2:38.05 | 214532 | 226386
21 | 50:18.37 | 2:29.13 | 226387 | 237574
22 | 52:47.50 | 2:40.72 | 237575 | 249646
23 | 55:28.47 | 2:53.35 | 249647 | 262656
24 | 58:22.07 | 2:29.43 | 262657 | 273874
25 | 60:51.50 | 2:33.52 | 273875 | 285401
26 | 63:25.27 | 2:05.18 | 285402 | 294794
27 | 65:30.45 | 2:19.62 | 294795 | 305281
28 | 67:50.32 | 2:26.50 | 305282 | 316281
29 | 70:17.07 | 2:38.73 | 316282 | 328204


Track 1

Filename I:\Chet Atkins - Galloping Guitar, The Early Years 1945-1954 (1993) [FLAC] {4 CD Box Bear Family BCD 15714}\Disc 2 of 4\01 - Under The Hickory Nut Tree.wav

Pre-gap length 0:00:02.00

Peak level 59.7 %
Extraction speed 8.3 X
Track quality 100.0 %
Test CRC 3566EE1E
Copy CRC 3566EE1E
Accurately ripped (confidence 1) [7DB5A5B3] (AR v1)
Copy OK

Track 2

Filename I:\Chet Atkins - Galloping Guitar, The Early Years 1945-1954 (1993) [FLAC] {4 CD Box Bear Family BCD 15714}\Disc 2 of 4\02 - I Was Bitten By The Same Bug Twice.wav

Pre-gap length 0:00:03.07

Peak level 58.3 %
Extraction speed 8.8 X
Track quality 100.0 %
Test CRC 820079D0
Copy CRC 820079D0
Accurately ripped (confidence 1) [CF39FE99] (AR v1)
Copy OK

Track 3

Filename I:\Chet Atkins - Galloping Guitar, The Early Years 1945-1954 (1993) [FLAC] {4 CD Box Bear Family BCD 15714}\Disc 2 of 4\03 - One More Chance.wav

Pre-gap length 0:00:03.00

Peak level 62.8 %
Extraction speed 9.5 X
Track quality 100.0 %
Test CRC 7D6DA9F5
Copy CRC 7D6DA9F5
Accurately ripped (confidence 1) [D39B7CB3] (AR v1)
Copy OK

Track 4

Filename I:\Chet Atkins - Galloping Guitar, The Early Years 1945-1954 (1993) [FLAC] {4 CD Box Bear Family BCD 15714}\Disc 2 of 4\04 - The Old Buck Dance.wav

Pre-gap length 0:00:03.55

Peak level 75.9 %
Extraction speed 7.9 X
Track quality 99.9 %
Test CRC 4147FB2F
Copy CRC 4147FB2F
Accurately ripped (confidence 1) [02BCEA10] (AR v1)
Copy OK

Track 5

Filename I:\Chet Atkins - Galloping Guitar, The Early Years 1945-1954 (1993) [FLAC] {4 CD Box Bear Family BCD 15714}\Disc 2 of 4\05 - Boogie Man Boogie.wav

Pre-gap length 0:00:02.25

Peak level 94.9 %
Extraction speed 10.3 X
Track quality 100.0 %
Test CRC B164B1C6
Copy CRC B164B1C6
Accurately ripped (confidence 1) [4015178B] (AR v1)
Copy OK

Track 6

Filename I:\Chet Atkins - Galloping Guitar, The Early Years 1945-1954 (1993) [FLAC] {4 CD Box Bear Family BCD 15714}\Disc 2 of 4\06 - Main Street Breakdown.wav

Pre-gap length 0:00:03.10

Peak level 99.7 %
Extraction speed 10.5 X
Track quality 100.0 %
Test CRC 7989C494
Copy CRC 7989C494
Accurately ripped (confidence 1) [FE9D0CA5] (AR v1)
Copy OK

Track 7

Filename I:\Chet Atkins - Galloping Guitar, The Early Years 1945-1954 (1993) [FLAC] {4 CD Box Bear Family BCD 15714}\Disc 2 of 4\07 - Confusin'.wav

Pre-gap length 0:00:03.45

Peak level 79.7 %
Extraction speed 8.4 X
Track quality 99.9 %
Test CRC F4EAC928
Copy CRC F4EAC928
Accurately ripped (confidence 1) [F063B696] (AR v1)
Copy OK

Track 8

Filename I:\Chet Atkins - Galloping Guitar, The Early Years 1945-1954 (1993) [FLAC] {4 CD Box Bear Family BCD 15714}\Disc 2 of 4\08 - Music In My Heart.wav

Pre-gap length 0:00:03.55

Peak level 77.8 %
Extraction speed 11.1 X
Track quality 100.0 %
Test CRC C73C9DA7
Copy CRC C73C9DA7
Accurately ripped (confidence 1) [681F865F] (AR v1)
Copy OK

Track 9

Filename I:\Chet Atkins - Galloping Guitar, The Early Years 1945-1954 (1993) [FLAC] {4 CD Box Bear Family BCD 15714}\Disc 2 of 4\09 - Indian Love Call.wav

Pre-gap length 0:00:03.48

Peak level 76.8 %
Extraction speed 11.2 X
Track quality 100.0 %
Test CRC 11E1E5F9
Copy CRC 11E1E5F9
Accurately ripped (confidence 1) [BEC4F1ED] (AR v1)
Copy OK

Track 10

Filename I:\Chet Atkins - Galloping Guitar, The Early Years 1945-1954 (1993) [FLAC] {4 CD Box Bear Family BCD 15714}\Disc 2 of 4\10 - Birth Of The Blues.wav

Pre-gap length 0:00:03.23

Peak level 73.4 %
Extraction speed 12.0 X
Track quality 100.0 %
Test CRC C13105C6
Copy CRC C13105C6
Accurately ripped (confidence 1) [2FD633FE] (AR v1)
Copy OK

Track 11

Filename I:\Chet Atkins - Galloping Guitar, The Early Years 1945-1954 (1993) [FLAC] {4 CD Box Bear Family BCD 15714}\Disc 2 of 4\11 - Mountain Melody.wav

Pre-gap length 0:00:02.03

Peak level 67.3 %
Extraction speed 12.2 X
Track quality 100.0 %
Test CRC 059A669D
Copy CRC 059A669D
Accurately ripped (confidence 1) [4F5B8078] (AR v1)
Copy OK

Track 12

Filename I:\Chet Atkins - Galloping Guitar, The Early Years 1945-1954 (1993) [FLAC] {4 CD Box Bear Family BCD 15714}\Disc 2 of 4\12 - You're Always Brand New.wav

Pre-gap length 0:00:03.45

Peak level 72.0 %
Extraction speed 12.6 X
Track quality 100.0 %
Test CRC D5F28289
Copy CRC D5F28289
Accurately ripped (confidence 1) [214AC8B4] (AR v1)
Copy OK

Track 13

Filename I:\Chet Atkins - Galloping Guitar, The Early Years 1945-1954 (1993) [FLAC] {4 CD Box Bear Family BCD 15714}\Disc 2 of 4\13 - My Crazy Heart.wav

Pre-gap length 0:00:03.23

Peak level 65.9 %
Extraction speed 13.1 X
Track quality 100.0 %
Test CRC EDD4A1DA
Copy CRC EDD4A1DA
Accurately ripped (confidence 1) [B5F9D86B] (AR v1)
Copy OK

Track 14

Filename I:\Chet Atkins - Galloping Guitar, The Early Years 1945-1954 (1993) [FLAC] {4 CD Box Bear Family BCD 15714}\Disc 2 of 4\14 - Hybrid Corn.wav

Pre-gap length 0:00:02.48

Peak level 64.2 %
Extraction speed 9.9 X
Track quality 99.9 %
Test CRC 3C188064
Copy CRC 3C188064
Accurately ripped (confidence 1) [99E3C4F0] (AR v1)
Copy OK

Track 15

Filename I:\Chet Atkins - Galloping Guitar, The Early Years 1945-1954 (1993) [FLAC] {4 CD Box Bear Family BCD 15714}\Disc 2 of 4\15 - Jitterbug Waltz.wav

Pre-gap length 0:00:02.07

Peak level 56.5 %
Extraction speed 13.5 X
Track quality 100.0 %
Test CRC 92A7F46F
Copy CRC 92A7F46F
Accurately ripped (confidence 1) [F3E3CA0E] (AR v1)
Copy OK

Track 16

Filename I:\Chet Atkins - Galloping Guitar, The Early Years 1945-1954 (1993) [FLAC] {4 CD Box Bear Family BCD 15714}\Disc 2 of 4\16 - One Man Boogie (take H).wav

Pre-gap length 0:00:03.25

Peak level 58.0 %
Extraction speed 10.6 X
Track quality 99.9 %
Test CRC 6CCCF13E
Copy CRC 6CCCF13E
Accurately ripped (confidence 1) [AA5B504C] (AR v1)
Copy OK

Track 17

Filename I:\Chet Atkins - Galloping Guitar, The Early Years 1945-1954 (1993) [FLAC] {4 CD Box Bear Family BCD 15714}\Disc 2 of 4\17 - Crazy Rhythm (instr.).wav

Pre-gap length 0:00:03.40

Peak level 67.1 %
Extraction speed 14.0 X
Track quality 100.0 %
Test CRC 6506C04F
Copy CRC 6506C04F
Accurately ripped (confidence 1) [77244D32] (AR v1)
Copy OK

Track 18

Filename I:\Chet Atkins - Galloping Guitar, The Early Years 1945-1954 (1993) [FLAC] {4 CD Box Bear Family BCD 15714}\Disc 2 of 4\18 - Crazy Rhythm (vocal).wav

Pre-gap length 0:00:04.38

Peak level 69.3 %
Extraction speed 14.1 X
Track quality 100.0 %
Test CRC 03653B68
Copy CRC 03653B68
Accurately ripped (confidence 1) [04E59F3E] (AR v1)
Copy OK

Track 19

Filename I:\Chet Atkins - Galloping Guitar, The Early Years 1945-1954 (1993) [FLAC] {4 CD Box Bear Family BCD 15714}\Disc 2 of 4\19 - Rustic Dance.wav

Pre-gap length 0:00:03.55

Peak level 66.0 %
Extraction speed 14.1 X
Track quality 100.0 %
Test CRC FA2185A7
Copy CRC FA2185A7
Accurately ripped (confidence 1) [8447A1BA] (AR v1)
Copy OK

Track 20

Filename I:\Chet Atkins - Galloping Guitar, The Early Years 1945-1954 (1993) [FLAC] {4 CD Box Bear Family BCD 15714}\Disc 2 of 4\20 - Rainbow.wav

Pre-gap length 0:00:03.37

Peak level 76.0 %
Extraction speed 14.6 X
Track quality 100.0 %
Test CRC 86420A78
Copy CRC 86420A78
Accurately ripped (confidence 1) [5B92C2AC] (AR v1)
Copy OK

Track 21

Filename I:\Chet Atkins - Galloping Guitar, The Early Years 1945-1954 (1993) [FLAC] {4 CD Box Bear Family BCD 15714}\Disc 2 of 4\21 - In The Mood.wav

Pre-gap length 0:00:03.60

Peak level 65.4 %
Extraction speed 15.0 X
Track quality 100.0 %
Test CRC DE419C42
Copy CRC DE419C42
Accurately ripped (confidence 1) [AF1A940D] (AR v1)
Copy OK

Track 22

Filename I:\Chet Atkins - Galloping Guitar, The Early Years 1945-1954 (1993) [FLAC] {4 CD Box Bear Family BCD 15714}\Disc 2 of 4\22 - Spanish Fandango.wav

Pre-gap length 0:00:03.28

Peak level 55.7 %
Extraction speed 15.2 X
Track quality 100.0 %
Test CRC 084201D0
Copy CRC 084201D0
Accurately ripped (confidence 1) [25D68173] (AR v1)
Copy OK

Track 23

Filename I:\Chet Atkins - Galloping Guitar, The Early Years 1945-1954 (1993) [FLAC] {4 CD Box Bear Family BCD 15714}\Disc 2 of 4\23 - Midnight.wav

Pre-gap length 0:00:04.02

Peak level 86.3 %
Extraction speed 15.6 X
Track quality 100.0 %
Test CRC 40030977
Copy CRC 40030977
Accurately ripped (confidence 1) [3EAB1E21] (AR v1)
Copy OK

Track 24

Filename I:\Chet Atkins - Galloping Guitar, The Early Years 1945-1954 (1993) [FLAC] {4 CD Box Bear Family BCD 15714}\Disc 2 of 4\24 - Good-Bye Blues.wav

Pre-gap length 0:00:03.20

Peak level 82.0 %
Extraction speed 15.8 X
Track quality 100.0 %
Test CRC D456721A
Copy CRC D456721A
Accurately ripped (confidence 1) [BE97AE57] (AR v1)
Copy OK

Track 25

Filename I:\Chet Atkins - Galloping Guitar, The Early Years 1945-1954 (1993) [FLAC] {4 CD Box Bear Family BCD 15714}\Disc 2 of 4\25 - Your Mean Little Heart.wav

Pre-gap length 0:00:03.63

Peak level 80.8 %
Extraction speed 11.5 X
Track quality 99.9 %
Test CRC CC3D3F65
Copy CRC CC3D3F65
Accurately ripped (confidence 1) [C26BDC4F] (AR v1)
Copy OK

Track 26

Filename I:\Chet Atkins - Galloping Guitar, The Early Years 1945-1954 (1993) [FLAC] {4 CD Box Bear Family BCD 15714}\Disc 2 of 4\26 - Sweet Bunch Of Daisies.wav

Pre-gap length 0:00:02.27

Peak level 81.8 %
Extraction speed 15.8 X
Track quality 100.0 %
Test CRC 7110ABF7
Copy CRC 7110ABF7
Accurately ripped (confidence 1) [1309730B] (AR v1)
Copy OK

Track 27

Filename I:\Chet Atkins - Galloping Guitar, The Early Years 1945-1954 (1993) [FLAC] {4 CD Box Bear Family BCD 15714}\Disc 2 of 4\27 - Blue Gypsy.wav

Pre-gap length 0:00:03.30

Peak level 95.4 %
Extraction speed 16.1 X
Track quality 100.0 %
Test CRC 41EC6ED9
Copy CRC 41EC6ED9
Accurately ripped (confidence 1) [EB81359D] (AR v1)
Copy OK

Track 28

Filename I:\Chet Atkins - Galloping Guitar, The Early Years 1945-1954 (1993) [FLAC] {4 CD Box Bear Family BCD 15714}\Disc 2 of 4\28 - The Third Man Theme.wav

Pre-gap length 0:00:03.12

Peak level 84.7 %
Extraction speed 16.4 X
Track quality 100.0 %
Test CRC 3719CE51
Copy CRC 3719CE51
Accurately ripped (confidence 1) [AF524B62] (AR v1)
Copy OK

Track 29

Filename I:\Chet Atkins - Galloping Guitar, The Early Years 1945-1954 (1993) [FLAC] {4 CD Box Bear Family BCD 15714}\Disc 2 of 4\29 - One Man Boogie (take D).wav

Pre-gap length 0:00:03.40

Peak level 86.0 %
Extraction speed 18.4 X
Track quality 100.0 %
Test CRC BA1353A2
Copy CRC BA1353A2
Accurately ripped (confidence 1) [1692ECA1] (AR v1)
Copy OK


All tracks accurately ripped

No errors occurred

End of status report

==== Log checksum C890784870F7AB278D1C29C8ACFFCC96481274452FBEF71FB7D7462C41CAF520 ====





Exact Audio Copy V1.0 beta 2 from 29. April 2011

EAC extraction logfile from 7. July 2011, 17:41

Chet Atkins / Galloping Guitar - The Early Years, CD 3

Used drive : PLEXTOR CD-R PREMIUM Adapter: 0 ID: 1

Read mode : Secure
Utilize accurate stream : Yes
Defeat audio cache : Yes
Make use of C2 pointers : No

Read offset correction : 30
Overread into Lead-In and Lead-Out : Yes
Fill up missing offset samples with silence : Yes
Delete leading and trailing silent blocks : No
Null samples used in CRC calculations : Yes
Used interface : Installed external ASPI interface
Gap handling : Appended to previous track

Used output format : User Defined Encoder
Selected bitrate : 768 kBit/s
Quality : High
Add ID3 tag : No
Command line compressor : C:\Program Files\Exact Audio Copy\FLAC\FLAC.EXE
Additional command line options : -8 -V -T "ARTIST=%artist%" -T "TITLE=%title%" -T "ALBUM=%albumtitle%" -T "DATE=%year%" -T "TRACKNUMBER=%tracknr%" -T "TOTALTRACKS=%numtracks%" -T "GENRE=%genre%" -T "ALBUMARTIST=%albumartist%" -T "ALBUM ARTIST=%albumartist%


TOC of the extracted CD

Track | Start | Length | Start sector | End sector
––––––––––––––––––––––––––––-
1 | 0:00.00 | 2:17.42 | 0 | 10316
2 | 2:17.42 | 2:16.18 | 10317 | 20534
3 | 4:33.60 | 2:26.42 | 20535 | 31526
4 | 7:00.27 | 2:26.15 | 31527 | 42491
5 | 9:26.42 | 2:36.43 | 42492 | 54234
6 | 12:03.10 | 2:13.22 | 54235 | 64231
7 | 14:16.32 | 2:18.00 | 64232 | 74581
8 | 16:34.32 | 2:06.55 | 74582 | 84086
9 | 18:41.12 | 2:13.68 | 84087 | 94129
10 | 20:55.05 | 2:42.42 | 94130 | 106321
11 | 23:37.47 | 2:01.03 | 106322 | 115399
12 | 25:38.50 | 2:20.00 | 115400 | 125899
13 | 27:58.50 | 2:31.20 | 125900 | 137244
14 | 30:29.70 | 2:14.37 | 137245 | 147331
15 | 32:44.32 | 2:09.73 | 147332 | 157079
16 | 34:54.30 | 2:15.00 | 157080 | 167204
17 | 37:09.30 | 2:15.45 | 167205 | 177374
18 | 39:25.00 | 2:11.22 | 177375 | 187221
19 | 41:36.22 | 2:06.65 | 187222 | 196736
20 | 43:43.12 | 2:22.15 | 196737 | 207401
21 | 46:05.27 | 2:22.65 | 207402 | 218116
22 | 48:28.17 | 2:19.58 | 218117 | 228599
23 | 50:48.00 | 2:14.57 | 228600 | 238706
24 | 53:02.57 | 2:23.05 | 238707 | 249436
25 | 55:25.62 | 2:25.15 | 249437 | 260326
26 | 57:51.02 | 2:15.03 | 260327 | 270454
27 | 60:06.05 | 2:17.40 | 270455 | 280769
28 | 62:23.45 | 2:03.60 | 280770 | 290054
29 | 64:27.30 | 2:13.47 | 290055 | 300076
30 | 66:41.02 | 2:22.18 | 300077 | 310744
31 | 69:03.20 | 2:11.47 | 310745 | 320616
32 | 71:14.67 | 2:24.25 | 320617 | 331441


Track 1

Filename I:\Chet Atkins - Galloping Guitar, The Early Years 1945-1954 (1993) [FLAC] {4 CD Box Bear Family BCD 15714}\Disc 3 of 4\01 - St. Louis Blues.wav

Pre-gap length 0:00:02.00

Peak level 73.2 %
Extraction speed 8.2 X
Track quality 100.0 %
Test CRC 7B0FC913
Copy CRC 7B0FC913
Accurately ripped (confidence 2) [7B807EFF] (AR v1)
Copy OK

Track 2

Filename I:\Chet Atkins - Galloping Guitar, The Early Years 1945-1954 (1993) [FLAC] {4 CD Box Bear Family BCD 15714}\Disc 3 of 4\02 - Nobody's Sweetheart.wav

Pre-gap length 0:00:02.20

Peak level 85.0 %
Extraction speed 8.7 X
Track quality 100.0 %
Test CRC 2ECCEEE5
Copy CRC 2ECCEEE5
Accurately ripped (confidence 2) [0EA9A0BB] (AR v1)
Copy OK

Track 3

Filename I:\Chet Atkins - Galloping Guitar, The Early Years 1945-1954 (1993) [FLAC] {4 CD Box Bear Family BCD 15714}\Disc 3 of 4\03 - Lover Come Back To Me.wav

Pre-gap length 0:00:03.60

Peak level 94.7 %
Extraction speed 9.0 X
Track quality 100.0 %
Test CRC 69A49E62
Copy CRC 69A49E62
Accurately ripped (confidence 2) [B560C1D2] (AR v1)
Copy OK

Track 4

Filename I:\Chet Atkins - Galloping Guitar, The Early Years 1945-1954 (1993) [FLAC] {4 CD Box Bear Family BCD 15714}\Disc 3 of 4\04 - Stephen Foster Medley.wav

Pre-gap length 0:00:02.20

Peak level 62.8 %
Extraction speed 9.5 X
Track quality 100.0 %
Test CRC 900A961D
Copy CRC 900A961D
Accurately ripped (confidence 2) [B578B715] (AR v1)
Copy OK

Track 5

Filename I:\Chet Atkins - Galloping Guitar, The Early Years 1945-1954 (1993) [FLAC] {4 CD Box Bear Family BCD 15714}\Disc 3 of 4\05 - Hangover Blues.wav

Pre-gap length 0:00:02.67

Peak level 70.5 %
Extraction speed 10.1 X
Track quality 100.0 %
Test CRC 0148156D
Copy CRC 0148156D
Accurately ripped (confidence 2) [9413BACA] (AR v1)
Copy OK

Track 6

Filename I:\Chet Atkins - Galloping Guitar, The Early Years 1945-1954 (1993) [FLAC] {4 CD Box Bear Family BCD 15714}\Disc 3 of 4\06 - Imagination.wav

Pre-gap length 0:00:02.65

Peak level 77.1 %
Extraction speed 10.3 X
Track quality 100.0 %
Test CRC 309413EF
Copy CRC 309413EF
Accurately ripped (confidence 2) [A47B33DD] (AR v1)
Copy OK

Track 7

Filename I:\Chet Atkins - Galloping Guitar, The Early Years 1945-1954 (1993) [FLAC] {4 CD Box Bear Family BCD 15714}\Disc 3 of 4\07 - Black Mountain Rag.wav

Pre-gap length 0:00:02.60

Peak level 72.1 %
Extraction speed 10.6 X
Track quality 100.0 %
Test CRC 98982E81
Copy CRC 98982E81
Accurately ripped (confidence 2) [43CDF6E7] (AR v1)
Copy OK

Track 8

Filename I:\Chet Atkins - Galloping Guitar, The Early Years 1945-1954 (1993) [FLAC] {4 CD Box Bear Family BCD 15714}\Disc 3 of 4\08 - Guitar Polka (vocal Rosalie Allen).wav

Pre-gap length 0:00:03.45

Peak level 60.0 %
Extraction speed 10.9 X
Track quality 100.0 %
Test CRC 37BEABFA
Copy CRC 37BEABFA
Accurately ripped (confidence 2) [C8565BFB] (AR v1)
Copy OK

Track 9

Filename I:\Chet Atkins - Galloping Guitar, The Early Years 1945-1954 (1993) [FLAC] {4 CD Box Bear Family BCD 15714}\Disc 3 of 4\09 - Dream Train (vocal Rosalie Allen).wav

Pre-gap length 0:00:02.50

Peak level 65.0 %
Extraction speed 11.2 X
Track quality 100.0 %
Test CRC 25BC5408
Copy CRC 25BC5408
Accurately ripped (confidence 2) [F43D068D] (AR v1)
Copy OK

Track 10

Filename I:\Chet Atkins - Galloping Guitar, The Early Years 1945-1954 (1993) [FLAC] {4 CD Box Bear Family BCD 15714}\Disc 3 of 4\10 - Meet Mr. Callaghan.wav

Pre-gap length 0:00:03.25

Peak level 65.9 %
Extraction speed 11.9 X
Track quality 100.0 %
Test CRC AFDB1983
Copy CRC AFDB1983
Accurately ripped (confidence 2) [A231302A] (AR v1)
Copy OK

Track 11

Filename I:\Chet Atkins - Galloping Guitar, The Early Years 1945-1954 (1993) [FLAC] {4 CD Box Bear Family BCD 15714}\Disc 3 of 4\11 - Chinatown, My Chinatown.wav

Pre-gap length 0:00:02.62

Peak level 87.7 %
Extraction speed 11.9 X
Track quality 100.0 %
Test CRC 994A3F0F
Copy CRC 994A3F0F
Accurately ripped (confidence 2) [A2D3832A] (AR v1)
Copy OK

Track 12

Filename I:\Chet Atkins - Galloping Guitar, The Early Years 1945-1954 (1993) [FLAC] {4 CD Box Bear Family BCD 15714}\Disc 3 of 4\12 - High Rockin' Swing.wav

Pre-gap length 0:00:03.13

Peak level 87.1 %
Extraction speed 12.0 X
Track quality 100.0 %
Test CRC D375C3E8
Copy CRC D375C3E8
Accurately ripped (confidence 2) [64A9DE56] (AR v1)
Copy OK

Track 13

Filename I:\Chet Atkins - Galloping Guitar, The Early Years 1945-1954 (1993) [FLAC] {4 CD Box Bear Family BCD 15714}\Disc 3 of 4\13 - Pig Leaf Rag.wav

Pre-gap length 0:00:01.73

Peak level 86.9 %
Extraction speed 12.3 X
Track quality 100.0 %
Test CRC A8BAAEC2
Copy CRC A8BAAEC2
Accurately ripped (confidence 2) [A096A278] (AR v1)
Copy OK

Track 14

Filename I:\Chet Atkins - Galloping Guitar, The Early Years 1945-1954 (1993) [FLAC] {4 CD Box Bear Family BCD 15714}\Disc 3 of 4\14 - Oh By Jingo!.wav

Pre-gap length 0:00:03.28

Peak level 70.4 %
Extraction speed 12.3 X
Track quality 100.0 %
Test CRC F2F73206
Copy CRC F2F73206
Accurately ripped (confidence 2) [61A284F1] (AR v1)
Copy OK

Track 15

Filename I:\Chet Atkins - Galloping Guitar, The Early Years 1945-1954 (1993) [FLAC] {4 CD Box Bear Family BCD 15714}\Disc 3 of 4\15 - Hello My Baby.wav

Pre-gap length 0:00:02.20

Peak level 67.7 %
Extraction speed 12.4 X
Track quality 100.0 %
Test CRC A3E72281
Copy CRC A3E72281
Accurately ripped (confidence 2) [8AE45580] (AR v1)
Copy OK

Track 16

Filename I:\Chet Atkins - Galloping Guitar, The Early Years 1945-1954 (1993) [FLAC] {4 CD Box Bear Family BCD 15714}\Disc 3 of 4\16 - The Bells Of St. Mary's.wav

Pre-gap length 0:00:02.55

Peak level 84.3 %
Extraction speed 12.9 X
Track quality 100.0 %
Test CRC B898B27F
Copy CRC B898B27F
Accurately ripped (confidence 2) [9EF5F56D] (AR v1)
Copy OK

Track 17

Filename I:\Chet Atkins - Galloping Guitar, The Early Years 1945-1954 (1993) [FLAC] {4 CD Box Bear Family BCD 15714}\Disc 3 of 4\17 - Country Gentleman.wav

Pre-gap length 0:00:03.48

Peak level 86.3 %
Extraction speed 13.7 X
Track quality 100.0 %
Test CRC CF81F173
Copy CRC CF81F173
Accurately ripped (confidence 2) [85D26D35] (AR v1)
Copy OK

Track 18

Filename I:\Chet Atkins - Galloping Guitar, The Early Years 1945-1954 (1993) [FLAC] {4 CD Box Bear Family BCD 15714}\Disc 3 of 4\18 - Memphis Blues.wav

Pre-gap length 0:00:02.70

Peak level 79.9 %
Extraction speed 13.8 X
Track quality 100.0 %
Test CRC DA693812
Copy CRC DA693812
Accurately ripped (confidence 2) [AFAC7C3D] (AR v1)
Copy OK

Track 19

Filename I:\Chet Atkins - Galloping Guitar, The Early Years 1945-1954 (1993) [FLAC] {4 CD Box Bear Family BCD 15714}\Disc 3 of 4\19 - Alice Blue Gown.wav

Pre-gap length 0:00:04.50

Peak level 66.3 %
Extraction speed 13.8 X
Track quality 100.0 %
Test CRC 7B86C81E
Copy CRC 7B86C81E
Accurately ripped (confidence 2) [67510D63] (AR v1)
Copy OK

Track 20

Filename I:\Chet Atkins - Galloping Guitar, The Early Years 1945-1954 (1993) [FLAC] {4 CD Box Bear Family BCD 15714}\Disc 3 of 4\20 - 12th Street Rag.wav

Pre-gap length 0:00:04.40

Peak level 70.3 %
Extraction speed 14.4 X
Track quality 100.0 %
Test CRC EA2A8A86
Copy CRC EA2A8A86
Accurately ripped (confidence 2) [F0C25D30] (AR v1)
Copy OK

Track 21

Filename I:\Chet Atkins - Galloping Guitar, The Early Years 1945-1954 (1993) [FLAC] {4 CD Box Bear Family BCD 15714}\Disc 3 of 4\21 - Peeping Tom.wav

Pre-gap length 0:00:04.20

Peak level 88.5 %
Extraction speed 14.7 X
Track quality 100.0 %
Test CRC 74190E32
Copy CRC 74190E32
Accurately ripped (confidence 2) [D6C9B067] (AR v1)
Copy OK

Track 22

Filename I:\Chet Atkins - Galloping Guitar, The Early Years 1945-1954 (1993) [FLAC] {4 CD Box Bear Family BCD 15714}\Disc 3 of 4\22 - Three O'Clock In The Morning.wav

Pre-gap length 0:00:04.37

Peak level 98.0 %
Extraction speed 10.9 X
Track quality 99.9 %
Test CRC C1C148D6
Copy CRC C1C148D6
Accurately ripped (confidence 2) [3596F40F] (AR v1)
Copy OK

Track 23

Filename I:\Chet Atkins - Galloping Guitar, The Early Years 1945-1954 (1993) [FLAC] {4 CD Box Bear Family BCD 15714}\Disc 3 of 4\23 - Georgia Camp Meeting.wav

Pre-gap length 0:00:04.03

Peak level 80.7 %
Extraction speed 10.8 X
Track quality 99.9 %
Test CRC B5035012
Copy CRC B5035012
Accurately ripped (confidence 2) [6587616B] (AR v1)
Copy OK

Track 24

Filename I:\Chet Atkins - Galloping Guitar, The Early Years 1945-1954 (1993) [FLAC] {4 CD Box Bear Family BCD 15714}\Disc 3 of 4\24 - City Slicker.wav

Pre-gap length 0:00:03.20

Peak level 72.5 %
Extraction speed 11.2 X
Track quality 99.9 %
Test CRC C967CAB4
Copy CRC C967CAB4
Accurately ripped (confidence 2) [FFD3DB34] (AR v1)
Copy OK

Track 25

Filename I:\Chet Atkins - Galloping Guitar, The Early Years 1945-1954 (1993) [FLAC] {4 CD Box Bear Family BCD 15714}\Disc 3 of 4\25 - Dill Pickle Rag.wav

Pre-gap length 0:00:03.45

Peak level 87.7 %
Extraction speed 15.4 X
Track quality 100.0 %
Test CRC 44C76FC1
Copy CRC 44C76FC1
Accurately ripped (confidence 2) [71B47530] (AR v1)
Copy OK

Track 26

Filename I:\Chet Atkins - Galloping Guitar, The Early Years 1945-1954 (1993) [FLAC] {4 CD Box Bear Family BCD 15714}\Disc 3 of 4\26 - Rubber Doll Rag.wav

Pre-gap length 0:00:02.40

Peak level 77.1 %
Extraction speed 15.0 X
Track quality 100.0 %
Test CRC F179216F
Copy CRC F179216F
Accurately ripped (confidence 2) [55B831E3] (AR v1)
Copy OK

Track 27

Filename I:\Chet Atkins - Galloping Guitar, The Early Years 1945-1954 (1993) [FLAC] {4 CD Box Bear Family BCD 15714}\Disc 3 of 4\27 - Beautiful Ohio (version 1).wav

Pre-gap length 0:00:04.38

Peak level 81.7 %
Extraction speed 15.3 X
Track quality 100.0 %
Test CRC BE38AD29
Copy CRC BE38AD29
Accurately ripped (confidence 2) [BBC4FC63] (AR v1)
Copy OK

Track 28

Filename I:\Chet Atkins - Galloping Guitar, The Early Years 1945-1954 (1993) [FLAC] {4 CD Box Bear Family BCD 15714}\Disc 3 of 4\28 - Kentucky Derby.wav

Pre-gap length 0:00:02.38

Peak level 69.7 %
Extraction speed 10.9 X
Track quality 99.9 %
Test CRC 25376B0A
Copy CRC 25376B0A
Accurately ripped (confidence 2) [75E41F1A] (AR v1)
Copy OK

Track 29

Filename I:\Chet Atkins - Galloping Guitar, The Early Years 1945-1954 (1993) [FLAC] {4 CD Box Bear Family BCD 15714}\Disc 3 of 4\29 - Wildwood Flower.wav

Pre-gap length 0:00:02.60

Peak level 63.9 %
Extraction speed 15.8 X
Track quality 100.0 %
Test CRC 35F33647
Copy CRC 35F33647
Accurately ripped (confidence 2) [33CE1515] (AR v1)
Copy OK

Track 30

Filename I:\Chet Atkins - Galloping Guitar, The Early Years 1945-1954 (1993) [FLAC] {4 CD Box Bear Family BCD 15714}\Disc 3 of 4\30 - Guitars On Parade.wav

Pre-gap length 0:00:03.27

Peak level 62.2 %
Extraction speed 14.9 X
Track quality 100.0 %
Test CRC BBB92D11
Copy CRC BBB92D11
Accurately ripped (confidence 2) [C70ECDA4] (AR v1)
Copy OK

Track 31

Filename I:\Chet Atkins - Galloping Guitar, The Early Years 1945-1954 (1993) [FLAC] {4 CD Box Bear Family BCD 15714}\Disc 3 of 4\31 - Simple Simon.wav

Pre-gap length 0:00:02.58

Peak level 68.9 %
Extraction speed 13.7 X
Track quality 100.0 %
Test CRC B6058A04
Copy CRC B6058A04
Accurately ripped (confidence 2) [36877AB3] (AR v1)
Copy OK

Track 32

Filename I:\Chet Atkins - Galloping Guitar, The Early Years 1945-1954 (1993) [FLAC] {4 CD Box Bear Family BCD 15714}\Disc 3 of 4\32 - Rubber Doll Rag (alt.).wav

Pre-gap length 0:00:02.50

Peak level 87.5 %
Extraction speed 15.2 X
Track quality 100.0 %
Test CRC AFE2300A
Copy CRC AFE2300A
Accurately ripped (confidence 2) [37B77683] (AR v1)
Copy OK


All tracks accurately ripped

No errors occurred

End of status report

==== Log checksum D71CE6BA80FA05E9E2C982E422BBAE88BD33051E9594691A0F6B2B1E78AFAE48 ====





Exact Audio Copy V1.0 beta 2 from 29. April 2011

EAC extraction logfile from 7. July 2011, 18:34

Chet Atkins / Galloping Guitar - The Early Years, CD 4

Used drive : PLEXTOR CD-R PREMIUM Adapter: 0 ID: 1

Read mode : Secure
Utilize accurate stream : Yes
Defeat audio cache : Yes
Make use of C2 pointers : No

Read offset correction : 30
Overread into Lead-In and Lead-Out : Yes
Fill up missing offset samples with silence : Yes
Delete leading and trailing silent blocks : No
Null samples used in CRC calculations : Yes
Used interface : Installed external ASPI interface
Gap handling : Appended to previous track

Used output format : User Defined Encoder
Selected bitrate : 768 kBit/s
Quality : High
Add ID3 tag : No
Command line compressor : C:\Program Files\Exact Audio Copy\FLAC\FLAC.EXE
Additional command line options : -8 -V -T "ARTIST=%artist%" -T "TITLE=%title%" -T "ALBUM=%albumtitle%" -T "DATE=%year%" -T "TRACKNUMBER=%tracknr%" -T "TOTALTRACKS=%numtracks%" -T "GENRE=%genre%" -T "ALBUMARTIST=%albumartist%" -T "ALBUM ARTIST=%albumartist%


TOC of the extracted CD

Track | Start | Length | Start sector | End sector
––––––––––––––––––––––––––––-
1 | 0:00.00 | 2:54.25 | 0 | 13074
2 | 2:54.25 | 2:07.07 | 13075 | 22606
3 | 5:01.32 | 2:09.58 | 22607 | 32339
4 | 7:11.15 | 2:23.30 | 32340 | 43094
5 | 9:34.45 | 2:20.07 | 43095 | 53601
6 | 11:54.52 | 2:45.40 | 53602 | 66016
7 | 14:40.17 | 2:29.28 | 66017 | 77219
8 | 17:09.45 | 2:27.47 | 77220 | 88291
9 | 19:37.17 | 2:29.00 | 88292 | 99466
10 | 22:06.17 | 2:53.00 | 99467 | 112441
11 | 24:59.17 | 2:49.03 | 112442 | 125119
12 | 27:48.20 | 2:36.00 | 125120 | 136819
13 | 30:24.20 | 2:20.20 | 136820 | 147339
14 | 32:44.40 | 3:22.15 | 147340 | 162504
15 | 36:06.55 | 2:27.12 | 162505 | 173541
16 | 38:33.67 | 2:35.18 | 173542 | 185184
17 | 41:09.10 | 2:34.17 | 185185 | 196751
18 | 43:43.27 | 2:58.08 | 196752 | 210109
19 | 46:41.35 | 2:42.57 | 210110 | 222316
20 | 49:24.17 | 2:01.45 | 222317 | 231436
21 | 51:25.62 | 2:27.35 | 231437 | 242496
22 | 53:53.22 | 2:17.33 | 242497 | 252804
23 | 56:10.55 | 2:35.10 | 252805 | 264439
24 | 58:45.65 | 3:23.52 | 264440 | 279716
25 | 62:09.42 | 2:43.18 | 279717 | 291959
26 | 64:52.60 | 3:28.07 | 291960 | 307566
27 | 68:20.67 | 2:35.08 | 307567 | 319199
28 | 70:56.00 | 2:17.50 | 319200 | 329524
29 | 73:13.50 | 2:09.60 | 329525 | 339259


Track 1

Filename I:\Chet Atkins - Galloping Guitar, The Early Years 1945-1954 (1993) [FLAC] {4 CD Box Bear Family BCD 15714}\Disc 4 of 4\01 - Get Up and Go (vocal Chet Atkins).wav

Pre-gap length 0:00:02.00

Peak level 84.8 %
Extraction speed 8.5 X
Track quality 100.0 %
Test CRC 161EB412
Copy CRC 161EB412
Accurately ripped (confidence 1) [E1479661] (AR v1)
Copy OK

Track 2

Filename I:\Chet Atkins - Galloping Guitar, The Early Years 1945-1954 (1993) [FLAC] {4 CD Box Bear Family BCD 15714}\Disc 4 of 4\02 - Pagan Love Song.wav

Pre-gap length 0:00:02.30

Peak level 83.7 %
Extraction speed 8.6 X
Track quality 100.0 %
Test CRC 8998C2E5
Copy CRC 8998C2E5
Accurately ripped (confidence 1) [E8052AF5] (AR v1)
Copy OK

Track 3

Filename I:\Chet Atkins - Galloping Guitar, The Early Years 1945-1954 (1993) [FLAC] {4 CD Box Bear Family BCD 15714}\Disc 4 of 4\03 - Beautiful Ohio (version 2).wav

Pre-gap length 0:00:02.70

Peak level 87.8 %
Extraction speed 7.3 X
Track quality 99.9 %
Test CRC 5DF06246
Copy CRC 5DF06246
Accurately ripped (confidence 1) [187AE571] (AR v1)
Copy OK

Track 4

Filename I:\Chet Atkins - Galloping Guitar, The Early Years 1945-1954 (1993) [FLAC] {4 CD Box Bear Family BCD 15714}\Disc 4 of 4\04 - Downhill Drag.wav

Pre-gap length 0:00:02.28

Peak level 90.8 %
Extraction speed 7.6 X
Track quality 99.9 %
Test CRC 2E763B39
Copy CRC 2E763B39
Accurately ripped (confidence 1) [D3F2F987] (AR v1)
Copy OK

Track 5

Filename I:\Chet Atkins - Galloping Guitar, The Early Years 1945-1954 (1993) [FLAC] {4 CD Box Bear Family BCD 15714}\Disc 4 of 4\05 - Avalon.wav

Pre-gap length 0:00:03.20

Peak level 77.6 %
Extraction speed 7.9 X
Track quality 99.9 %
Test CRC B8EB067F
Copy CRC B8EB067F
Accurately ripped (confidence 1) [06FAF19C] (AR v1)
Copy OK

Track 6

Filename I:\Chet Atkins - Galloping Guitar, The Early Years 1945-1954 (1993) [FLAC] {4 CD Box Bear Family BCD 15714}\Disc 4 of 4\06 - Sunrize Serenade.wav

Pre-gap length 0:00:03.55

Peak level 86.2 %
Extraction speed 10.7 X
Track quality 100.0 %
Test CRC 43EC0998
Copy CRC 43EC0998
Accurately ripped (confidence 1) [F44CDACC] (AR v1)
Copy OK

Track 7

Filename I:\Chet Atkins - Galloping Guitar, The Early Years 1945-1954 (1993) [FLAC] {4 CD Box Bear Family BCD 15714}\Disc 4 of 4\07 - San Antonio Rose.wav

Pre-gap length 0:00:02.67

Peak level 72.2 %
Extraction speed 8.8 X
Track quality 99.9 %
Test CRC FF55E2A9
Copy CRC FF55E2A9
Accurately ripped (confidence 1) [C38510C9] (AR v1)
Copy OK

Track 8

Filename I:\Chet Atkins - Galloping Guitar, The Early Years 1945-1954 (1993) [FLAC] {4 CD Box Bear Family BCD 15714}\Disc 4 of 4\08 - Set A Spell (vocal Red Kirk).wav

Pre-gap length 0:00:02.33

Peak level 79.3 %
Extraction speed 11.3 X
Track quality 100.0 %
Test CRC 21812BDC
Copy CRC 21812BDC
Track not present in AccurateRip database
Copy OK

Track 9

Filename I:\Chet Atkins - Galloping Guitar, The Early Years 1945-1954 (1993) [FLAC] {4 CD Box Bear Family BCD 15714}\Disc 4 of 4\09 - Mister Misery (duet vocal).wav

Pre-gap length 0:00:03.27

Peak level 70.5 %
Extraction speed 11.8 X
Track quality 100.0 %
Test CRC FE0C302B
Copy CRC FE0C302B
Accurately ripped (confidence 1) [A41D41D5] (AR v1)
Copy OK

Track 10

Filename I:\Chet Atkins - Galloping Guitar, The Early Years 1945-1954 (1993) [FLAC] {4 CD Box Bear Family BCD 15714}\Disc 4 of 4\10 - Get Up and Go (vocal Red Kirk).wav

Pre-gap length 0:00:03.30

Peak level 73.9 %
Extraction speed 9.5 X
Track quality 99.9 %
Test CRC D8BA767B
Copy CRC D8BA767B
Accurately ripped (confidence 1) [FEE97B52] (AR v1)
Copy OK

Track 11

Filename I:\Chet Atkins - Galloping Guitar, The Early Years 1945-1954 (1993) [FLAC] {4 CD Box Bear Family BCD 15714}\Disc 4 of 4\11 - South.wav

Pre-gap length 0:00:03.42

Peak level 82.2 %
Extraction speed 12.6 X
Track quality 100.0 %
Test CRC 6D775413
Copy CRC 6D775413
Accurately ripped (confidence 1) [773A9FA5] (AR v1)
Copy OK

Track 12

Filename I:\Chet Atkins - Galloping Guitar, The Early Years 1945-1954 (1993) [FLAC] {4 CD Box Bear Family BCD 15714}\Disc 4 of 4\12 - Alabama Jubilee.wav

Pre-gap length 0:00:03.70

Peak level 70.5 %
Extraction speed 10.0 X
Track quality 99.9 %
Test CRC 775CACAD
Copy CRC 775CACAD
Accurately ripped (confidence 1) [EA2464DD] (AR v1)
Copy OK

Track 13

Filename I:\Chet Atkins - Galloping Guitar, The Early Years 1945-1954 (1993) [FLAC] {4 CD Box Bear Family BCD 15714}\Disc 4 of 4\13 - Corrine, Corrina.wav

Pre-gap length 0:00:03.10

Peak level 57.3 %
Extraction speed 12.9 X
Track quality 100.0 %
Test CRC 997D4DEF
Copy CRC 997D4DEF
Accurately ripped (confidence 1) [6CDEBD1C] (AR v1)
Copy OK

Track 14

Filename I:\Chet Atkins - Galloping Guitar, The Early Years 1945-1954 (1993) [FLAC] {4 CD Box Bear Family BCD 15714}\Disc 4 of 4\14 - Indiana (Back Home In Indiana).wav

Pre-gap length 0:00:03.00

Peak level 78.2 %
Extraction speed 10.0 X
Track quality 99.9 %
Test CRC 1D6FD3CC
Copy CRC 1D6FD3CC
Accurately ripped (confidence 1) [A7C7E6DF] (AR v1)
Copy OK

Track 15

Filename I:\Chet Atkins - Galloping Guitar, The Early Years 1945-1954 (1993) [FLAC] {4 CD Box Bear Family BCD 15714}\Disc 4 of 4\15 - Red Wing.wav

Pre-gap length 0:00:02.73

Peak level 70.2 %
Extraction speed 12.0 X
Track quality 100.0 %
Test CRC 3152DDCE
Copy CRC 3152DDCE
Accurately ripped (confidence 1) [F1EF95A1] (AR v1)
Copy OK

Track 16

Filename I:\Chet Atkins - Galloping Guitar, The Early Years 1945-1954 (1993) [FLAC] {4 CD Box Bear Family BCD 15714}\Disc 4 of 4\16 - Frankie And Johnnie.wav

Pre-gap length 0:00:02.62

Peak level 62.4 %
Extraction speed 12.0 X
Track quality 100.0 %
Test CRC AF523973
Copy CRC AF523973
Accurately ripped (confidence 1) [805D1304] (AR v1)
Copy OK

Track 17

Filename I:\Chet Atkins - Galloping Guitar, The Early Years 1945-1954 (1993) [FLAC] {4 CD Box Bear Family BCD 15714}\Disc 4 of 4\17 - A Gay Ranchero.wav

Pre-gap length 0:00:02.33

Peak level 60.3 %
Extraction speed 13.1 X
Track quality 100.0 %
Test CRC EBE48509
Copy CRC EBE48509
Accurately ripped (confidence 1) [6DB09553] (AR v1)
Copy OK

Track 18

Filename I:\Chet Atkins - Galloping Guitar, The Early Years 1945-1954 (1993) [FLAC] {4 CD Box Bear Family BCD 15714}\Disc 4 of 4\18 - Ballin' The Jack.wav

Pre-gap length 0:00:03.65

Peak level 87.4 %
Extraction speed 12.9 X
Track quality 100.0 %
Test CRC 942D2CC0
Copy CRC 942D2CC0
Accurately ripped (confidence 1) [2A9FE966] (AR v1)
Copy OK

Track 19

Filename I:\Chet Atkins - Galloping Guitar, The Early Years 1945-1954 (1993) [FLAC] {4 CD Box Bear Family BCD 15714}\Disc 4 of 4\19 - Honeysuckle Rose.wav

Pre-gap length 0:00:02.73

Peak level 59.1 %
Extraction speed 12.3 X
Track quality 100.0 %
Test CRC FC12146B
Copy CRC FC12146B
Accurately ripped (confidence 1) [8709FA59] (AR v1)
Copy OK

Track 20

Filename I:\Chet Atkins - Galloping Guitar, The Early Years 1945-1954 (1993) [FLAC] {4 CD Box Bear Family BCD 15714}\Disc 4 of 4\20 - Darktown Strutters Ball (with Hank Snow).wav

Pre-gap length 0:00:04.02

Peak level 86.9 %
Extraction speed 14.6 X
Track quality 100.0 %
Test CRC B3836247
Copy CRC B3836247
Accurately ripped (confidence 1) [9D6B6396] (AR v1)
Copy OK

Track 21

Filename I:\Chet Atkins - Galloping Guitar, The Early Years 1945-1954 (1993) [FLAC] {4 CD Box Bear Family BCD 15714}\Disc 4 of 4\21 - The Old Spinning Wheel (with Hank Snow).wav

Pre-gap length 0:00:03.17

Peak level 75.0 %
Extraction speed 15.2 X
Track quality 100.0 %
Test CRC BB11EC47
Copy CRC BB11EC47
Accurately ripped (confidence 1) [72DAEC5F] (AR v1)
Copy OK

Track 22

Filename I:\Chet Atkins - Galloping Guitar, The Early Years 1945-1954 (1993) [FLAC] {4 CD Box Bear Family BCD 15714}\Disc 4 of 4\22 - Silver Bells (with Hank Snow).wav

Pre-gap length 0:00:02.50

Peak level 70.3 %
Extraction speed 11.2 X
Track quality 99.9 %
Test CRC D98A343C
Copy CRC D98A343C
Accurately ripped (confidence 1) [7E3783EC] (AR v1)
Copy OK

Track 23

Filename I:\Chet Atkins - Galloping Guitar, The Early Years 1945-1954 (1993) [FLAC] {4 CD Box Bear Family BCD 15714}\Disc 4 of 4\23 - Under The Double Eagle (with Hank Snow).wav

Pre-gap length 0:00:03.40

Peak level 78.2 %
Extraction speed 15.6 X
Track quality 100.0 %
Test CRC 79009288
Copy CRC 79009288
Accurately ripped (confidence 1) [37A0CCE0] (AR v1)
Copy OK

Track 24

Filename I:\Chet Atkins - Galloping Guitar, The Early Years 1945-1954 (1993) [FLAC] {4 CD Box Bear Family BCD 15714}\Disc 4 of 4\24 - The Birth Of The Blues.wav

Pre-gap length 0:00:03.65

Peak level 66.7 %
Extraction speed 15.6 X
Track quality 100.0 %
Test CRC DA73D698
Copy CRC DA73D698
Accurately ripped (confidence 1) [3229E122] (AR v1)
Copy OK

Track 25

Filename I:\Chet Atkins - Galloping Guitar, The Early Years 1945-1954 (1993) [FLAC] {4 CD Box Bear Family BCD 15714}\Disc 4 of 4\25 - Have You Ever Been Lonely.wav

Pre-gap length 0:00:03.35

Peak level 100.0 %
Extraction speed 16.0 X
Track quality 100.0 %
Test CRC BE597B46
Copy CRC BE597B46
Accurately ripped (confidence 1) [B0C2136D] (AR v1)
Copy OK

Track 26

Filename I:\Chet Atkins - Galloping Guitar, The Early Years 1945-1954 (1993) [FLAC] {4 CD Box Bear Family BCD 15714}\Disc 4 of 4\26 - Caravan.wav

Pre-gap length 0:00:02.58

Peak level 58.0 %
Extraction speed 16.2 X
Track quality 100.0 %
Test CRC 6536DBDF
Copy CRC 6536DBDF
Accurately ripped (confidence 1) [B0B23AE7] (AR v1)
Copy OK

Track 27

Filename I:\Chet Atkins - Galloping Guitar, The Early Years 1945-1954 (1993) [FLAC] {4 CD Box Bear Family BCD 15714}\Disc 4 of 4\27 - Old Man River.wav

Pre-gap length 0:00:02.70

Peak level 81.6 %
Extraction speed 16.5 X
Track quality 100.0 %
Test CRC 119B8AE6
Copy CRC 119B8AE6
Accurately ripped (confidence 1) [FEB7F5C9] (AR v1)
Copy OK

Track 28

Filename I:\Chet Atkins - Galloping Guitar, The Early Years 1945-1954 (1993) [FLAC] {4 CD Box Bear Family BCD 15714}\Disc 4 of 4\28 - Mister Sandman.wav

Pre-gap length 0:00:04.03

Peak level 87.9 %
Extraction speed 16.6 X
Track quality 100.0 %
Test CRC A1367F55
Copy CRC A1367F55
Accurately ripped (confidence 1) [7977A59F] (AR v1)
Copy OK

Track 29

Filename I:\Chet Atkins - Galloping Guitar, The Early Years 1945-1954 (1993) [FLAC] {4 CD Box Bear Family BCD 15714}\Disc 4 of 4\29 - New Spanish Two Step.wav

Pre-gap length 0:00:02.48

Peak level 90.1 %
Extraction speed 13.6 X
Track quality 99.9 %
Test CRC 2EF21858
Copy CRC 2EF21858
Accurately ripped (confidence 1) [68AD0A89] (AR v1)
Copy OK


28 track(s) accurately ripped
1 track(s) not present in the AccurateRip database

Some tracks could not be verified as accurate

No errors occurred

End of status report

==== Log checksum 776898C727B355208C1776F1C677E72370EE26F2A00AACCF693440C5F45B9DC7 ====


Thanks to DJGarrik!!