Subcategories

The Byrds - Sweetheart Of The Rodeo (1968) [Japan Blu-Spec SICP-30414]

Posted By: Sartre
The Byrds - Sweetheart Of The Rodeo (1968) [Japan Blu-Spec SICP-30414]

The Byrds - Sweetheart Of The Rodeo (1968) [Japan Blu-Spec SICP-30414]
Country Rock | EAC Rip | Lossless FLAC with Log+Cue+Covers -> 460MB | Nitroflare/1Fichier/UpToBox

The Byrds' Sweetheart of the Rodeo was not the first important country-rock album (Gram Parsons managed that feat with the International Submarine Band's debut Safe at Home), and The Byrds were hardly strangers to country music, dipping their toes in the twangy stuff as early as their second album. But no major band had gone so deep into the sound and feeling of classic country (without parody or condescension) as The Byrds did on Sweetheart; at a time when most rock fans viewed country as a musical "L'il Abner" routine, The Byrds dared to declare that C&W could be hip, cool, and heartfelt. Though Gram Parsons had joined the band as a pianist and lead guitarist, his deep love of C&W soon took hold, and Roger McGuinn and Chris Hillman followed his lead; significantly, the only two original songs on the album were both written by Parsons (the achingly beautiful "Hickory Wind" and "One Hundred Years from Now"), while on the rest of the set classic tunes by Merle Haggard, the Louvin Brothers, and Woody Guthrie were sandwiched between a pair of twanged-up Bob Dylan compositions. While many cite this as more of a Gram Parsons album than a Byrds set, given the strong country influence of McGuinn's and Hillman's later work, it's obvious Parsons didn't impose a style upon this band so much as he tapped into a sound that was already there, waiting to be released. If The Byrds didn't do country-rock first, they did it brilliantly, and few albums in the style are as beautiful and emotionally affecting as this.



Original Stereo Tracks
01. You Ain't Going Nowhere.flac
02. I Am A Pilgrim.flac
03. The Christian Life.flac
04. You Don't Miss Your Water.flac
05. You're Still On My Mind.flac
06. Pretty Boy Floyd.flac
07. Hickory Wind.flac
08. One Hundred Years From Now.flac
09. Blue Canadian Rockies.flac
10. Life In Prison.flac
11. Nothing Was Delivered.flac

Mono Bonus Tracks
12. You Ain't Going Nowhere (Mono Bonus).flac
13. Lazy Days (Mono Bonus).flac
14. Reputation (Mono Bonus).flac
15. I Am A Pilgrim (Single Version).flac
16. Pretty Boy Floyd (Single Version).flac

Stereo Bonus Tracks
17. Hickory Wind (Stereo Bonus).flac
18. Lazy Days (Alt Version).flac
19. Pretty Polly (Alt Version).flac
20. Life In Prison (Rehearsal).flac
21. You Don't Miss Your Water (Master Take).flac
22. The Christian Life (Master Take).flac
23. Blue Canadian Rockies (Rehearsal).flac
24. All I Have Is Memories (Master Take).flac
25. One Hundred Years From Now (Master Take).flac



Exact Audio Copy V1.0 beta 3 from 29. August 2011

EAC extraction logfile from 23. April 2014, 22:43

Byrds / Sweetheart Of The Rodeo

Used drive : HL-DT-STDVDRAM GH24NS90 Adapter: 1 ID: 0

Read mode : Secure
Utilize accurate stream : Yes
Defeat audio cache : No
Make use of C2 pointers : Yes

Read offset correction : 6
Overread into Lead-In and Lead-Out : No
Fill up missing offset samples with silence : Yes
Delete leading and trailing silent blocks : No
Null samples used in CRC calculations : Yes
Used interface : Native Win32 interface for Win NT & 2000
Gap handling : Appended to previous track

Used output format : User Defined Encoder
Selected bitrate : 1024 kBit/s
Quality : High
Add ID3 tag : Yes
Command line compressor : C:\Program Files (x86)\FLAC\metaflac.exe
Additional command line options : -8


TOC of the extracted CD

Track | Start | Length | Start sector | End sector
––––––––––––––––––––––––––––-
1 | 0:00.00 | 2:36.60 | 0 | 11759
2 | 2:36.60 | 3:40.45 | 11760 | 28304
3 | 6:17.30 | 2:32.29 | 28305 | 39733
4 | 8:49.59 | 3:49.64 | 39734 | 56972
5 | 12:39.48 | 2:25.41 | 56973 | 67888
6 | 15:05.14 | 2:36.23 | 67889 | 79611
7 | 17:41.37 | 3:33.46 | 79612 | 95632
8 | 21:15.08 | 2:42.35 | 95633 | 107817
9 | 23:57.43 | 2:04.12 | 107818 | 117129
10 | 26:01.55 | 2:47.63 | 117130 | 129717
11 | 28:49.43 | 3:29.08 | 129718 | 145400
12 | 32:18.51 | 2:51.17 | 145401 | 158242
13 | 35:09.68 | 3:25.65 | 158243 | 173682
14 | 38:35.58 | 3:10.69 | 173683 | 188001
15 | 41:46.52 | 3:39.33 | 188002 | 204459
16 | 45:26.10 | 2:35.27 | 204460 | 216111
17 | 48:01.37 | 3:41.33 | 216112 | 232719
18 | 51:42.70 | 3:19.12 | 232720 | 247656
19 | 55:02.07 | 3:38.20 | 247657 | 264026
20 | 58:40.27 | 3:19.02 | 264027 | 278953
21 | 61:59.29 | 3:51.29 | 278954 | 296307
22 | 65:50.58 | 2:31.25 | 296308 | 307657
23 | 68:22.08 | 3:02.00 | 307658 | 321307
24 | 71:24.08 | 2:50.57 | 321308 | 334114
25 | 74:14.65 | 2:59.30 | 334115 | 347569


Track 1

Filename C:\Exact Audio Copy\Byrds\Sweetheart Of The Rodeo\01 You Ain't Going Nowhere.wav

Pre-gap length 0:00:02.00

Peak level 95.9 %
Extraction speed 3.9 X
Track quality 99.8 %
Test CRC 5A958705
Copy CRC 5A958705
Track not present in AccurateRip database
Copy OK

Track 2

Filename C:\Exact Audio Copy\Byrds\Sweetheart Of The Rodeo\02 I Am A Pilgrim.wav

Pre-gap length 0:00:02.52

Peak level 95.8 %
Extraction speed 4.5 X
Track quality 100.0 %
Test CRC 6E946722
Copy CRC 6E946722
Track not present in AccurateRip database
Copy OK

Track 3

Filename C:\Exact Audio Copy\Byrds\Sweetheart Of The Rodeo\03 The Christian Life.wav

Pre-gap length 0:00:01.65

Peak level 96.1 %
Extraction speed 4.8 X
Track quality 100.0 %
Test CRC 8179438B
Copy CRC 8179438B
Track not present in AccurateRip database
Copy OK

Track 4

Filename C:\Exact Audio Copy\Byrds\Sweetheart Of The Rodeo\04 You Don't Miss Your Water.wav

Pre-gap length 0:00:01.73

Peak level 96.5 %
Extraction speed 5.1 X
Track quality 100.0 %
Test CRC C05CCBBF
Copy CRC C05CCBBF
Track not present in AccurateRip database
Copy OK

Track 5

Filename C:\Exact Audio Copy\Byrds\Sweetheart Of The Rodeo\05 You're Still On My Mind.wav

Pre-gap length 0:00:01.38

Peak level 97.1 %
Extraction speed 5.0 X
Track quality 100.0 %
Test CRC 413A946A
Copy CRC 413A946A
Track not present in AccurateRip database
Copy OK

Track 6

Filename C:\Exact Audio Copy\Byrds\Sweetheart Of The Rodeo\06 Pretty Boy Floyd.wav

Pre-gap length 0:00:01.06

Peak level 96.0 %
Extraction speed 5.3 X
Track quality 100.0 %
Test CRC 98B72C9A
Copy CRC 98B72C9A
Track not present in AccurateRip database
Copy OK

Track 7

Filename C:\Exact Audio Copy\Byrds\Sweetheart Of The Rodeo\07 Hickory Wind.wav

Pre-gap length 0:00:01.43

Peak level 96.1 %
Extraction speed 5.9 X
Track quality 100.0 %
Test CRC A6B25585
Copy CRC A6B25585
Track not present in AccurateRip database
Copy OK

Track 8

Filename C:\Exact Audio Copy\Byrds\Sweetheart Of The Rodeo\08 One Hundred Years From Now.wav

Pre-gap length 0:00:01.49

Peak level 96.2 %
Extraction speed 5.5 X
Track quality 100.0 %
Test CRC D77C20BE
Copy CRC D77C20BE
Track not present in AccurateRip database
Copy OK

Track 9

Filename C:\Exact Audio Copy\Byrds\Sweetheart Of The Rodeo\09 Blue Canadian Rockies.wav

Pre-gap length 0:00:01.43

Peak level 96.1 %
Extraction speed 5.8 X
Track quality 100.0 %
Test CRC EFA65753
Copy CRC EFA65753
Track not present in AccurateRip database
Copy OK

Track 10

Filename C:\Exact Audio Copy\Byrds\Sweetheart Of The Rodeo\10 Life In Prison.wav

Pre-gap length 0:00:01.39

Peak level 96.2 %
Extraction speed 6.0 X
Track quality 100.0 %
Test CRC 4FB463DA
Copy CRC 4FB463DA
Track not present in AccurateRip database
Copy OK

Track 11

Filename C:\Exact Audio Copy\Byrds\Sweetheart Of The Rodeo\11 Nothing Was Delivered.wav

Pre-gap length 0:00:01.14

Peak level 96.4 %
Extraction speed 6.7 X
Track quality 100.0 %
Test CRC 402DFD19
Copy CRC 402DFD19
Track not present in AccurateRip database
Copy OK

Track 12

Filename C:\Exact Audio Copy\Byrds\Sweetheart Of The Rodeo\12 You Ain't Going Nowhere (Mono Bonus).wav

Pre-gap length 0:00:02.61

Peak level 91.9 %
Extraction speed 6.9 X
Track quality 100.0 %
Test CRC DB744C10
Copy CRC DB744C10
Track not present in AccurateRip database
Copy OK

Track 13

Filename C:\Exact Audio Copy\Byrds\Sweetheart Of The Rodeo\13 Lazy Days (Mono Bonus).wav

Pre-gap length 0:00:01.53

Peak level 96.4 %
Extraction speed 6.8 X
Track quality 99.8 %
Test CRC D18FB077
Copy CRC D18FB077
Track not present in AccurateRip database
Copy OK

Track 14

Filename C:\Exact Audio Copy\Byrds\Sweetheart Of The Rodeo\14 Reputation (Mono Bonus).wav

Pre-gap length 0:00:01.69

Peak level 95.9 %
Extraction speed 7.3 X
Track quality 100.0 %
Test CRC 0851C099
Copy CRC 0851C099
Track not present in AccurateRip database
Copy OK

Track 15

Filename C:\Exact Audio Copy\Byrds\Sweetheart Of The Rodeo\15 I Am A Pilgrim (Single Version).wav

Pre-gap length 0:00:01.63

Peak level 95.7 %
Extraction speed 7.2 X
Track quality 100.0 %
Test CRC E8971995
Copy CRC E8971995
Track not present in AccurateRip database
Copy OK

Track 16

Filename C:\Exact Audio Copy\Byrds\Sweetheart Of The Rodeo\16 Pretty Boy Floyd (Single Version).wav

Pre-gap length 0:00:02.02

Peak level 95.6 %
Extraction speed 7.2 X
Track quality 100.0 %
Test CRC 24BB6230
Copy CRC 24BB6230
Track not present in AccurateRip database
Copy OK

Track 17

Filename C:\Exact Audio Copy\Byrds\Sweetheart Of The Rodeo\17 Hickory Wind (Stereo Bonus).wav

Pre-gap length 0:00:01.57

Peak level 96.1 %
Extraction speed 7.5 X
Track quality 100.0 %
Test CRC CC5573ED
Copy CRC CC5573ED
Track not present in AccurateRip database
Copy OK

Track 18

Filename C:\Exact Audio Copy\Byrds\Sweetheart Of The Rodeo\18 Lazy Days (Alt Version).wav

Pre-gap length 0:00:01.56

Peak level 97.1 %
Extraction speed 7.7 X
Track quality 99.8 %
Test CRC 14B7BC82
Copy CRC 14B7BC82
Track not present in AccurateRip database
Copy OK

Track 19

Filename C:\Exact Audio Copy\Byrds\Sweetheart Of The Rodeo\19 Pretty Polly (Alt Version).wav

Pre-gap length 0:00:01.56

Peak level 96.5 %
Extraction speed 7.9 X
Track quality 99.9 %
Test CRC 775B9E98
Copy CRC 775B9E98
Track not present in AccurateRip database
Copy OK

Track 20

Filename C:\Exact Audio Copy\Byrds\Sweetheart Of The Rodeo\20 Life In Prison (Rehearsal).wav

Pre-gap length 0:00:01.58

Peak level 96.1 %
Extraction speed 8.2 X
Track quality 100.0 %
Test CRC F65BD35A
Copy CRC F65BD35A
Track not present in AccurateRip database
Copy OK

Track 21

Filename C:\Exact Audio Copy\Byrds\Sweetheart Of The Rodeo\21 You Don't Miss Your Water (Master Take).wav

Pre-gap length 0:00:01.63

Peak level 96.8 %
Extraction speed 8.7 X
Track quality 100.0 %
Test CRC E370C48F
Copy CRC E370C48F
Track not present in AccurateRip database
Copy OK

Track 22

Filename C:\Exact Audio Copy\Byrds\Sweetheart Of The Rodeo\22 The Christian Life (Master Take).wav

Pre-gap length 0:00:01.56

Peak level 96.8 %
Extraction speed 8.2 X
Track quality 100.0 %
Test CRC 5A8CA5FC
Copy CRC 5A8CA5FC
Track not present in AccurateRip database
Copy OK

Track 23

Filename C:\Exact Audio Copy\Byrds\Sweetheart Of The Rodeo\23 Blue Canadian Rockies (Rehearsal).wav

Pre-gap length 0:00:01.57

Peak level 95.9 %
Extraction speed 9.0 X
Track quality 100.0 %
Test CRC 707D255B
Copy CRC 707D255B
Track not present in AccurateRip database
Copy OK

Track 24

Filename C:\Exact Audio Copy\Byrds\Sweetheart Of The Rodeo\24 All I Have Is Memories (Master Take).wav

Pre-gap length 0:00:01.20

Peak level 96.3 %
Extraction speed 8.5 X
Track quality 100.0 %
Test CRC 3059E322
Copy CRC 3059E322
Track not present in AccurateRip database
Copy OK

Track 25

Filename C:\Exact Audio Copy\Byrds\Sweetheart Of The Rodeo\25 One Hundred Years From Now (Master Take).wav

Pre-gap length 0:00:01.57

Peak level 96.2 %
Extraction speed 8.6 X
Track quality 99.8 %
Test CRC B0E569AC
Copy CRC B0E569AC
Track not present in AccurateRip database
Copy OK


None of the tracks are present in the AccurateRip database

No errors occurred

End of status report

==== Log checksum 5FC1BE44BAEC671F61FDF95289D938BD8F26AD2D531AA470B799CEA965FA3855 ====




Thanks to the original ripper…



Download