Subcategories

The Byrds - The Complete Columbia Albums Collection (1965 - 1971) [13CD Box '2011] RE-UP

Posted By: perfecta
The Byrds - The Complete Columbia Albums Collection (1965 - 1971) [13CD Box '2011] RE-UP

The Byrds - The Complete Columbia Albums Collection (1965 - 1971) [13CD Box '2011]
13x EAC-FLAC Images with CUEs & LOGs - 4,3 GB | Full PNG Scans - 781 MB | MP3 CBR 320 Kbps - 1,54 GB
Rock / Folk Rock / Psychedelic Rock | Total Time - 11 hours 42 mins | Label: Columbia Records / Legacy | Cat. # 886978738028

The most complete package to date of The Byrds Columbia Albums. Contains CD expanded edition versions of all 11 original Columbia albums released by the Byrds between 1965 and 1971, which includes numerous rarities and unreleased tracks. Each individual album is packaged in a replica mini-LP sleeve reproducing that album’s original cover art. Includes booklet containing historic photos and track-by-track annotation by journalist Johnny Rogan. Rigid slipcase boxsets - contains each individual album packaged in a replica mini-LP sleeve reproducing that album’s original cover art, with extensive booklet, remastered albums and in some cases bonus material.

The Byrds - The Complete Columbia Albums Collection (1965 - 1971) [13CD Box '2011] RE-UP

allmusic.com biography: Although they only attained the huge success of the Beatles, Rolling Stones, and the Beach Boys for a short time in the mid-'60s, time has judged the Byrds to be nearly as influential as those groups in the long run. They were not solely responsible for devising folk-rock, but they were certainly more responsible than any other single act (Dylan included) for melding the innovations and energy of the British Invasion with the best lyrical and musical elements of contemporary folk music. The jangling, 12-string guitar sound of leader Roger McGuinn's Rickenbacker was permanently absorbed into the vocabulary of rock. They also played a vital role in pioneering psychedelic rock and country-rock, the unifying element being their angelic harmonies and restless eclecticism.

Often described in their early days as a hybrid of Dylan and the Beatles, the Byrds in turn influenced Dylan and the Beatles almost as much as Bob and the Fab Four had influenced the Byrds. The Byrds' innovations have echoed nearly as strongly through subsequent generations, in the work of Tom Petty, R.E.M., and innumerable alternative bands of the post-punk era that feature those jangling guitars and dense harmonies.

Although the Byrds had perfected their blend of folk and rock when their debut single, "Mr. Tambourine Man," topped the charts in mid-1965, it was something of a miracle that the group had managed to coalesce in the first place. Not a single member of the original quintet had extensive experience on electric instruments. Jim McGuinn (he'd change his first name to Roger a few years later), David Crosby, and Gene Clark were all young veterans of both commercial folk-pop troupes and the acoustic coffeehouse scene. They were inspired by the success of the Beatles to mix folk and rock; McGuinn had already been playing Beatles songs acoustically in Los Angeles folk clubs when Clark approached him to form an act, according to subsequent recollections, in the Peter & Gordon style. David Crosby soon joined to make them a trio, and they made a primitive demo as the Jet Set that was nonetheless bursting with promise. With the help of session musicians, they released a single on Elektra as the Beefeaters that, while a flop, showed them getting quite close to the folk-rock sound that would electrify the pop scene in a few months.

The Beefeaters, soon renamed the Byrds, were fleshed out to a quintet with the addition of drummer Michael Clarke and bluegrass mandolinist Chris Hillman, who was enlisted to play electric bass, although he had never played the instrument before. The band was so lacking in equipment in their early stages that Clarke played on cardboard boxes during their first rehearsals, but they determined to master their instruments and become a full-fledged rock band (many demos from this period would later surface for official release). They managed to procure a demo of a new Dylan song, "Mr. Tambourine Man"; by eliminating some verses and adding instantly memorable 12-string guitar leads and Beatlesque harmonies, they came up with the first big folk-rock smash (though the Beau Brummels and others had begun exploring similar territory as well). For the "Mr. Tambourine Man" single, the band's vocals and McGuinn's inimitable Rickenbacker were backed by session musicians, although the band themselves (contrary to some widely circulated rumors) performed on their subsequent recordings.

The first long-haired American group to compete with the British Invasion bands visually as well as musically, the Byrds were soon anointed as the American counterpart to the Beatles by the press, legions of fans, and George Harrison himself. Their 1965 debut LP, Mr. Tambourine Man, was a fabulous album that mixed stellar interpretations of Dylan and Pete Seeger tunes with strong, more romantic and pop-based originals, usually written by Gene Clark in the band's early days. A few months later, their version of Seeger's "Turn! Turn! Turn!" became another number-one hit and instant classic, featuring more great chiming guitar lines and ethereal, interweaving harmonies. While their second LP (Turn! Turn! Turn!) wasn't as strong as their debut full-length, the band continued to move forward at a dizzying pace. In early 1966, the "Eight Miles High" single heralded the birth of psychedelia, with its drug-like (intentionally or otherwise) lyrical imagery, rumbling bass line, and a frenzied McGuinn guitar solo that took its inspiration from John Coltrane and Indian music.

The Byrds suffered a major loss right after "Eight Miles High" with the departure of Gene Clark, their primary songwriter and, along with McGuinn, chief lead vocalist. The reason for his resignation, ironically, was fear of flying, although other pressures were at work as well. "Eight Miles High," amazingly, would be their last Top 20 single; many radio stations banned the record for its alleged drug references, halting its progress at number 14. This ended the Byrds' brief period as commercial challengers to the Beatles, but they regrouped impressively in the face of the setbacks. Continuing as a quartet, McGuinn, Crosby, and Hillman would assume a much larger (actually, the entire) chunk of the songwriting responsibilities. The third album, Fifth Dimension, contained more groundbreaking folk-rock and psychedelia on tracks like "Fifth Dimension," "I See You," and "John Riley," although it (like several of their classic early albums) mixed sheer brilliance with tracks that were oddly half-baked or carelessly executed.

Younger Than Yesterday, (1967) which included the small hits "So You Want to Be a Rock 'n' Roll Star" and "My Back Pages" (another Dylan cover), was another high point, Hillman and Crosby in particular taking their writing to a new level. In 1967, Crosby would assert a much more prominent role in the band, singing and writing some of his best material. He wasn't getting along so well with McGuinn and Hillman, though, and was jettisoned from the Byrds partway into the recording of The Notorious Byrd Brothers. Gene Clark, drafted back into the band as a replacement, left after only a few weeks, and by the end of 1967, Michael Clarke was also gone. Remarkably, in the midst of this chaos (not to mention diminishing record sales), they continued to sound as good as ever on Notorious. This was another effort that mixed electronic experimentation and folk-rock mastery with aplomb, with hints of a growing interest in country music.

As McGuinn and Hillman rebuilt the group one more time in early 1968, McGuinn mused upon the exciting possibility of a double album that would play as nothing less than a history of contemporary music, evolving from traditional folk and country to jazz and electronic music. Toward this end, he hired Gram Parsons, he has since said, to play keyboards. Under Parsons' influence, however, the Byrds were soon going full blast into country music, with Parsons taking a large share of the guitar and vocal chores. In 1968, McGuinn, Hillman, Parsons, and drummer Kevin Kelly recorded Sweetheart of the Rodeo, which was probably the first album to be widely labeled as country-rock.

Opinions as to the merits of Rodeo remain sharply divided among Byrds fans. Some see it as a natural continuation of the group's innovations; other bewail the loss of the band's trademark crystalline guitar jangle, and the short-circuited potential of McGuinn's most ambitious experiments. However one feels, there's no doubt that it marked the end, or at least a drastic revamping, of the "classic" Byrds sound of the 1965-1968 period (bookended by the Tambourine Man and Notorious albums). Parsons, the main catalyst for the metamorphosis, left the band after about six months, partially in objection to a 1968 Byrds tour of South Africa. It couldn't have helped, though, that McGuinn replaced several of Parsons' lead vocals on Rodeo with his own at the last minute, ostensibly due to contractual obstacles that prevented Parsons from singing on Columbia releases. (Some tracks with Parsons' lead vocals snuck on anyway, and a few others surfaced in the 1990s on the Byrds box set).

Chris Hillman left the Byrds by the end of 1968 to form the Flying Burrito Brothers with Parsons. Although McGuinn kept the Byrds going for about another five years with other musicians (most notably former country picker Clarence White), essentially the Byrds name was a front for Roger McGuinn and backing band. Opinions, again, remain sharply divided about the merits of latter-day Byrds albums. McGuinn was (and is) such an idiosyncratic and pleasurable talent that fans and critics are inclined to give him some slack; no one else plays the 12-string as well, he's a fine arranger, and his Lennon-meets-Dylan vocals are immediately distinctive. Yet aside from some good echoes of vintage Byrds like "Chestnut Mare," "Jesus Is Just Alright," and "Drug Store Truck Drivin' Man," nothing from the post-1968 Byrds albums resonates with nearly the same effervescent quality and authority of their classic 1965-1968 period. This is partly because McGuinn is an erratic (though occasionally fine) songwriter; it's also because the Byrds at their peak were very much a unit of diverse and considerable talents, not just a front for their leader's ideas.

The Byrds' diminishing importance must have stung McGuinn doubly in light of the rising profiles of several Byrds alumni as the '60s turned into the '70s. David Crosby was a superstar with Crosby, Stills, Nash & Young; Hillman, Parsons, and (for a while) Michael Clarke were taking country-rock further with the Flying Burrito Brothers; even Gene Clark, though he'd dropped out of sight commercially, was recording some respected country-rock albums on his own. The original quintet actually got back together for a one-off reunion album in 1973; though it made the Top 20, it was the first, and one of the most flagrant, examples of the futility of a great band reuniting in an attempt to recapture the lightning one last time.

The original Byrds continued to pursue solo careers and outside projects throughout the 1970s and 1980s. McGuinn, Clark, and Hillman had some success at the end of the 1970s with an adult contemporary variation on the Byrds' sound; in the 1980s, Crosby battled drug problems while Hillman enjoyed mainstream country success with the Desert Rose Band. The Byrds' legend was tarnished by squabbles over which members of the original lineup had the rights to use the Byrds name; for quite a while, drummer Michael Clarke even toured with a "Byrds" that featured no other original members. The Byrds were inducted into the Rock & Roll Hall of Fame in 1991; Gene Clark died several months later, and Michael Clarke died in 1993, permanently scotching prospects of a reunion involving the original quintet.

The Byrds - The Complete Columbia Albums Collection (1965 - 1971) [13CD Box '2011] RE-UP

_____________ The Byrds - The Complete Columbia Albums Collection contains: _____________


The Byrds - The Complete Columbia Albums Collection (1965 - 1971) [13CD Box '2011] RE-UP

(01) The Byrds - Mr. Tambourine Man (1965)
EAC-FLAC with CUE & LOG - 299 MB | 45:41 mins | MP3 CBR 320 Kbps - 102 MB

Tracks:

01. Mr. Tambourine Man
02. I'll Feel A Whole Lot Better
03. Spanish Harlem Incident
04. You Won't Have To Cry
05. Here Without You
06. The Bells Of Rhymney
07. All I Really Want To Do
08. I Knew I'd Want You
09. It's No Use
10. Don't Doubt Yourself, Babe
11. Chimes Of Freedom
12. We'll Meet Again
13. She Has A Way (Vocal Overdub / Take 2) [Bonus track]
14. I'll Feel A Whole Lot Better (Alternate Vocal Take) [Bonus track]
15. It's No Use (Alternate Lead Guitar Overdub) [Bonus track]
16. You Won't Have To Cry (Alternate Version) [Bonus track]
17. All I Really Want To Do (Single Version) [Bonus track]
18. You And Me (Instrumental) [Bonus track]

More info @ Wikipedia

Exact Audio Copy V1.0 beta 3 from 29. August 2011

EAC extraction logfile from 30. November 2011, 11:55

The Byrds / Mr. Tambourine Man

Used drive : HL-DT-STDVDRAM GSA-H60N Adapter: 2 ID: 0

Read mode : Secure
Utilize accurate stream : Yes
Defeat audio cache : Yes
Make use of C2 pointers : No

Read offset correction : 667
Overread into Lead-In and Lead-Out : No
Fill up missing offset samples with silence : Yes
Delete leading and trailing silent blocks : No
Null samples used in CRC calculations : Yes
Used interface : Native Win32 interface for Win NT & 2000

Used output format : Internal WAV Routines
Sample format : 44.100 Hz; 16 Bit; Stereo


TOC of the extracted CD

Track | Start | Length | Start sector | End sector
––––––––––––––––––––––––––––-
1 | 0:00.00 | 2:33.67 | 0 | 11541
2 | 2:33.67 | 2:35.53 | 11542 | 23219
3 | 5:09.45 | 2:01.32 | 23220 | 32326
4 | 7:11.02 | 2:11.70 | 32327 | 42221
5 | 9:22.72 | 2:40.10 | 42222 | 54231
6 | 12:03.07 | 3:34.38 | 54232 | 70319
7 | 15:37.45 | 2:07.62 | 70320 | 79906
8 | 17:45.32 | 2:18.23 | 79907 | 90279
9 | 20:03.55 | 2:27.40 | 90280 | 101344
10 | 22:31.20 | 2:58.42 | 101345 | 114736
11 | 25:29.62 | 3:55.10 | 114737 | 132371
12 | 29:24.72 | 2:17.38 | 132372 | 142684
13 | 31:42.35 | 2:29.05 | 142685 | 153864
14 | 34:11.40 | 2:31.57 | 153865 | 165246
15 | 36:43.22 | 2:27.53 | 165247 | 176324
16 | 39:11.00 | 2:11.35 | 176325 | 186184
17 | 41:22.35 | 2:06.57 | 186185 | 195691
18 | 43:29.17 | 2:11.28 | 195692 | 205544


Range status and errors

Selected range

Filename C:\Documents and Settings\Admin\Рабочий стол\Rip by ALLexxess\2011 The Byrds Complete Columbia Albums Collection (13CD Box Set Sony Music)\1965 Mr. Tambourine Man\The Byrds - Mr. Tambourine Man.wav

Peak level 98.8 %
Extraction speed 5.8 X
Range quality 100.0 %
Test CRC 08008B62
Copy CRC 08008B62
Copy OK

No errors occurred


AccurateRip summary

Track 1 not present in database
Track 2 not present in database
Track 3 not present in database
Track 4 not present in database
Track 5 not present in database
Track 6 not present in database
Track 7 not present in database
Track 8 not present in database
Track 9 not present in database
Track 10 not present in database
Track 11 not present in database
Track 12 not present in database
Track 13 not present in database
Track 14 not present in database
Track 15 not present in database
Track 16 not present in database
Track 17 not present in database
Track 18 not present in database

None of the tracks are present in the AccurateRip database

End of status report

==== Log checksum 019AB44FB65D9F3DF3E915666518F517CD658CCD5737B4BB0D558375C7243DF8 ====



_________________________________________________________________________________________


The Byrds - The Complete Columbia Albums Collection (1965 - 1971) [13CD Box '2011] RE-UP

(02) The Byrds - Turn! Turn! Turn! (1965)
EAC-FLAC with CUE & LOG - 296 MB | 49:13 mins | MP3 CBR 320 Kbps - 111 MB

Tracks:

01. Turn! Turn! Turn! (To Everything There Is A Season)
02. It Won't Be Wrong
03. Set You Free This Time
04. Lay Down Your Weary Tune
05. He Was A Friend Of Mine
06. World Turns All Around Her
07. Satisfied Mind
08. If You're Gone
09. The Times They Are A-Changin'
10. Wait And See
11. Oh! Susannah
12. The Day Walk (Never Before) [Bonus track]
13. She Don't Care About Time (Single Version) [Bonus track]
14. The Times They Are A-Changin' (First Version) [Bonus track]
15. It's All Over Now, Baby Blue (Version One) [Bonus track]
16. She Don't Care About Time (Version One) [Bonus track]
17. The World Turns All Around Her (Alternate Mix) [Bonus track]
18. Stranger In A Strange Land (Instrumental) [Bonus track]

More info @ Wikipedia

Exact Audio Copy V1.0 beta 3 from 29. August 2011

EAC extraction logfile from 30. November 2011, 12:33

The Byrds / Turn! Turn! Turn!

Used drive : HL-DT-STDVDRAM GSA-H60N Adapter: 2 ID: 0

Read mode : Secure
Utilize accurate stream : Yes
Defeat audio cache : Yes
Make use of C2 pointers : No

Read offset correction : 667
Overread into Lead-In and Lead-Out : No
Fill up missing offset samples with silence : Yes
Delete leading and trailing silent blocks : No
Null samples used in CRC calculations : Yes
Used interface : Native Win32 interface for Win NT & 2000

Used output format : Internal WAV Routines
Sample format : 44.100 Hz; 16 Bit; Stereo


TOC of the extracted CD

Track | Start | Length | Start sector | End sector
––––––––––––––––––––––––––––-
1 | 0:00.00 | 3:53.40 | 0 | 17514
2 | 3:53.40 | 2:01.72 | 17515 | 26661
3 | 5:55.37 | 2:52.65 | 26662 | 39626
4 | 8:48.27 | 3:33.63 | 39627 | 55664
5 | 12:22.15 | 2:34.15 | 55665 | 67229
6 | 14:56.30 | 2:16.62 | 67230 | 77491
7 | 17:13.17 | 2:30.20 | 77492 | 88761
8 | 19:43.37 | 2:49.10 | 88762 | 101446
9 | 22:32.47 | 2:22.00 | 101447 | 112096
10 | 24:54.47 | 2:22.68 | 112097 | 122814
11 | 27:17.40 | 3:13.22 | 122815 | 137311
12 | 30:30.62 | 3:04.20 | 137312 | 151131
13 | 33:35.07 | 2:33.38 | 151132 | 162644
14 | 36:08.45 | 1:58.22 | 162645 | 171516
15 | 38:06.67 | 3:06.70 | 171517 | 185536
16 | 41:13.62 | 2:39.05 | 185537 | 197466
17 | 43:52.67 | 2:16.05 | 197467 | 207671
18 | 46:08.72 | 3:03.53 | 207672 | 221449


Range status and errors

Selected range

Filename C:\Documents and Settings\Admin\Рабочий стол\Rip by ALLexxess\2011 The Byrds Complete Columbia Albums Collection (13CD Box Set Sony Music)\1965 Turn! Turn! Turn!\The Byrds - Turn! Turn! Turn!.wav

Peak level 98.8 %
Extraction speed 5.9 X
Range quality 100.0 %
Test CRC B08AE1C1
Copy CRC B08AE1C1
Copy OK

No errors occurred


AccurateRip summary

Track 1 cannot be verified as accurate (confidence 1) [C4EC4953], AccurateRip returned [C15F6454] (AR v2)
Track 2 cannot be verified as accurate (confidence 1) [1ADF8040], AccurateRip returned [C425984E] (AR v2)
Track 3 cannot be verified as accurate (confidence 1) [ED506618], AccurateRip returned [CE9F9AD5] (AR v2)
Track 4 cannot be verified as accurate (confidence 1) [C3E8D660], AccurateRip returned [12D7F079] (AR v2)
Track 5 cannot be verified as accurate (confidence 1) [7E4BA84B], AccurateRip returned [C965DE89] (AR v2)
Track 6 cannot be verified as accurate (confidence 1) [F5B6A5E4], AccurateRip returned [58356834] (AR v2)
Track 7 cannot be verified as accurate (confidence 1) [C45CA11A], AccurateRip returned [385BB4F7] (AR v2)
Track 8 cannot be verified as accurate (confidence 1) [5B1D2043], AccurateRip returned [317B6F25] (AR v2)
Track 9 cannot be verified as accurate (confidence 1) [57320380], AccurateRip returned [B86DBEDA] (AR v2)
Track 10 cannot be verified as accurate (confidence 1) [95F968E8], AccurateRip returned [773E5958] (AR v2)
Track 11 cannot be verified as accurate (confidence 1) [D683DC30], AccurateRip returned [AAB33E06] (AR v2)
Track 12 cannot be verified as accurate (confidence 1) [8AC607D2], AccurateRip returned [3ACAE3B6] (AR v2)
Track 13 cannot be verified as accurate (confidence 1) [92835E58], AccurateRip returned [E4ECF0D9] (AR v2)
Track 14 cannot be verified as accurate (confidence 1) [91AD1EBB], AccurateRip returned [AC2F0813] (AR v2)
Track 15 cannot be verified as accurate (confidence 1) [07168A49], AccurateRip returned [CE7CBA99] (AR v2)
Track 16 cannot be verified as accurate (confidence 1) [29F0E449], AccurateRip returned [5B537F0B] (AR v2)
Track 17 cannot be verified as accurate (confidence 1) [F4E605A6], AccurateRip returned [ECD1128E] (AR v2)
Track 18 cannot be verified as accurate (confidence 1) [B36C717E], AccurateRip returned [EE16B56F] (AR v2)

No tracks could be verified as accurate
You may have a different pressing from the one(s) in the database

End of status report

==== Log checksum 0E5A49FCB402F5FAEE03149FDB8AA31C0AB47F105D529157D326C0DB4AE91621 ====



_________________________________________________________________________________________


The Byrds - The Complete Columbia Albums Collection (1965 - 1971) [13CD Box '2011] RE-UP

(03) The Byrds - Fifth Dimension (1966)
EAC-FLAC with CUE & LOG - 354 MB | 62:22 mins | MP3 CBR 320 Kbps - 141 MB

Tracks:

01. 5D (Fifth Dimension)
02. Wild Mountain Thyme
03. Mr. Spaceman
04. I See You
05. What's Happening!!
06. I Come And Stand At Every Door
07. Eight Miles High
08. Hey Joe (Where You Gonna Go)
09. Captain Soul
10. John Riley
11. 2-4-2 Fox Trot (The Lear Jet Song)
12. Why (Single Version) [Bonus track]
13. I Know My Rider (I Know You Rider) [Bonus track]
14. Psychodrama City (Alternate Mix) [Bonus track]
15. Eight Miles High (Alternate / RCA Studios Version) [Bonus track]
16. Why (Alternate / RCA Studios Version) [Bonus track]
17. John Riley (Instrumental Version 1) [Bonus track]

More info @ Wikipedia

Exact Audio Copy V1.0 beta 3 from 29. August 2011

EAC extraction logfile from 30. November 2011, 13:14

The Byrds / Fifth Dimension

Used drive : HL-DT-STDVDRAM GSA-H60N Adapter: 2 ID: 0

Read mode : Secure
Utilize accurate stream : Yes
Defeat audio cache : Yes
Make use of C2 pointers : No

Read offset correction : 667
Overread into Lead-In and Lead-Out : No
Fill up missing offset samples with silence : Yes
Delete leading and trailing silent blocks : No
Null samples used in CRC calculations : Yes
Used interface : Native Win32 interface for Win NT & 2000

Used output format : Internal WAV Routines
Sample format : 44.100 Hz; 16 Bit; Stereo


TOC of the extracted CD

Track | Start | Length | Start sector | End sector
––––––––––––––––––––––––––––-
1 | 0:00.00 | 2:36.42 | 0 | 11741
2 | 2:36.42 | 2:33.40 | 11742 | 23256
3 | 5:10.07 | 2:12.48 | 23257 | 33204
4 | 7:22.55 | 2:41.27 | 33205 | 45306
5 | 10:04.07 | 2:38.38 | 45307 | 57194
6 | 12:42.45 | 3:06.27 | 57195 | 71171
7 | 15:48.72 | 3:37.53 | 71172 | 87499
8 | 19:26.50 | 2:20.00 | 87500 | 97999
9 | 21:46.50 | 2:56.55 | 98000 | 111254
10 | 24:43.30 | 3:00.62 | 111255 | 124816
11 | 27:44.17 | 2:21.58 | 124817 | 135449
12 | 30:06.00 | 3:02.67 | 135450 | 149166
13 | 33:08.67 | 2:46.58 | 149167 | 161674
14 | 35:55.50 | 3:26.32 | 161675 | 177156
15 | 39:22.07 | 3:22.35 | 177157 | 192341
16 | 42:44.42 | 2:43.45 | 192342 | 204611
17 | 45:28.12 | 16:53.38 | 204612 | 280624


Range status and errors

Selected range

Filename C:\Documents and Settings\Admin\Рабочий стол\Rip by ALLexxess\2011 The Byrds Complete Columbia Albums Collection (13CD Box Set Sony Music)\1966 Fifth Dimension\The Byrds - Fifth Dimension.wav

Peak level 98.8 %
Extraction speed 5.9 X
Range quality 99.9 %
Test CRC FC2B6C77
Copy CRC FC2B6C77
Copy OK

No errors occurred


AccurateRip summary

Track 1 cannot be verified as accurate (confidence 29) [C6C5F46F], AccurateRip returned [DD242D1C] (AR v2)
Track 2 cannot be verified as accurate (confidence 29) [68804FEC], AccurateRip returned [DDA0164D] (AR v2)
Track 3 cannot be verified as accurate (confidence 29) [E02CEFD5], AccurateRip returned [6B314F9E] (AR v2)
Track 4 cannot be verified as accurate (confidence 29) [EC92F1E0], AccurateRip returned [B6A92B9C] (AR v2)
Track 5 cannot be verified as accurate (confidence 29) [165D0E26], AccurateRip returned [09FC4846] (AR v2)
Track 6 cannot be verified as accurate (confidence 29) [7390279C], AccurateRip returned [072F252A] (AR v2)
Track 7 cannot be verified as accurate (confidence 29) [381DE01E], AccurateRip returned [7F8813AD] (AR v2)
Track 8 cannot be verified as accurate (confidence 29) [73F706A5], AccurateRip returned [B6070762] (AR v2)
Track 9 cannot be verified as accurate (confidence 29) [C8609C2F], AccurateRip returned [FA11C79F] (AR v2)
Track 10 cannot be verified as accurate (confidence 29) [A32A676C], AccurateRip returned [20655E4C] (AR v2)
Track 11 cannot be verified as accurate (confidence 29) [884B603B], AccurateRip returned [D568EB8E] (AR v2)
Track 12 cannot be verified as accurate (confidence 29) [59A91256], AccurateRip returned [3489A921] (AR v2)
Track 13 cannot be verified as accurate (confidence 29) [19456E1D], AccurateRip returned [7283EDC5] (AR v2)
Track 14 cannot be verified as accurate (confidence 29) [283920AA], AccurateRip returned [F75592B4] (AR v2)
Track 15 cannot be verified as accurate (confidence 29) [5BE696D3], AccurateRip returned [92238B5B] (AR v2)
Track 16 cannot be verified as accurate (confidence 29) [40F68824], AccurateRip returned [E8251E09] (AR v2)
Track 17 cannot be verified as accurate (confidence 28) [60D9294C], AccurateRip returned [83B4EEA2] (AR v2)

No tracks could be verified as accurate
You may have a different pressing from the one(s) in the database

End of status report

==== Log checksum 75C7A6EBB2AFD9AF5F62AB8910C19106C0A98ED7FE3161AAFDC91FA9B3CA1399 ====



_________________________________________________________________________________________


The Byrds - The Complete Columbia Albums Collection (1965 - 1971) [13CD Box '2011] RE-UP

(04) The Byrds - Younger Than Yesterday (1967)
EAC-FLAC with CUE & LOG - 297 MB | 47:35 mins | MP3 CBR 320 Kbps - 107 MB

Tracks:

01. So You Want To Be A Rock 'N' Roll Star
02. Have You Seen Her Face
03. C.T.A. - 102
04. Renaissance Fair
05. Time Between
06. Everybody's Been Burned
07. Thoughts And Words
08. Mind Gardens
09. My Back Pages
10. The Girl With No Name
11. Why
12. It Happens Each Day [Bonus track]
13. Don't Make Waves [Bonus track]
14. My Back Pages (Alternate Version) [Bonus track]
15. Mind Gardens (Alternate Version) [Bonus track]
16. Lady Friend [Bonus track]
17. Old John Robertson (Single Version) [Bonus track]

More info @ Wikipedia

Exact Audio Copy V1.0 beta 3 from 29. August 2011

EAC extraction logfile from 30. November 2011, 14:52

The Byrds / Younger Than Yesterday

Used drive : HL-DT-STDVDRAM GSA-H60N Adapter: 2 ID: 0

Read mode : Secure
Utilize accurate stream : Yes
Defeat audio cache : Yes
Make use of C2 pointers : No

Read offset correction : 667
Overread into Lead-In and Lead-Out : No
Fill up missing offset samples with silence : Yes
Delete leading and trailing silent blocks : No
Null samples used in CRC calculations : Yes
Used interface : Native Win32 interface for Win NT & 2000

Used output format : Internal WAV Routines
Sample format : 44.100 Hz; 16 Bit; Stereo


TOC of the extracted CD

Track | Start | Length | Start sector | End sector
––––––––––––––––––––––––––––-
1 | 0:00.00 | 2:09.67 | 0 | 9741
2 | 2:09.67 | 2:43.73 | 9742 | 22039
3 | 4:53.65 | 2:31.72 | 22040 | 33436
4 | 7:25.62 | 1:55.33 | 33437 | 42094
5 | 9:21.20 | 1:57.00 | 42095 | 50869
6 | 11:18.20 | 3:09.05 | 50870 | 65049
7 | 14:27.25 | 3:00.22 | 65050 | 78571
8 | 17:27.47 | 3:49.50 | 78572 | 95796
9 | 21:17.22 | 3:11.73 | 95797 | 110194
10 | 24:29.20 | 1:54.07 | 110195 | 118751
11 | 26:23.27 | 2:55.25 | 118752 | 131901
12 | 29:18.52 | 2:48.25 | 131902 | 144526
13 | 32:07.02 | 1:40.40 | 144527 | 152066
14 | 33:47.42 | 2:46.28 | 152067 | 164544
15 | 36:33.70 | 3:21.42 | 164545 | 179661
16 | 39:55.37 | 2:34.30 | 179662 | 191241
17 | 42:29.67 | 5:05.20 | 191242 | 214136


Range status and errors

Selected range

Filename C:\Documents and Settings\Admin\Рабочий стол\Rip by ALLexxess\2011 The Byrds Complete Columbia Albums Collection (13CD Box Set Sony Music)\1967 Younger Than Yesterday\The Byrds - Younger Than Yesterday.wav

Peak level 100.0 %
Extraction speed 1.2 X
Range quality 100.0 %
Test CRC 90D6FC2B
Copy CRC 90D6FC2B
Copy OK

No errors occurred


AccurateRip summary

Track 1 cannot be verified as accurate (confidence 31) [5C61A882], AccurateRip returned [049ADB17] (AR v2)
Track 2 cannot be verified as accurate (confidence 29) [D6B636BE], AccurateRip returned [3008A5D7] (AR v2)
Track 3 cannot be verified as accurate (confidence 30) [2B098393], AccurateRip returned [42C0DA71] (AR v2)
Track 4 cannot be verified as accurate (confidence 30) [38B9C3E3], AccurateRip returned [E654ACBC] (AR v2)
Track 5 cannot be verified as accurate (confidence 29) [C8541116], AccurateRip returned [4F0EEC71] (AR v2)
Track 6 cannot be verified as accurate (confidence 29) [3B102CE6], AccurateRip returned [EA5776F4] (AR v2)
Track 7 cannot be verified as accurate (confidence 29) [CACE4E2A], AccurateRip returned [380B3F98] (AR v2)
Track 8 cannot be verified as accurate (confidence 30) [A783A9EB], AccurateRip returned [25E085FD] (AR v2)
Track 9 cannot be verified as accurate (confidence 30) [5B47F2BA], AccurateRip returned [222B8B64] (AR v2)
Track 10 cannot be verified as accurate (confidence 30) [35DA950C], AccurateRip returned [48FC8888] (AR v2)
Track 11 cannot be verified as accurate (confidence 29) [3117E3F5], AccurateRip returned [190403AB] (AR v2)
Track 12 cannot be verified as accurate (confidence 27) [12A219BC], AccurateRip returned [03A0B912] (AR v2)
Track 13 cannot be verified as accurate (confidence 26) [249DBA58], AccurateRip returned [9E68824D] (AR v2)
Track 14 cannot be verified as accurate (confidence 27) [4BA78FA5], AccurateRip returned [8ED24B60] (AR v2)
Track 15 cannot be verified as accurate (confidence 26) [AC6311FD], AccurateRip returned [6A81D6C1] (AR v2)
Track 16 cannot be verified as accurate (confidence 26) [71BE6163], AccurateRip returned [3F25C453] (AR v2)
Track 17 cannot be verified as accurate (confidence 27) [FD29E1D5], AccurateRip returned [70DCC88F] (AR v2)

No tracks could be verified as accurate
You may have a different pressing from the one(s) in the database

End of status report

==== Log checksum 0B07F1BF337D10ECFD8D45D2D1E2058AA478E4BFDE0E618340C46DAF4B88802F ====



_________________________________________________________________________________________


The Byrds - The Complete Columbia Albums Collection (1965 - 1971) [13CD Box '2011] RE-UP

(05) The Byrds - The Notorious Byrd Brothers (1968)
EAC-FLAC with CUE & LOG - 357 MB | 58:27 mins | MP3 CBR 320 Kbps - 128 MB

Tracks:

01. Artificial Energy
02. Goin' Back
03. Natural Harmony
04. Draft Morning
05. Wasn't Born To Follow
06. Get To You
07. Change Is Now
08. Old John Robertson
09. Tribal Gathering
10. Dolphin's Smile
11. Space Odyssey
12. Moog Raga (Instrumental) [Bonus track]
13. Bound To Fall (Instrumental) [Bonus track]
14. Triad
15. Goin' Back (Version One) [Bonus track]
16. Draft Morning (Alternate End) [Bonus track]
17. Universal Mind Decoder (Instrumental) [Bonus track]

More info @ Wikipedia

Exact Audio Copy V1.0 beta 3 from 29. August 2011

EAC extraction logfile from 30. November 2011, 20:59

The Byrds / The Notorious Byrd Brothers

Used drive : HL-DT-STDVDRAM GSA-H60N Adapter: 2 ID: 0

Read mode : Secure
Utilize accurate stream : Yes
Defeat audio cache : Yes
Make use of C2 pointers : No

Read offset correction : 667
Overread into Lead-In and Lead-Out : No
Fill up missing offset samples with silence : Yes
Delete leading and trailing silent blocks : No
Null samples used in CRC calculations : Yes
Used interface : Native Win32 interface for Win NT & 2000

Used output format : Internal WAV Routines
Sample format : 44.100 Hz; 16 Bit; Stereo


TOC of the extracted CD

Track | Start | Length | Start sector | End sector
––––––––––––––––––––––––––––-
1 | 0:00.00 | 2:18.30 | 0 | 10379
2 | 2:18.30 | 3:25.63 | 10380 | 25817
3 | 5:44.18 | 2:11.10 | 25818 | 35652
4 | 7:55.28 | 2:42.12 | 35653 | 47814
5 | 10:37.40 | 2:03.63 | 47815 | 57102
6 | 12:41.28 | 2:39.17 | 57103 | 69044
7 | 15:20.45 | 3:21.20 | 69045 | 84139
8 | 18:41.65 | 1:48.70 | 84140 | 92309
9 | 20:30.60 | 2:02.63 | 92310 | 101522
10 | 22:33.48 | 2:00.05 | 101523 | 110527
11 | 24:33.53 | 4:02.27 | 110528 | 128704
12 | 28:36.05 | 3:27.33 | 128705 | 144262
13 | 32:03.38 | 2:11.10 | 144263 | 154097
14 | 34:14.48 | 3:31.70 | 154098 | 169992
15 | 37:46.43 | 3:54.62 | 169993 | 187604
16 | 41:41.30 | 3:01.35 | 187605 | 201214
17 | 44:42.65 | 13:44.23 | 201215 | 263037


Range status and errors

Selected range

Filename C:\Documents and Settings\Admin\Рабочий стол\Rip by ALLexxess\2011 The Byrds Complete Columbia Albums Collection (13CD Box Set Sony Music)\1968 The Notorious Byrd Brothers\The Byrds - The Notorious Byrd Brothers.wav

Peak level 98.8 %
Extraction speed 6.2 X
Range quality 100.0 %
Test CRC 5FEA9CAB
Copy CRC 5FEA9CAB
Copy OK

No errors occurred


AccurateRip summary

Track 1 cannot be verified as accurate (confidence 1) [E36F2025], AccurateRip returned [9BFDB9DD] (AR v2)
Track 2 cannot be verified as accurate (confidence 1) [F9807254], AccurateRip returned [69B234EE] (AR v2)
Track 3 cannot be verified as accurate (confidence 1) [7054484A], AccurateRip returned [4A743EA3] (AR v2)
Track 4 cannot be verified as accurate (confidence 1) [A16C77F8], AccurateRip returned [3069F4D3] (AR v2)
Track 5 cannot be verified as accurate (confidence 1) [F4A68C7E], AccurateRip returned [18ACD639] (AR v2)
Track 6 cannot be verified as accurate (confidence 1) [28883760], AccurateRip returned [ED9F66B2] (AR v2)
Track 7 cannot be verified as accurate (confidence 1) [8C523BE9], AccurateRip returned [97CE9B38] (AR v2)
Track 8 cannot be verified as accurate (confidence 1) [2B9FBA7A], AccurateRip returned [16436C7F] (AR v2)
Track 9 cannot be verified as accurate (confidence 1) [E65BB767], AccurateRip returned [651C71EB] (AR v2)
Track 10 cannot be verified as accurate (confidence 1) [31B46EE2], AccurateRip returned [10A9544F] (AR v2)
Track 11 cannot be verified as accurate (confidence 1) [969B0217], AccurateRip returned [94FF32C5] (AR v2)
Track 12 cannot be verified as accurate (confidence 1) [2DE77B1C], AccurateRip returned [AF466A82] (AR v2)
Track 13 cannot be verified as accurate (confidence 1) [21EB329E], AccurateRip returned [B6595E18] (AR v2)
Track 14 cannot be verified as accurate (confidence 1) [A99D18BA], AccurateRip returned [ACD39F8D] (AR v2)
Track 15 cannot be verified as accurate (confidence 1) [03626C6E], AccurateRip returned [E9273A09] (AR v2)
Track 16 cannot be verified as accurate (confidence 1) [91C9FC4A], AccurateRip returned [DFD9E313] (AR v2)
Track 17 cannot be verified as accurate (confidence 1) [53841918], AccurateRip returned [62D62C66] (AR v2)

No tracks could be verified as accurate
You may have a different pressing from the one(s) in the database

End of status report

==== Log checksum DB2D75C1A8E03B234D2198722BD80D97326B403CDE02C3DFBD631C44FC8F42A0 ====



_________________________________________________________________________________________


The Byrds - The Complete Columbia Albums Collection (1965 - 1971) [13CD Box '2011] RE-UP

(06-07) The Byrds - Sweetheart Of The Rodeo (2CD, 1968)
EAC-FLAC with CUEs & LOGs - 731 MB | 116:26 mins | MP3 CBR 320 Kbps - 264 MB

Tracks:

CD1:
01. You Ain't Goin' Nowhere
02. I Am A Pilgrim
03. The Christian Life
04. You Don't Miss Your Water
05. You're Still On My Mind
06. Pretty Boy Floyd
07. Hickory Wind
08. One Hundred Years From Now
09. Blue Canadian Rockies
10. Life In Prison
11. Nothing Was Delivered
12. All I Have Are Memories (Kevin Kelley Vocal) [Bonus track]
13. You Got A Reputation [Bonus track]
14. Pretty Polly [Bonus track]
15. Lazy Days [Bonus track]
16. The Christian Life (Gram Parsons Vocal) [Bonus track]
17. You Don't Miss Your Water (Gram Parsons Vocal) [Bonus track]
18. One Hundred Years From Now (Gram Parsons Vocal) [Bonus track]
19. Radio Spot- Sweetheart Of The Rodeo Album [Bonus track]

CD2:
01. International Submarine Band - Sum Up Broke
02. International Submarine Band - One Day Week
03. International Submarine Band - Truck Drivin' Man
04. International Submarine Band - Blue Eyes
05. International Submarine Band - Luxury Liner
06. International Submarine Band - Strong Boy
07. Lazy Days (Alternate Version)
08. Pretty Polly (Alternate Version)
09. Hickory Wind (Alternate Nashville Version / Take 8)
10. The Christian Life (Rehearsal Version Take 7 / Gram Parsons Vocal)
11. The Christian Life (Rehearsal Version Take 8 / Gram Parsons Vocal)
12. Life In Prison (Rehearsal Version Take 1 & 2 / Gram Parsons Vocal)
13. Life In Prison (Rehearsal Version Take 3 & 4 / Gram Parsons Vocal)
14. One Hundred Years From Now (Rehearsal Version Take 12 & 13 / Gram Parsons Vocal)
15. One Hundred Years From Now (Rehearsal Version Take 14 & 15 / Gram Parsons Vocal)
16. You're Still On My Mind (Rehearsal Version Take 13 / Gram Parsons Vocal)
17. You're Still On My Mind (Rehearsal Version Take 48 / Gram Parsons Vocal)
18. All I Have Are Memories (Alternate Instrumental Take 17)
19. All I Have Are Memories (Alternate Instrumental Take 21)
20. Blue Canadian Rockies (Rehearsal Version Take 14)

More info @ Wikipedia

Exact Audio Copy V1.0 beta 3 from 29. August 2011

EAC extraction logfile from 1. December 2011, 10:19

The Byrds / Sweetheart Of The Rodeo CD1

Used drive : HL-DT-STDVDRAM GSA-H60N Adapter: 2 ID: 0

Read mode : Secure
Utilize accurate stream : Yes
Defeat audio cache : Yes
Make use of C2 pointers : No

Read offset correction : 667
Overread into Lead-In and Lead-Out : No
Fill up missing offset samples with silence : Yes
Delete leading and trailing silent blocks : No
Null samples used in CRC calculations : Yes
Used interface : Native Win32 interface for Win NT & 2000

Used output format : Internal WAV Routines
Sample format : 44.100 Hz; 16 Bit; Stereo


TOC of the extracted CD

Track | Start | Length | Start sector | End sector
––––––––––––––––––––––––––––-
1 | 0:00.00 | 2:38.50 | 0 | 11899
2 | 2:38.50 | 3:42.32 | 11900 | 28581
3 | 6:21.07 | 2:33.58 | 28582 | 40114
4 | 8:54.65 | 3:51.20 | 40115 | 57459
5 | 12:46.10 | 2:26.47 | 57460 | 68456
6 | 15:12.57 | 2:37.13 | 68457 | 80244
7 | 17:49.70 | 3:34.47 | 80245 | 96341
8 | 21:24.42 | 2:43.35 | 96342 | 108601
9 | 24:08.02 | 2:05.15 | 108602 | 117991
10 | 26:13.17 | 2:47.20 | 117992 | 130536
11 | 29:00.37 | 3:24.28 | 130537 | 145864
12 | 32:24.65 | 2:48.70 | 145865 | 158534
13 | 35:13.60 | 3:09.55 | 158535 | 172764
14 | 38:23.40 | 2:55.12 | 172765 | 185901
15 | 41:18.52 | 3:28.35 | 185902 | 201536
16 | 44:47.12 | 2:29.48 | 201537 | 212759
17 | 47:16.60 | 3:49.57 | 212760 | 229991
18 | 51:06.42 | 3:01.03 | 229992 | 243569
19 | 54:07.45 | 0:57.70 | 243570 | 247914


Range status and errors

Selected range

Filename C:\Documents and Settings\Admin\Рабочий стол\Rip by ALLexxess\2011 The Byrds Complete Columbia Albums Collection (13CD Box Set Sony Music)\1968 Sweetheart Of The Rodeo 2CD\CD1\The Byrds - Sweetheart Of The Rodeo CD1.wav

Peak level 100.0 %
Extraction speed 6.1 X
Range quality 100.0 %
Test CRC B9DCA399
Copy CRC B9DCA399
Copy OK

No errors occurred


AccurateRip summary

Track 1 cannot be verified as accurate (confidence 21) [95278C00], AccurateRip returned [E663DEB1] (AR v2)
Track 2 cannot be verified as accurate (confidence 21) [8FF1D306], AccurateRip returned [1DB3EECD] (AR v2)
Track 3 cannot be verified as accurate (confidence 20) [B8222F3C], AccurateRip returned [AA8A6130] (AR v2)
Track 4 cannot be verified as accurate (confidence 20) [090C6904], AccurateRip returned [EF6F49D1] (AR v2)
Track 5 cannot be verified as accurate (confidence 22) [508A41D4], AccurateRip returned [AD70B6A8] (AR v2)
Track 6 cannot be verified as accurate (confidence 21) [C2E0015D], AccurateRip returned [5C7F7164] (AR v2)
Track 7 cannot be verified as accurate (confidence 21) [042F11A1], AccurateRip returned [6B213A65] (AR v2)
Track 8 cannot be verified as accurate (confidence 21) [C33B204A], AccurateRip returned [558C5A5D] (AR v2)
Track 9 cannot be verified as accurate (confidence 21) [F7060DAF], AccurateRip returned [84205120] (AR v2)
Track 10 cannot be verified as accurate (confidence 21) [671ECAF7], AccurateRip returned [9AB0FF00] (AR v2)
Track 11 cannot be verified as accurate (confidence 21) [3580A098], AccurateRip returned [7334764C] (AR v2)
Track 12 cannot be verified as accurate (confidence 20) [A60C03C6], AccurateRip returned [A52ABCE9] (AR v2)
Track 13 cannot be verified as accurate (confidence 21) [E6715F85], AccurateRip returned [50DBFD3B] (AR v2)
Track 14 cannot be verified as accurate (confidence 20) [CED8AF5A], AccurateRip returned [5397EB06] (AR v2)
Track 15 cannot be verified as accurate (confidence 20) [94607729], AccurateRip returned [61ACD09C] (AR v2)
Track 16 cannot be verified as accurate (confidence 20) [3DE5D45C], AccurateRip returned [A8B05DC1] (AR v2)
Track 17 cannot be verified as accurate (confidence 20) [91B6B53D], AccurateRip returned [28CD86DE] (AR v2)
Track 18 cannot be verified as accurate (confidence 20) [1FD9291D], AccurateRip returned [A4E0BC5B] (AR v2)
Track 19 cannot be verified as accurate (confidence 19) [A24D6069], AccurateRip returned [DA37C51A] (AR v2)

No tracks could be verified as accurate
You may have a different pressing from the one(s) in the database

End of status report

==== Log checksum 121E7BDCD070395C4AF4A1B2AFC4D0897F2B35D1A30BA40375A548C20C4A5604 ====

++++++++++++++++++++++++++++++++++++++++++

Exact Audio Copy V1.0 beta 3 from 29. August 2011

EAC extraction logfile from 1. December 2011, 11:15

The Byrds / Sweetheart Of The Rodeo CD2

Used drive : HL-DT-STDVDRAM GSA-H60N Adapter: 2 ID: 0

Read mode : Secure
Utilize accurate stream : Yes
Defeat audio cache : Yes
Make use of C2 pointers : No

Read offset correction : 667
Overread into Lead-In and Lead-Out : No
Fill up missing offset samples with silence : Yes
Delete leading and trailing silent blocks : No
Null samples used in CRC calculations : Yes
Used interface : Native Win32 interface for Win NT & 2000

Used output format : Internal WAV Routines
Sample format : 44.100 Hz; 16 Bit; Stereo


TOC of the extracted CD

Track | Start | Length | Start sector | End sector
––––––––––––––––––––––––––––-
1 | 0:00.00 | 2:13.70 | 0 | 10044
2 | 2:13.70 | 2:16.65 | 10045 | 20309
3 | 4:30.60 | 2:34.72 | 20310 | 31931
4 | 7:05.57 | 2:47.63 | 31932 | 44519
5 | 9:53.45 | 2:53.15 | 44520 | 57509
6 | 12:46.60 | 2:01.62 | 57510 | 66646
7 | 14:48.47 | 3:18.40 | 66647 | 81536
8 | 18:07.12 | 3:37.33 | 81537 | 97844
9 | 21:44.45 | 3:40.45 | 97845 | 114389
10 | 25:25.15 | 3:26.00 | 114390 | 129839
11 | 28:51.15 | 3:05.70 | 129840 | 143784
12 | 31:57.10 | 3:16.62 | 143785 | 158546
13 | 35:13.72 | 3:16.53 | 158547 | 173299
14 | 38:30.50 | 3:58.40 | 173300 | 191189
15 | 42:29.15 | 3:59.20 | 191190 | 209134
16 | 46:28.35 | 2:53.07 | 209135 | 222116
17 | 49:21.42 | 2:38.28 | 222117 | 233994
18 | 51:59.70 | 3:13.55 | 233995 | 248524
19 | 55:13.50 | 3:07.15 | 248525 | 262564
20 | 58:20.65 | 2:59.20 | 262565 | 276009


Range status and errors

Selected range

Filename C:\Documents and Settings\Admin\Рабочий стол\Rip by ALLexxess\2011 The Byrds Complete Columbia Albums Collection (13CD Box Set Sony Music)\1968 Sweetheart Of The Rodeo 2CD\CD2\The Byrds - Sweetheart Of The Rodeo CD2.wav

Peak level 100.0 %
Extraction speed 6.0 X
Range quality 100.0 %
Test CRC 0E55CC53
Copy CRC 0E55CC53
Copy OK

No errors occurred


AccurateRip summary

Track 1 accurately ripped (confidence 2) [396AAD3B] (AR v1)
Track 2 accurately ripped (confidence 3) [D0AFE376] (AR v1)
Track 3 accurately ripped (confidence 3) [14F1B2AA] (AR v1)
Track 4 accurately ripped (confidence 3) [CD74C890] (AR v1)
Track 5 accurately ripped (confidence 3) [02F66278] (AR v1)
Track 6 accurately ripped (confidence 3) [57390CEF] (AR v1)
Track 7 accurately ripped (confidence 3) [8401A707] (AR v1)
Track 8 accurately ripped (confidence 3) [FC1D297B] (AR v1)
Track 9 accurately ripped (confidence 3) [48AD8568] (AR v1)
Track 10 accurately ripped (confidence 3) [F77B9C04] (AR v1)
Track 11 accurately ripped (confidence 3) [0C8299DF] (AR v1)
Track 12 accurately ripped (confidence 3) [C42372A5] (AR v1)
Track 13 accurately ripped (confidence 3) [28FD4A90] (AR v1)
Track 14 accurately ripped (confidence 3) [2E4EBA08] (AR v1)
Track 15 accurately ripped (confidence 3) [DBF22851] (AR v1)
Track 16 accurately ripped (confidence 3) [89DBBF42] (AR v1)
Track 17 accurately ripped (confidence 3) [1C089997] (AR v1)
Track 18 accurately ripped (confidence 3) [DBB1307D] (AR v1)
Track 19 accurately ripped (confidence 3) [EDF6591A] (AR v1)
Track 20 accurately ripped (confidence 3) [0F3A0816] (AR v1)

All tracks accurately ripped

End of status report

==== Log checksum 6D2BE3010C809FAC870E4A23FAA8C5B4D08A35F288CD38ABEF613A7C474D6C65 ====



_________________________________________________________________________________________


The Byrds - The Complete Columbia Albums Collection (1965 - 1971) [13CD Box '2011] RE-UP

(08) The Byrds - Dr. Byrds And Mr. Hyde (1969)
EAC-FLAC with CUE & LOG - 335 MB | 51:59 mins | MP3 CBR 320 Kbps - 117 MB

Tracks:

01. This Wheel's On Fire
02. Old Blue
03. Your Gentle Way Of Loving Me
04. Child Of The Universe
05. Nashville West
06. Drug Store Truck Drivin' Man
07. King Apathy III
08. Candy
09. Bad Night At The Whiskey
10. Medley: My Back Pages / B.J. Blues / Baby What You Want Me To Do
11. Stanley's Song [Bonus track]
12. Lay Lady Lay (Alternate Version) [Bonus track]
13. This Wheel's On Fire (Version One) [Bonus track]
14. Medley: My Back Pages / B.J. Blues / Baby What You Want Me To Do (Alternate Version) [Bonus track]
15. Nashville West (Alternate Version / Nashville Recording) [Bonus track]

More info @ Wikipedia

Exact Audio Copy V1.0 beta 3 from 29. August 2011

EAC extraction logfile from 30. November 2011, 21:34

The Byrds / Dr. Byrds & Mr. Hyde

Used drive : HL-DT-STDVDRAM GSA-H60N Adapter: 2 ID: 0

Read mode : Secure
Utilize accurate stream : Yes
Defeat audio cache : Yes
Make use of C2 pointers : No

Read offset correction : 667
Overread into Lead-In and Lead-Out : No
Fill up missing offset samples with silence : Yes
Delete leading and trailing silent blocks : No
Null samples used in CRC calculations : Yes
Used interface : Native Win32 interface for Win NT & 2000

Used output format : Internal WAV Routines
Sample format : 44.100 Hz; 16 Bit; Stereo


TOC of the extracted CD

Track | Start | Length | Start sector | End sector
––––––––––––––––––––––––––––-
1 | 0:00.00 | 4:47.25 | 0 | 21549
2 | 4:47.25 | 3:23.52 | 21550 | 36826
3 | 8:11.02 | 2:37.50 | 36827 | 48651
4 | 10:48.52 | 3:17.40 | 48652 | 63466
5 | 14:06.17 | 2:31.70 | 63467 | 74861
6 | 16:38.12 | 3:56.15 | 74862 | 92576
7 | 20:34.27 | 3:02.63 | 92577 | 106289
8 | 23:37.15 | 3:40.62 | 106290 | 122851
9 | 27:18.02 | 3:26.15 | 122852 | 138316
10 | 30:44.17 | 4:17.65 | 138317 | 157656
11 | 35:02.07 | 3:15.20 | 157657 | 172301
12 | 38:17.27 | 3:20.55 | 172302 | 187356
13 | 41:38.07 | 3:56.18 | 187357 | 205074
14 | 45:34.25 | 4:20.72 | 205075 | 224646
15 | 49:55.22 | 2:03.70 | 224647 | 233941


Range status and errors

Selected range

Filename C:\Documents and Settings\Admin\Рабочий стол\Rip by ALLexxess\2011 The Byrds Complete Columbia Albums Collection (13CD Box Set Sony Music)\1969 Dr. Byrds And Mr. Hyde\The Byrds - Dr. Byrds & Mr. Hyde.wav

Peak level 98.8 %
Extraction speed 6.1 X
Range quality 100.0 %
Test CRC 4B2C42BB
Copy CRC 4B2C42BB
Copy OK

No errors occurred


AccurateRip summary

Track 1 cannot be verified as accurate (confidence 1) [248919A0], AccurateRip returned [3A1C25BC] (AR v2)
Track 2 cannot be verified as accurate (confidence 1) [38276CD2], AccurateRip returned [D9414A1D] (AR v2)
Track 3 cannot be verified as accurate (confidence 1) [AD83AA91], AccurateRip returned [AC1F3753] (AR v2)
Track 4 cannot be verified as accurate (confidence 1) [3F1A7C51], AccurateRip returned [5A30A33F] (AR v2)
Track 5 cannot be verified as accurate (confidence 1) [0E4C0AD9], AccurateRip returned [E5E174B6] (AR v2)
Track 6 cannot be verified as accurate (confidence 1) [F5454901], AccurateRip returned [5EE29616] (AR v2)
Track 7 cannot be verified as accurate (confidence 1) [7F9C2F51], AccurateRip returned [40DB8DBC] (AR v2)
Track 8 cannot be verified as accurate (confidence 1) [0F1342A4], AccurateRip returned [9F28CC77] (AR v2)
Track 9 cannot be verified as accurate (confidence 1) [A5F7D31E], AccurateRip returned [0A058E28] (AR v2)
Track 10 cannot be verified as accurate (confidence 1) [6C64543F], AccurateRip returned [B3A97BED] (AR v2)
Track 11 cannot be verified as accurate (confidence 1) [7C6FA4F6], AccurateRip returned [B3D9450A] (AR v2)
Track 12 cannot be verified as accurate (confidence 1) [76734F84], AccurateRip returned [CC53D028] (AR v2)
Track 13 cannot be verified as accurate (confidence 1) [5F73376C], AccurateRip returned [D9583536] (AR v2)
Track 14 cannot be verified as accurate (confidence 1) [A4D43EAD], AccurateRip returned [271E695A] (AR v2)
Track 15 cannot be verified as accurate (confidence 1) [1AA1AE72], AccurateRip returned [62D2CE34] (AR v2)

No tracks could be verified as accurate
You may have a different pressing from the one(s) in the database

End of status report

==== Log checksum 185E60154285EBE6988732501EE3F8D4387A4248107ABF9BF240D6CB27491344 ====



_________________________________________________________________________________________


The Byrds - The Complete Columbia Albums Collection (1965 - 1971) [13CD Box '2011] RE-UP

(09) The Byrds - Ballad Of Easy Rider (1969)
EAC-FLAC with CUE & LOG - 350 MB | 56:51 mins | MP3 CBR 320 Kbps - 125 MB

Tracks:

01. Ballad Of Easy Rider
02. Fido
03. Oil In My Lamp
04. Tulsa County
05. Jack Tarr The Sailor
06. Jesus Is Just Alright
07. It's All Over Now, Baby Blue
08. There Must Be Someone (I Can Turn To)
09. Gunga Din
10. Deportee (Plane Wreck At Los Gatos)
11. Armstrong, Aldrin And Collins
12. Way Beyond The Sun [Bonus track]
13. Mae Jean Goes To Hollywood [Bonus track]
14. Oil In My Lamp (Alternate Version) [Bonus track]
15. Tulsa County (Alternate Version) [Bonus track]
16. Fiddler A Dram (Moog Experiment) [Bonus track]
17. Ballad Of Easy Rider (Long Version) [Bonus track]
18. Build It Up (Instrumental) [Bonus track]

More info @ Wikipedia

Exact Audio Copy V1.0 beta 3 from 29. August 2011

EAC extraction logfile from 1. December 2011, 12:03

The Byrds / Ballad Of Easy Rider

Used drive : HL-DT-STDVDRAM GSA-H60N Adapter: 2 ID: 0

Read mode : Secure
Utilize accurate stream : Yes
Defeat audio cache : Yes
Make use of C2 pointers : No

Read offset correction : 667
Overread into Lead-In and Lead-Out : No
Fill up missing offset samples with silence : Yes
Delete leading and trailing silent blocks : No
Null samples used in CRC calculations : Yes
Used interface : Native Win32 interface for Win NT & 2000

Used output format : Internal WAV Routines
Sample format : 44.100 Hz; 16 Bit; Stereo


TOC of the extracted CD

Track | Start | Length | Start sector | End sector
––––––––––––––––––––––––––––-
1 | 0:00.00 | 2:07.47 | 0 | 9571
2 | 2:07.47 | 2:43.48 | 9572 | 21844
3 | 4:51.20 | 3:15.60 | 21845 | 36529
4 | 8:07.05 | 2:51.55 | 36530 | 49409
5 | 10:58.60 | 3:34.27 | 49410 | 65486
6 | 14:33.12 | 2:12.05 | 65487 | 75391
7 | 16:45.17 | 4:56.23 | 75392 | 97614
8 | 21:41.40 | 3:32.60 | 97615 | 113574
9 | 25:14.25 | 3:05.65 | 113575 | 127514
10 | 28:20.15 | 3:49.57 | 127515 | 144746
11 | 32:09.72 | 1:50.60 | 144747 | 153056
12 | 34:00.57 | 2:59.48 | 153057 | 166529
13 | 37:00.30 | 2:47.17 | 166530 | 179071
14 | 39:47.47 | 2:05.33 | 179072 | 188479
15 | 41:53.05 | 3:42.10 | 188480 | 205139
16 | 45:35.15 | 3:13.37 | 205140 | 219651
17 | 48:48.52 | 2:29.20 | 219652 | 230846
18 | 51:17.72 | 5:33.40 | 230847 | 255861


Range status and errors

Selected range

Filename C:\Documents and Settings\Admin\Рабочий стол\Rip by ALLexxess\2011 The Byrds Complete Columbia Albums Collection (13CD Box Set Sony Music)\1969 Ballad Of Easy Rider\The Byrds - Ballad Of Easy Rider.wav

Peak level 98.8 %
Extraction speed 6.2 X
Range quality 100.0 %
Test CRC 2A08E3CC
Copy CRC 2A08E3CC
Copy OK

No errors occurred


AccurateRip summary

Track 1 cannot be verified as accurate (confidence 1) [45651733], AccurateRip returned [548F3074] (AR v2)
Track 2 cannot be verified as accurate (confidence 1) [CC001C61], AccurateRip returned [99691CE8] (AR v2)
Track 3 cannot be verified as accurate (confidence 1) [F08C2C31], AccurateRip returned [5F463C9F] (AR v2)
Track 4 cannot be verified as accurate (confidence 1) [B73D2728], AccurateRip returned [7F54D23F] (AR v2)
Track 5 cannot be verified as accurate (confidence 1) [1DF8AE49], AccurateRip returned [2F6ADE7C] (AR v2)
Track 6 cannot be verified as accurate (confidence 1) [CD30477F], AccurateRip returned [4A41ABFF] (AR v2)
Track 7 cannot be verified as accurate (confidence 1) [B7E79628], AccurateRip returned [93D590FA] (AR v2)
Track 8 cannot be verified as accurate (confidence 1) [DBAFC7EE], AccurateRip returned [18A8EE5B] (AR v2)
Track 9 cannot be verified as accurate (confidence 1) [700F5A6F], AccurateRip returned [6BE2E6DA] (AR v2)
Track 10 cannot be verified as accurate (confidence 1) [52EC06D6], AccurateRip returned [F0375577] (AR v2)
Track 11 cannot be verified as accurate (confidence 1) [DA9413B0], AccurateRip returned [4B088496] (AR v2)
Track 12 cannot be verified as accurate (confidence 1) [B55189F2], AccurateRip returned [227B2542] (AR v2)
Track 13 cannot be verified as accurate (confidence 1) [69A31EC5], AccurateRip returned [3FBA121D] (AR v2)
Track 14 cannot be verified as accurate (confidence 1) [8C2846BF], AccurateRip returned [67BF2716] (AR v2)
Track 15 cannot be verified as accurate (confidence 1) [55304A8D], AccurateRip returned [0E3C322C] (AR v2)
Track 16 cannot be verified as accurate (confidence 1) [68D933B2], AccurateRip returned [8339DA7D] (AR v2)
Track 17 cannot be verified as accurate (confidence 1) [B606CD10], AccurateRip returned [6F3AAF7F] (AR v2)
Track 18 cannot be verified as accurate (confidence 1) [8635C35C], AccurateRip returned [981B2936] (AR v2)

No tracks could be verified as accurate
You may have a different pressing from the one(s) in the database

End of status report

==== Log checksum 1927A957F16BA5106DBEDF728C8126332953BBB973D78C724915087F2F417EE0 ====



_________________________________________________________________________________________


The Byrds - The Complete Columbia Albums Collection (1965 - 1971) [13CD Box '2011] RE-UP

(10-11) The Byrds - (Untitled) (2CD, 1970)
EAC-FLAC with CUEs & LOGs - 793 MB | 120:50 mins | MP3 CBR 320 Kbps - 275 MB

Tracks:

CD1:
01. Lover Of The Bayou
02. Positively 4th Street
03. Nashville West
04. So You Want To Be A Rock 'N Roll Star
05. Mr. Tambourine Man
06. Mr. Spaceman
07. Eight Miles High
08. Chestnut Mare
09. Truck Stop Girl
10. All The Things
11. Yesterday's Train
12. Hungry Planet
13. Just A Season
14. Take A Whiff On Me
15. You All Look Alike
16. Welcome Back Home

CD2:
01. All The Things (Alternate Version)
02. Yesterday's Train (Alternate Version)
03. Lover Of The Bayou (Studio Recording)
04. Kathleen's Song (Alternate Version)
05. White's Lightning, Pt. 2 (Studio Recording)
06. Willin' (Studio Recording)
07. You Ain't Goin' Nowhere
08. Old Blue
09. It's Alright, Ma (I'm Only Bleeding)
10. Ballad Of Easy Rider
11. My Back Pages
12. Take A Whiff On Me
13. Jesus Is Just Alright
14. This Wheel's On Fire

More info @ Wikipedia

Exact Audio Copy V1.0 beta 3 from 29. August 2011

EAC extraction logfile from 1. December 2011, 12:51

The Byrds / (Untitled) / (Unissued) CD1

Used drive : HL-DT-STDVDRAM GSA-H60N Adapter: 2 ID: 0

Read mode : Secure
Utilize accurate stream : Yes
Defeat audio cache : Yes
Make use of C2 pointers : No

Read offset correction : 667
Overread into Lead-In and Lead-Out : No
Fill up missing offset samples with silence : Yes
Delete leading and trailing silent blocks : No
Null samples used in CRC calculations : Yes
Used interface : Native Win32 interface for Win NT & 2000

Used output format : Internal WAV Routines
Sample format : 44.100 Hz; 16 Bit; Stereo


TOC of the extracted CD

Track | Start | Length | Start sector | End sector
––––––––––––––––––––––––––––-
1 | 0:00.00 | 3:38.67 | 0 | 16416
2 | 3:38.67 | 3:03.35 | 16417 | 30176
3 | 6:42.27 | 2:07.03 | 30177 | 39704
4 | 8:49.30 | 2:38.35 | 39705 | 51589
5 | 11:27.65 | 2:13.62 | 51590 | 61626
6 | 13:41.52 | 3:07.38 | 61627 | 75689
7 | 16:49.15 | 16:07.40 | 75690 | 148254
8 | 32:56.55 | 5:11.37 | 148255 | 171616
9 | 38:08.17 | 3:24.00 | 171617 | 186916
10 | 41:32.17 | 3:08.00 | 186917 | 201016
11 | 44:40.17 | 3:35.38 | 201017 | 217179
12 | 48:15.55 | 4:56.37 | 217180 | 239416
13 | 53:12.17 | 3:57.00 | 239417 | 257191
14 | 57:09.17 | 3:29.00 | 257192 | 272866
15 | 60:38.17 | 3:06.38 | 272867 | 286854
16 | 63:44.55 | 7:40.05 | 286855 | 321359


Range status and errors

Selected range

Filename C:\Documents and Settings\Admin\Рабочий стол\Rip by ALLexxess\2011 The Byrds Complete Columbia Albums Collection (13CD Box Set Sony Music)\1970 (Untitled) - (Unissued) 2CD\CD1\The Byrds - (Untitled) (Unissued) CD1.wav

Peak level 100.0 %
Extraction speed 6.2 X
Range quality 99.9 %
Test CRC AAE64654
Copy CRC AAE64654
Copy OK

No errors occurred


AccurateRip summary

Track 1 cannot be verified as accurate (confidence 1) [5FA0E1AB], AccurateRip returned [65294843] (AR v2)
Track 2 cannot be verified as accurate (confidence 1) [F5D391C7], AccurateRip returned [9C457AD0] (AR v2)
Track 3 cannot be verified as accurate (confidence 1) [852DAA1E], AccurateRip returned [493F48B4] (AR v2)
Track 4 cannot be verified as accurate (confidence 1) [560F986E], AccurateRip returned [3DDEAF5C] (AR v2)
Track 5 cannot be verified as accurate (confidence 1) [8F319666], AccurateRip returned [00573AAD] (AR v2)
Track 6 cannot be verified as accurate (confidence 1) [D141F2A4], AccurateRip returned [CDA959A2] (AR v2)
Track 7 cannot be verified as accurate (confidence 1) [9D35C0A8], AccurateRip returned [0FA5BB7C] (AR v2)
Track 8 cannot be verified as accurate (confidence 1) [037BC337], AccurateRip returned [B0E4EDDA] (AR v2)
Track 9 cannot be verified as accurate (confidence 1) [ACB7E779], AccurateRip returned [FF9EDDA2] (AR v2)
Track 10 cannot be verified as accurate (confidence 1) [8ADFD66B], AccurateRip returned [A04BBC6D] (AR v2)
Track 11 cannot be verified as accurate (confidence 1) [B2632162], AccurateRip returned [30F2B23D] (AR v2)
Track 12 cannot be verified as accurate (confidence 1) [7C290C7A], AccurateRip returned [701D6B92] (AR v2)
Track 13 cannot be verified as accurate (confidence 1) [14D39741], AccurateRip returned [A9DC3BFD] (AR v2)
Track 14 cannot be verified as accurate (confidence 1) [DCAF4CB0], AccurateRip returned [90BF2988] (AR v2)
Track 15 cannot be verified as accurate (confidence 1) [5709750F], AccurateRip returned [F10D318B] (AR v2)
Track 16 cannot be verified as accurate (confidence 1) [BDAA43D3], AccurateRip returned [F62AE2EB] (AR v2)

No tracks could be verified as accurate
You may have a different pressing from the one(s) in the database

End of status report

==== Log checksum 7A890C6D71E0621A3FAB6BA60EB6B7A686F1AA7C0B549C863F328C71175FA598 ====

++++++++++++++++++++++++++++++++++++++++++++=

Exact Audio Copy V1.0 beta 3 from 29. August 2011

EAC extraction logfile from 1. December 2011, 13:27

The Byrds / (Untitled) / (Unissued) CD2

Used drive : HL-DT-STDVDRAM GSA-H60N Adapter: 2 ID: 0

Read mode : Secure
Utilize accurate stream : Yes
Defeat audio cache : Yes
Make use of C2 pointers : No

Read offset correction : 667
Overread into Lead-In and Lead-Out : No
Fill up missing offset samples with silence : Yes
Delete leading and trailing silent blocks : No
Null samples used in CRC calculations : Yes
Used interface : Native Win32 interface for Win NT & 2000

Used output format : Internal WAV Routines
Sample format : 44.100 Hz; 16 Bit; Stereo


TOC of the extracted CD

Track | Start | Length | Start sector | End sector
––––––––––––––––––––––––––––-
1 | 0:00.00 | 4:57.65 | 0 | 22339
2 | 4:57.65 | 4:11.15 | 22340 | 41179
3 | 9:09.05 | 5:14.47 | 41180 | 64776
4 | 14:23.52 | 2:37.13 | 64777 | 76564
5 | 17:00.65 | 2:22.22 | 76565 | 87236
6 | 19:23.12 | 3:32.65 | 87237 | 103201
7 | 22:56.02 | 2:56.30 | 103202 | 116431
8 | 25:52.32 | 3:30.00 | 116432 | 132181
9 | 29:22.32 | 2:48.43 | 132182 | 144824
10 | 32:11.00 | 2:21.67 | 144825 | 155466
11 | 34:32.67 | 2:41.15 | 155467 | 167556
12 | 37:14.07 | 2:45.38 | 167557 | 179969
13 | 39:59.45 | 3:09.02 | 179970 | 194146
14 | 43:08.47 | 6:16.08 | 194147 | 222354


Range status and errors

Selected range

Filename C:\Documents and Settings\Admin\Рабочий стол\Rip by ALLexxess\2011 The Byrds Complete Columbia Albums Collection (13CD Box Set Sony Music)\1970 (Untitled) - (Unissued) 2CD\CD2\The Byrds - (Untitled) (Unissued) CD2.wav

Peak level 100.0 %
Extraction speed 5.9 X
Range quality 100.0 %
Test CRC 33DD8EE7
Copy CRC 33DD8EE7
Copy OK

No errors occurred


AccurateRip summary

Track 1 cannot be verified as accurate (confidence 1) [EE637FB8], AccurateRip returned [A7457FBC] (AR v2)
Track 2 cannot be verified as accurate (confidence 1) [16600263], AccurateRip returned [2E34CBC7] (AR v2)
Track 3 cannot be verified as accurate (confidence 1) [A6C4A3DA], AccurateRip returned [D7B9FD84] (AR v2)
Track 4 cannot be verified as accurate (confidence 1) [BF75C9C2], AccurateRip returned [2985F70A] (AR v2)
Track 5 cannot be verified as accurate (confidence 1) [9673AAF5], AccurateRip returned [195B60C6] (AR v2)
Track 6 cannot be verified as accurate (confidence 1) [E3358550], AccurateRip returned [6F37FA19] (AR v2)
Track 7 cannot be verified as accurate (confidence 1) [9CAAE6B1], AccurateRip returned [73198E7A] (AR v2)
Track 8 cannot be verified as accurate (confidence 1) [2BFF6F17], AccurateRip returned [8D1728EF] (AR v2)
Track 9 cannot be verified as accurate (confidence 1) [23D2CAA3], AccurateRip returned [1E56FA2B] (AR v2)
Track 10 cannot be verified as accurate (confidence 1) [5774ABBF], AccurateRip returned [955CFA16] (AR v2)
Track 11 cannot be verified as accurate (confidence 1) [1DFDF4FB], AccurateRip returned [9BDC5DF3] (AR v2)
Track 12 cannot be verified as accurate (confidence 1) [16EC71A0], AccurateRip returned [EEA88FD3] (AR v2)
Track 13 cannot be verified as accurate (confidence 1) [2EF94D28], AccurateRip returned [3BEBE362] (AR v2)
Track 14 cannot be verified as accurate (confidence 1) [91B843CD], AccurateRip returned [7C7234C7] (AR v2)

No tracks could be verified as accurate
You may have a different pressing from the one(s) in the database

End of status report

==== Log checksum F9BF3DBE1C1E5169160C2B2DE4BED09552B9C9B5D0DB4A20DBEA40619A606B38 ====



_________________________________________________________________________________________


The Byrds - The Complete Columbia Albums Collection (1965 - 1971) [13CD Box '2011] RE-UP

(12) The Byrds - Byrdmaniax (1971)
EAC-FLAC with CUE & LOG - 289 MB | 46:51 mins | MP3 CBR 320 Kbps - 105 MB

Tracks:

01. Glory, Glory
02. Pale Blue
03. I Trust
04. Tunnel Of Love
05. Citizen Kane
06. I Wanna Grow Up To Be A Politician
07. Absolute Happiness
08. Green Apple Quick Step
09. My Destiny
10. Kathleen's Song
11. Jamaica Say You Will
12. Just Like A Woman [Bonus track]
13. Pale Blue (Alternate Version) [Bonus track]
14. Think I'm Gonna Feel Better [Bonus track]

More info @ Wikipedia

Exact Audio Copy V1.0 beta 3 from 29. August 2011

EAC extraction logfile from 1. December 2011, 19:20

The Byrds / Byrdmaniax

Used drive : HL-DT-STDVDRAM GSA-H60N Adapter: 2 ID: 0

Read mode : Secure
Utilize accurate stream : Yes
Defeat audio cache : Yes
Make use of C2 pointers : No

Read offset correction : 667
Overread into Lead-In and Lead-Out : No
Fill up missing offset samples with silence : Yes
Delete leading and trailing silent blocks : No
Null samples used in CRC calculations : Yes
Used interface : Native Win32 interface for Win NT & 2000

Used output format : Internal WAV Routines
Sample format : 44.100 Hz; 16 Bit; Stereo


TOC of the extracted CD

Track | Start | Length | Start sector | End sector
––––––––––––––––––––––––––––-
1 | 0:00.00 | 4:05.35 | 0 | 18409
2 | 4:05.35 | 2:24.45 | 18410 | 29254
3 | 6:30.05 | 3:21.45 | 29255 | 44374
4 | 9:51.50 | 5:02.30 | 44375 | 67054
5 | 14:54.05 | 2:37.70 | 67055 | 78899
6 | 17:32.00 | 2:06.32 | 78900 | 88381
7 | 19:38.32 | 2:40.60 | 88382 | 100441
8 | 22:19.17 | 1:51.68 | 100442 | 108834
9 | 24:11.10 | 3:40.17 | 108835 | 125351
10 | 27:51.27 | 2:44.00 | 125352 | 137651
11 | 30:35.27 | 3:37.00 | 137652 | 153926
12 | 34:12.27 | 3:58.73 | 153927 | 171849
13 | 38:11.25 | 2:35.66 | 171850 | 183540
14 | 40:47.16 | 6:03.71 | 183541 | 210836


Range status and errors

Selected range

Filename C:\Documents and Settings\Admin\Рабочий стол\Rip by ALLexxess\2011 The Byrds Complete Columbia Albums Collection (13CD Box Set Sony Music)\1971 Byrdmaniax\The Byrds - Byrdmaniax.wav

Peak level 100.0 %
Extraction speed 5.9 X
Range quality 100.0 %
Test CRC 192F2650
Copy CRC 192F2650
Copy OK

No errors occurred


AccurateRip summary

Track 1 cannot be verified as accurate (confidence 1) [3072327C], AccurateRip returned [5F19A178] (AR v2)
Track 2 cannot be verified as accurate (confidence 1) [8FC21A87], AccurateRip returned [AD468E61] (AR v2)
Track 3 cannot be verified as accurate (confidence 1) [B585A12F], AccurateRip returned [583B771C] (AR v2)
Track 4 cannot be verified as accurate (confidence 1) [C90B04F4], AccurateRip returned [A556BFDE] (AR v2)
Track 5 cannot be verified as accurate (confidence 1) [DF71807E], AccurateRip returned [CB2C0D07] (AR v2)
Track 6 cannot be verified as accurate (confidence 1) [12B822CF], AccurateRip returned [4E58A42A] (AR v2)
Track 7 cannot be verified as accurate (confidence 1) [6C1338A1], AccurateRip returned [6ED99653] (AR v2)
Track 8 cannot be verified as accurate (confidence 1) [3C8C6A68], AccurateRip returned [E811BD66] (AR v2)
Track 9 cannot be verified as accurate (confidence 1) [58390BF6], AccurateRip returned [BCB18C63] (AR v2)
Track 10 cannot be verified as accurate (confidence 1) [8BAEBF59], AccurateRip returned [3C8FB3FC] (AR v2)
Track 11 cannot be verified as accurate (confidence 1) [BD5ECBA9], AccurateRip returned [76E2ECB6] (AR v2)
Track 12 cannot be verified as accurate (confidence 1) [353466E2], AccurateRip returned [F77DF31F] (AR v2)
Track 13 cannot be verified as accurate (confidence 1) [6AA1F8F4], AccurateRip returned [166DCDC9] (AR v2)
Track 14 cannot be verified as accurate (confidence 1) [82C72B35], AccurateRip returned [D8FBFB53] (AR v2)

No tracks could be verified as accurate
You may have a different pressing from the one(s) in the database

End of status report

==== Log checksum C33003965CE2DADE0415D4DD33394375FAB70CFD8DE1CE61E6773FBA672925B2 ====



_________________________________________________________________________________________


The Byrds - The Complete Columbia Albums Collection (1965 - 1971) [13CD Box '2011] RE-UP

(13) The Byrds - Farther Along (1971)
EAC-FLAC with CUE & LOG - 292 MB | 45:41 mins | MP3 CBR 320 Kbps - 106 MB

Tracks:

01. Tiffany Queen
02. Get Down Your Line
03. Farther Along
04. B.B. Class Road
05. Bugler
06. America's Great National Pastime
07. Antique Sandy
08. Percious Kate
09. So Fine
10. Lazy Waters
11. Bristol Steam Convention Blues
12. Lost My Drivin' Wheel (Previously Unissued) [Bonus track]
13. Born To Rock And Roll (Previously Unissued) [Bonus track]
14. Bag Full Of Money (Previously Unissued) [Bonus track]

More info @ Wikipedia

Exact Audio Copy V1.0 beta 3 from 29. August 2011

EAC extraction logfile from 1. December 2011, 19:56

The Byrds / Farther Along

Used drive : HL-DT-STDVDRAM GSA-H60N Adapter: 2 ID: 0

Read mode : Secure
Utilize accurate stream : Yes
Defeat audio cache : Yes
Make use of C2 pointers : No

Read offset correction : 667
Overread into Lead-In and Lead-Out : No
Fill up missing offset samples with silence : Yes
Delete leading and trailing silent blocks : No
Null samples used in CRC calculations : Yes
Used interface : Native Win32 interface for Win NT & 2000

Used output format : Internal WAV Routines
Sample format : 44.100 Hz; 16 Bit; Stereo


TOC of the extracted CD

Track | Start | Length | Start sector | End sector
––––––––––––––––––––––––––––-
1 | 0:00.00 | 2:44.00 | 0 | 12299
2 | 2:44.00 | 3:29.00 | 12300 | 27974
3 | 6:13.00 | 3:00.00 | 27975 | 41474
4 | 9:13.00 | 2:18.37 | 41475 | 51861
5 | 11:31.37 | 3:09.38 | 51862 | 66074
6 | 14:41.00 | 3:00.37 | 66075 | 79611
7 | 17:41.37 | 2:15.18 | 79612 | 89754
8 | 19:56.55 | 3:04.07 | 89755 | 103561
9 | 23:00.62 | 2:40.00 | 103562 | 115561
10 | 25:40.62 | 3:35.00 | 115562 | 131686
11 | 29:15.62 | 2:48.50 | 131687 | 144336
12 | 32:04.37 | 4:58.40 | 144337 | 166726
13 | 37:03.02 | 3:01.00 | 166727 | 180301
14 | 40:04.02 | 5:58.13 | 180302 | 207164


Range status and errors

Selected range

Filename C:\Documents and Settings\Admin\Рабочий стол\Rip by ALLexxess\2011 The Byrds Complete Columbia Albums Collection (13CD Box Set Sony Music)\1971 Farther Along\The Byrds - Farther Along.wav

Peak level 98.7 %
Extraction speed 5.8 X
Range quality 100.0 %
Test CRC 898732CC
Copy CRC 898732CC
Copy OK

No errors occurred


AccurateRip summary

Track 1 cannot be verified as accurate (confidence 1) [84DBA2A9], AccurateRip returned [2ACE8BD7] (AR v2)
Track 2 cannot be verified as accurate (confidence 1) [1F569CC2], AccurateRip returned [70AC7727] (AR v2)
Track 3 cannot be verified as accurate (confidence 1) [055AE8F2], AccurateRip returned [CCA27B47] (AR v2)
Track 4 cannot be verified as accurate (confidence 1) [F4B20C49], AccurateRip returned [160A1741] (AR v2)
Track 5 cannot be verified as accurate (confidence 1) [C5A218E6], AccurateRip returned [79CF30DB] (AR v2)
Track 6 cannot be verified as accurate (confidence 1) [4B3A110A], AccurateRip returned [D8A9CD6A] (AR v2)
Track 7 cannot be verified as accurate (confidence 1) [53E748FD], AccurateRip returned [5D3A6063] (AR v2)
Track 8 cannot be verified as accurate (confidence 1) [C8E8205D], AccurateRip returned [C16B606A] (AR v2)
Track 9 cannot be verified as accurate (confidence 1) [B5B8CF46], AccurateRip returned [309DA15C] (AR v2)
Track 10 cannot be verified as accurate (confidence 1) [6F330732], AccurateRip returned [F8B32AFA] (AR v2)
Track 11 cannot be verified as accurate (confidence 1) [2833AFBE], AccurateRip returned [4F4C67AB] (AR v2)
Track 12 cannot be verified as accurate (confidence 1) [FF9293C2], AccurateRip returned [47972E39] (AR v2)
Track 13 cannot be verified as accurate (confidence 1) [23157AD4], AccurateRip returned [4B2C27E8] (AR v2)
Track 14 cannot be verified as accurate (confidence 1) [4ADF1166], AccurateRip returned [4BD97468] (AR v2)

No tracks could be verified as accurate
You may have a different pressing from the one(s) in the database

End of status report

==== Log checksum 1C0D1D03454E8B1F82181160D46ADD572117201E61770B5CC6F1156723A588F2 ====


Dynamic range(s): 10 / 11 / 10 / 10 / 10 / 10, 11 / 10 / 10 / 12, 11 / 10 / 11.
all thanks goes to ALLexxess!
Bigfile folder

Where the album title is his number in the box; "L" is FLAC, "M" is MP3, & "Sc" is complete artwork.