Subcategories

Art Blakey - Drums Around The Corner (1959) {2014 Japan SHM-CD Blue Note 24-192 Remaster}

Posted By: ruskaval
Art Blakey - Drums Around The Corner (1959) {2014 Japan SHM-CD Blue Note 24-192 Remaster}

Art Blakey - Drums Around The Corner (1959) {2014 Japan SHM-CD Blue Note 24-192 Remaster}
EAC rip (secure mode) | FLAC (tracks)+CUE+LOG -> 495 Mb | MP3 @320 -> 173 Mb
Full Artwork @ 600 dpi (png) -> 290 Mb | 5% repair rar | 24-bit 192 kHz remaster
© 2014 Universal Japan / Blue Note | BN 75th The Masterworks | UCCQ-5028
Jazz / Hard Bop

Features the high-fidelity SHM-CD format (compatible with standard CD player) and the latest 24bit 192kHz remastering. Pounding! This is the long-awaited re-release of a lost session that Blakey recorded in 1958, with a triple-drum rhythm group that included himself, Philly Joe Jones, and Roy Haynes – plus some additional conga work by Ray Barretto. Unlike other Blakey "drum orgy" sessions, though, this one's got a much straighter jazz feel – with plenty of solo space for trumpeter Lee Morgan and pianist Bobby Timmons.

The drums work together in fantastic interplay – with Haynes' lyricism, Blakey's crackle, and Jones' raw power all providing perfect complement to each other while Morgan solos freely out front as the only horn (a role that he rarely ever got to take!) The set also includes 2 amazing other tracks that feature only bass and drum (not drum n bass!) interplay between Blakey and the late Paul Chambers – making for a total of 8 incredible tracks in all, with titles that include "Lee's Tune", "Blakey's Blues", "Lover", and "Drums In the Rain".
Art Blakey - Drums Around The Corner (1959) {2014 Japan SHM-CD Blue Note 24-192 Remaster}


Personnel:
Tracks 1-6

Lee Morgan – trumpet
Bobby Timmons – piano
Jymie Merritt – bass
Art Blakey, Philly Joe Jones – drums, timpani
Roy Haynes – drums
Ray Barretto – congas

Tracks 7-8
Paul Chambers - bass
Art Blakey - drums

Art Blakey - Drums Around The Corner (1959) {2014 Japan SHM-CD Blue Note 24-192 Remaster}


tracklist:
01 - Moose The Mooche
02 - Blakey's Blues
03 - Lee's Tune
04 - Let's Take 16 Bars
05 - Drums In The Rain
06 - Lover
07 - I've Got My Love To Keep Me Warm
08 - What Is This Thing Called Love

Exact Audio Copy V1.1 from 23. June 2015

EAC extraction logfile from 5. December 2015, 7:17

Art Blakey / Drums Around The Corner

Used drive : TSSTcorpCDDVDW SE-208DB Adapter: 7 ID: 0

Read mode : Secure
Utilize accurate stream : Yes
Defeat audio cache : Yes
Make use of C2 pointers : No

Read offset correction : 6
Overread into Lead-In and Lead-Out : No
Fill up missing offset samples with silence : Yes
Delete leading and trailing silent blocks : No
Null samples used in CRC calculations : Yes
Used interface : Installed external ASPI interface
Gap handling : Appended to previous track

Used output format : User Defined Encoder
Selected bitrate : 1024 kBit/s
Quality : High
Add ID3 tag : No
Command line compressor : C:\Program Files (x86)\FLAC Frontend\tools\flac.exe
Additional command line options : -8 -V -T "ARTIST=%artist%" -T "TITLE=%title%" -T "ALBUM=%albumtitle%" -T "DATE=%year%" -T "TRACKNUMBER=%tracknr%" -T "TOTALTRACKS=%numtracks%" -T "GENRE=%genre%" -T "ALBUMARTIST=%albumartist%" -T "ALBUM ARTIST=%albumartist%" -T "COMMENT=EAC Secure Mode, Test & Copy, AccurateRip, FLAC -8" %source%


TOC of the extracted CD

Track | Start | Length | Start sector | End sector
––––––––––––––––––––––––––––-
1 | 0:00.00 | 15:19.25 | 0 | 68949
2 | 15:19.25 | 11:09.30 | 68950 | 119154
3 | 26:28.55 | 8:26.35 | 119155 | 157139
4 | 34:55.15 | 6:13.07 | 157140 | 185121
5 | 41:08.22 | 11:13.51 | 185122 | 235647
6 | 52:21.73 | 7:23.25 | 235648 | 268897
7 | 59:45.23 | 7:11.05 | 268898 | 301227
8 | 66:56.28 | 5:43.21 | 301228 | 326973


Track 1

Filename M:\_EAC\Art Blakey - Drums Around The Corner (1959) [FLAC] {2014 Japan SHM-CD Blue Note 24-192 Remaster}\01 - Moose The Mooche.wav

Pre-gap length 0:00:02.00

Peak level 100.0 %
Extraction speed 1.3 X
Track quality 100.0 %
Test CRC 80BA96B1
Copy CRC 80BA96B1
Accurately ripped (confidence 3) [5EDBEF89] (AR v2)
Copy OK

Track 2

Filename M:\_EAC\Art Blakey - Drums Around The Corner (1959) [FLAC] {2014 Japan SHM-CD Blue Note 24-192 Remaster}\02 - Blakey's Blues.wav

Pre-gap length 0:00:02.43

Peak level 100.0 %
Extraction speed 1.6 X
Track quality 100.0 %
Test CRC 8C3AE6D7
Copy CRC 8C3AE6D7
Accurately ripped (confidence 3) [775C1E5F] (AR v2)
Copy OK

Track 3

Filename M:\_EAC\Art Blakey - Drums Around The Corner (1959) [FLAC] {2014 Japan SHM-CD Blue Note 24-192 Remaster}\03 - Lee's Tune.wav

Pre-gap length 0:00:02.43

Peak level 100.0 %
Extraction speed 1.7 X
Track quality 100.0 %
Test CRC FD7A6217
Copy CRC FD7A6217
Accurately ripped (confidence 3) [9BEBC5C4] (AR v2)
Copy OK

Track 4

Filename M:\_EAC\Art Blakey - Drums Around The Corner (1959) [FLAC] {2014 Japan SHM-CD Blue Note 24-192 Remaster}\04 - Let's Take 16 Bars.wav

Pre-gap length 0:00:02.43

Peak level 100.0 %
Extraction speed 1.7 X
Track quality 100.0 %
Test CRC AD8E554C
Copy CRC AD8E554C
Accurately ripped (confidence 3) [78BB611D] (AR v2)
Copy OK

Track 5

Filename M:\_EAC\Art Blakey - Drums Around The Corner (1959) [FLAC] {2014 Japan SHM-CD Blue Note 24-192 Remaster}\05 - Drums In The Rain.wav

Pre-gap length 0:00:02.43

Peak level 98.1 %
Extraction speed 1.9 X
Track quality 100.0 %
Test CRC AF3E5E07
Copy CRC AF3E5E07
Accurately ripped (confidence 3) [D4A0B82F] (AR v2)
Copy OK

Track 6

Filename M:\_EAC\Art Blakey - Drums Around The Corner (1959) [FLAC] {2014 Japan SHM-CD Blue Note 24-192 Remaster}\06 - Lover.wav

Pre-gap length 0:00:02.43

Peak level 100.0 %
Extraction speed 2.0 X
Track quality 100.0 %
Test CRC B4520783
Copy CRC B4520783
Accurately ripped (confidence 3) [4FF631B0] (AR v2)
Copy OK

Track 7

Filename M:\_EAC\Art Blakey - Drums Around The Corner (1959) [FLAC] {2014 Japan SHM-CD Blue Note 24-192 Remaster}\07 - I've Got My Love To Keep Me Warm.wav

Pre-gap length 0:00:02.43

Peak level 100.0 %
Extraction speed 2.0 X
Track quality 100.0 %
Test CRC 2D0FB1A9
Copy CRC 2D0FB1A9
Accurately ripped (confidence 3) [A7FAD5CE] (AR v2)
Copy OK

Track 8

Filename M:\_EAC\Art Blakey - Drums Around The Corner (1959) [FLAC] {2014 Japan SHM-CD Blue Note 24-192 Remaster}\08 - What Is This Thing Called Love.wav

Pre-gap length 0:00:02.43

Peak level 100.0 %
Extraction speed 1.8 X
Track quality 99.9 %
Test CRC BBA66717
Copy CRC BBA66717
Accurately ripped (confidence 2) [D5C4091D] (AR v2)
Copy OK


All tracks accurately ripped

No errors occurred

End of status report

==== Log checksum 222D39297071433909F06C43EDD760762181CBA5EDD2B0655550BBA8B86FF138 ====


Art Blakey - Drums Around The Corner (1959) {2014 Japan SHM-CD Blue Note 24-192 Remaster}

Art Blakey - Drums Around The Corner (1959) {2014 Japan SHM-CD Blue Note 24-192 Remaster}


John Coltrane - Blue Train (1957) {2014 Japan SHM-CD Blue Note 24-bit Remaster}
Lee Morgan - Lee Morgan (Last Album) (1971) {2014 Japan SHM-CD Blue Note 24-bit Remaster}
Jack Wilson - Song For My Daughter (1968) {2014 Japan SHM-CD Blue Note 24-192 Remaster}
Lee Morgan - The Rajah (1966) {2014 Japan SHM-CD Blue Note 24-192 Remaster}
Lee Morgan - The Sidewinder (1963) {2013 Japan SHM-CD Blue Note 24-192 Remaster}
Bobby Hutcherson - Oblique (1967) {2014 Japan SHM-CD Blue Note 24-192 Remaster}
Bobby Hutcherson - Head On (1971) {2014 Japan SHM-CD Blue Note 24-192 Remaster}

Bobby Hutcherson - San Francisco (1970) {2014 Japan SHM-CD Blue Note 24-192 Remaster}
Bobby Hutcherson - Happenings (1966) {2013 Japan SHM-CD Blue Note 24-192 Remaster}
The Ornette Coleman Trio - At The 'Golden Circle' Stockholm Vol. 1 (1965) {2013 Japan SHM-CD Blue Note 24-192 Remaster}
Cannonball Adderley - Somethin' Else (1958) {2013 Japan SHM-CD Blue Note 24-192 Remaster}
Art Blakey and The Jazz Messengers - Moanin' (1958) {2013 Japan SHM-CD Blue Note 24-192 Remaster}
Ornette Coleman - Love Call (1968) {2014 Japan SHM-CD Blue Note 24-192 Remaster}
Eric Dolphy - Out To Lunch (1964) {2013 Japan SHM-CD Blue Note 24-192 Remaster}

Curtis Fuller - Two Bones (1958) {2014 Japan SHM-CD Blue Note 24-192 Remaster}
Bobbi Humphrey - Flute-In (1971) {2014 Japan SHM-CD Blue Note 24-192 Remaster}
Art Blakey And The Jazz Messengers - The Witch Doctor (1961) {2014 Japan SHM-CD Blue Note 24-192 Remaster}
Larry Young - Contrasts (1967) {2014 Japan SHM-CD Blue Note 24-192 Remaster}
Wayne Shorter - Odyssey Of Iska (1970) {2014 Japan SHM-CD Blue Note 24-192 Remaster}
Lee Morgan - Cornbread (1965) {2014 Japan SHM-CD Blue Note 24-192 Remaster}
Lee Morgan - The Sixth Sense (1967) {2014 Japan SHM-CD Blue Note 24-192 Remaster}

Lee Morgan - Delightfulee (1966) {2014 Japan SHM-CD Blue Note 24-192 Remaster}
Blue Mitchell - Bring It Home To Me (1966) {2014 Japan SHM-CD Blue Note 24-192 Remaster}
Lee Morgan - Charisma (1966) {2014 Japan SHM-CD Blue Note 24-192 Remaster}
Lou Donaldson - Midnight Creeper (1968) {2014 Japan SHM-CD Blue Note 24-192 Remaster}
Lee Morgan - Search For The New Land (1964) {2015 Japan SHM-CD Blue Note 24-192 Remaster}
Wayne Shorter - Speak No Evil (1964) {2013 Japan SHM-CD Blue Note 24-192 Remaster}

Lonnie Smith - Turning Point (1969) {2015 Japan SHM-CD Blue Note 24-192 Remaster}
Lee Morgan - The Gigolo (1965) {2014 Japan SHM-CD Blue Note 24-192 Remaster}
Larry Young - Into Somethin' (1964) {2014 Japan SHM-CD Blue Note 24-192 Remaster}
Larry Young - Unity (1965) {2014 Japan SHM-CD Blue Note 24-192 Remaster}
Bobby Hutcherson - Dialogue (1965) {2015 Japan SHM-CD Blue Note 24-192 Remaster}
"Big" John Patton - Along Came John (1963) {2015 Japan SHM-CD Blue Note 24-192 Remaster}

Ornette Coleman - New York Is Now! (1968) {2014 Japan SHM-CD Blue Note 24-192 Remaster}
Milt Jackson - Milt Jackson (1952) {2013 Japan SHM-CD Blue Note 24-192 Remaster}
Larry Young - Of Love And Peace (1966) {2014 Japan SHM-CD Blue Note 24-192 Remaster}
Art Blakey and The Jazz Messengers - Roots & Herbs (1961) [FLAC] {2014 Japan SHM-CD Blue Note 24-192 Remaster}
Andrew Hill - Andrew!!! (1964) {2015 Japan SHM-CD Blue Note 24-192 Remaster}
Stanley Turrentine - Another Story (1969) {2014 Japan SHM-CD Blue Note 24-192 Remaster}

Andrew Hill - Lift Every Voice (1969) {2014 Japan SHM-CD Blue Note 24-192 Remaster}
Ornette Coleman - The Empty Foxhole (1966) {2015 Japan SHM-CD Blue Note 24-192 Remaster}
Art Blakey & The Jazz Messengers - A Night In Tunisia (1960) {2013 Japan SHM-CD Blue Note 24-192 Remaster}
Donald Byrd - Electric Byrd (1970) {2015 Japan SHM-CD Blue Note 24-192 Remaster}

Art Blakey and The Jazz Messengers - Free For All (1964) {2014 Japan SHM-CD Blue Note 24-192 Remaster}
Wayne Shorter - Super Nova (1969) {2014 Japan SHM-CD Blue Note 24-192 Remaster}
Blue Mitchell - Heads Up! (1967) {2014 Japan SHM-CD Blue Note 24-192 Remaster}
John Patton - That Certain Feeling (1968) {2014 Japan SHM-CD Blue Note 24-192 Remaster}
''Big'' John Patton - Oh Baby! (1965) {2015 Japan SHM-CD Blue Note 24-192 Remaster}

John Patton - Understanding (1968) {2014 Japan SHM-CD Blue Note 24-192 Remaster}
Blue Mitchell - Step Lightly (1963) {2015 Japan SHM-CD Blue Note 24-192 Remaster}
Art Blakey & The Jazz Messengers - The Freedom Rider (1961) {2015 Japan SHM-CD Blue Note 24-192 Remaster}
Freddie Roach - Brown Sugar (1964) {2014 Japan SHM-CD Blue Note 24-192 Remaster}
Elvin Jones - The Ultimate (1968) {2014 Japan SHM-CD Blue Note 24-192 Remaster}

Lou Donaldson - Alligator Bogaloo (1967) {2014 Japan SHM-CD Blue Note 24-192 Remaster}
Andrew Hill - Compulsion (1965) {2015 Japan SHM-CD Blue Note 24-192 Remaster}
Sam Rivers - A New Conception (1966) {2014 Japan SHM-CD Blue Note 24-192 Remaster}
Don Wilkerson - Preach Brother! (1962) {2015 Japan SHM-CD Blue Note 24-192 Remaster}
Elvin Jones - Genesis (1971) {2014 Japan SHM-CD Blue Note 24-192 Remaster}

Reuben Wilson - On Broadway (1968) {2014 Japan SHM-CD Blue Note 24-192 Remaster}


NEXT -> More Blue Note 75th Anniversary The Masterworks Japan SHM-CD Blue Note 24-bit 192 kHz Remaster on the way…