Subcategories

Bläck Fööss - A Capella (1993)

Posted By: luckburz
Bläck Fööss - A Capella (1993)

Bläck Fööss - A Capella
EAC+LOG+CUE | FLAC: 340 MB | Full Artwork | 5% Recovery Info
Label/Cat#: EMI Electrola # 7243 8 28572 2 8 | Country/Year: Germany 1993
Genre: Rock, Pop | Style: Kölsch Rock, A Capella

MD5 [X] CUE [X] LOG [X] INFO TEXT [X] ARTWORK [X]

selfrip [X] not my rip []

Bläck Fööss - A Capella (1993)


Exact Audio Copy V1.0 beta 3 from 29. August 2011

EAC extraction logfile from 17. December 2012, 20:06

Bläck Fööss / A Capella

Used drive : PIONEER BD-RW BDR-206 Adapter: 0 ID: 2

Read mode : Secure
Utilize accurate stream : Yes
Defeat audio cache : Yes
Make use of C2 pointers : No

Read offset correction : 667
Overread into Lead-In and Lead-Out : No
Fill up missing offset samples with silence : Yes
Delete leading and trailing silent blocks : No
Null samples used in CRC calculations : Yes
Used interface : Native Win32 interface for Win NT & 2000

Used output format : User Defined Encoder
Selected bitrate : 1024 kBit/s
Quality : High
Add ID3 tag : Yes
Command line compressor : C:\Program Files\FLAC\flac.exe
Additional command line options : -5 -T "Artist=%artist%" -T "Title=%title%" -T "Album=%albumtitle%" -T "Date=%year%" -T "Tracknumber=%tracknr%" -T "Genre=%genre%" %source% -o %dest%


TOC of the extracted CD

Track | Start | Length | Start sector | End sector
––––––––––––––––––––––––––––-
1 | 0:00.00 | 0:29.30 | 0 | 2204
2 | 0:29.30 | 3:36.38 | 2205 | 18442
3 | 4:05.68 | 2:45.47 | 18443 | 30864
4 | 6:51.40 | 2:28.43 | 30865 | 42007
5 | 9:20.08 | 3:23.65 | 42008 | 57297
6 | 12:43.73 | 1:57.72 | 57298 | 66144
7 | 14:41.70 | 5:43.38 | 66145 | 91907
8 | 20:25.33 | 3:33.50 | 91908 | 107932
9 | 23:59.08 | 3:43.47 | 107933 | 124704
10 | 27:42.55 | 0:46.05 | 124705 | 128159
11 | 28:28.60 | 2:25.08 | 128160 | 139042
12 | 30:53.68 | 3:55.27 | 139043 | 156694
13 | 34:49.20 | 3:38.63 | 156695 | 173107
14 | 38:28.08 | 6:08.15 | 173108 | 200722
15 | 44:36.23 | 3:41.30 | 200723 | 217327
16 | 48:17.53 | 6:28.47 | 217328 | 246474
17 | 54:46.25 | 0:33.33 | 246475 | 248982


Range status and errors

Selected range

Filename F:\=== VINYL RIPS ===\=== EAC===\X FRESH RIP\Bläck Fööss - A Capella.wav

Peak level 99.9 %
Extraction speed 7.1 X
Range quality 100.0 %
Test CRC E165CAB1
Copy CRC E165CAB1
Copy OK

No errors occurred


AccurateRip summary

Track 1 accurately ripped (confidence 8) [7D4FF72E] (AR v2)
Track 2 accurately ripped (confidence 8) [44D3FB84] (AR v2)
Track 3 accurately ripped (confidence 8) [708A7270] (AR v2)
Track 4 accurately ripped (confidence 8) [3265FE3E] (AR v2)
Track 5 accurately ripped (confidence 8) [B1AE810D] (AR v2)
Track 6 accurately ripped (confidence 8) [4B706E40] (AR v2)
Track 7 accurately ripped (confidence 8) [CA064C27] (AR v2)
Track 8 accurately ripped (confidence 8) [1276ACAB] (AR v2)
Track 9 accurately ripped (confidence 8) [E9EEF4B5] (AR v2)
Track 10 accurately ripped (confidence 8) [0816EFD8] (AR v2)
Track 11 accurately ripped (confidence 8) [47FBF45F] (AR v2)
Track 12 accurately ripped (confidence 8) [03D3882A] (AR v2)
Track 13 accurately ripped (confidence 8) [8369205D] (AR v2)
Track 14 accurately ripped (confidence 8) [0DA6AA54] (AR v2)
Track 15 accurately ripped (confidence 8) [102589A2] (AR v2)
Track 16 accurately ripped (confidence 8) [9D28A28F] (AR v2)
Track 17 accurately ripped (confidence 8) [73FDFD83] (AR v2)

All tracks accurately ripped

End of status report

–– CUETools DB Plugin V2.1.3

[CTDB TOCID: 4wxZMyub5QyC2E6b0S_N5TtuGEc-] found, Submit result: 4wxZMyub5QyC2E6b0S_N5TtuGEc- has been confirmed
[4bfa0561] (16/16) Accurately ripped


==== Log checksum EAFFC7B560B2C5F111D02662785D3C44976466545FA57AE3ACADE3E37314EA2C ====

foobar2000 1.1.14a / Dynamic Range Meter 1.1.1
log date: 2012-12-17 21:04:29

––––––––––––––––––––––––––––––––––––––––
Analyzed: Bläck Fööss / A Capella
––––––––––––––––––––––––––––––––––––––––

DR Peak RMS Duration Track
––––––––––––––––––––––––––––––––––––––––
DR12 -0.01 dB -13.79 dB 0:29 01-Joden Dach
DR11 -1.69 dB -13.72 dB 3:37 02-Sie liebt dich - Komm gib mir deine Hand
DR13 -0.04 dB -15.66 dB 2:46 03-Wochemaat en Kölle
DR14 -0.01 dB -16.02 dB 2:29 04-Kaffeeklatsch bei Tante Linchen
DR13 -0.01 dB -16.19 dB 3:24 05-Bütz mich (Hello my baby)
DR15 -0.20 dB -18.94 dB 1:58 06-Polizeistund
DR14 0.00 dB -17.72 dB 5:44 07-Guter Mann
DR13 -0.05 dB -16.87 dB 3:34 08-Männer
DR13 -1.11 dB -15.79 dB 3:44 09-Et Wohrzeiche vun Kölle
DR12 -0.02 dB -15.67 dB 0:46 10-Kölle du uns Stadt am Ring
DR15 -0.10 dB -17.99 dB 2:25 11-Du bes dä neue Dach (New day)
DR12 -0.07 dB -15.19 dB 3:55 12-MGV Concordia
DR14 -0.04 dB -18.59 dB 3:39 13-Homeless
DR16 -0.04 dB -19.63 dB 6:08 14-Willi-Ostermann-Songs in der Parodie
DR11 -0.07 dB -12.96 dB 3:41 15-Dat Wasser vun Kölle
DR14 -0.10 dB -17.54 dB 6:29 16-Die Profis vun d'r Eierquell
DR11 -0.01 dB -14.12 dB 0:33 17-Jode Naach
––––––––––––––––––––––––––––––––––––––––

Number of tracks: 17
Official DR value: DR13

Samplerate: 44100 Hz
Channels: 2
Bits per sample: 16
Bitrate: 820 kbps
Codec: FLAC
================================================================================



CD Info:

Bläck Fööss - A Capella

Label: EMI Elektrola
Catalog#: 7243 8 28572 2 8
Format: CD, Compilation
Country: Germany
Released: 1993
Genre: Rock, Pop
Style: Kölsch Rock, A Capella

Tracklist:

1 Joden Dach 0:29
2 Sie liebt dich - Komm gib mir deine Hand 3:37
3 Wochemaat en Kölle 2:46
4 Kaffeeklatsch bei Tante Linchen 2:29
5 Bütz mich (Hello my baby) 3:24
6 Polizeistund 1:58
7 Guter Mann 5:44
8 Männer 3:34
9 Et Wohrzeiche vun Kölle 3:44
10 Kölle du uns Stadt am Ring 0:46
11 Du bes dä neue Dach (New day) 2:25
12 MGV Concordia 3:55
13 Homeless 3:39
14 Willi-Ostermann-Songs in der Parodie 6:08
15 Dat Wasser vun Kölle 3:41
16 Die Profis vun d'r Eierquell 6:29
17 Jode Naach 0:30

Bläck Fööss - A Capella (1993)


Die Bläck Fööss (Nackte Füße) [ˈbɭæk ˌføːs] sind eine der erfolgreichsten Kölner Mundart-Musikgruppen.

Ab den 1970er Jahren entwickelten sich die Bläck Fööss durch einfallsreiche und humorvolle Titel mit eingängigen Melodien zu musikalischen Superstars des Kölner Karnevals. Sie wurden mit über 100 Titeln zu den Hauptabnehmern der Lieder des Komponisten Hans Knipp über das kölsche Milieu, die rheinische Mentalität und Blicken hinter die Kulissen des kleinbürgerlichen Alltags. Zu Knipp entstand erstmals 1970 ein Kontakt, als die Gruppe noch unbekannt war. Er verfasste 1973 mit Mer losse d’r Dom en Kölle eine der Hymnen des kölschen Karnevals. Ursprünglich als Kritik an der Sanierungspolitik der Stadt Köln gedacht, wird das Stück auch häufig als Hommage an den Kölner Dom interpretiert. In Lange Samstag en d’r City aus dem Jahr 1977 sang die Gruppe über das Erlebnis eines verkaufsoffenen Samstags mit Kleinkindern. Bei seinen Titeln für die Bläck Fööss wie Ming eetste Fründin (1976), Buuredanz (1977), Mer bruche keiner (1998) oder Unsere Stammbaum (2000) ließ Knipp sich von der künstlerischen Vielfalt der Band leiten. Sein Bye Bye My Love im Stil der fünfziger Jahre mit Close-harmony-Saxophonen übernahmen die Bläck Fööss 1985. Die deutsche Hitparade erreichten sie erstmals mit Katrin über die angebetete Bedienung in einem Hamburger-Restaurant (Januar 1985; Platz 25), das nachfolgende Frankreich, Frankreich (Juli 1985; Platz 9) wurde ihr bislang größter Hitparadenerfolg mit 190.000 verkauften Platten. Fünf ihrer Langspielplatten konnten sich in den deutschen Top Ten positionieren.

Die Gruppe hat ein weit über die Karnevalsmusik hinausgehendes, stilistisch vielseitiges Repertoire, eine Mischung aus Schlager, Popmusik, Jazz, Blues, Rockmusik, Rock & Roll, Disco, Funk oder Reggae ebenso wie Krätzchengesang. Zudem sind auf den älteren Platten auch einige Standardtänze vertreten, wie beispielsweise Samba (Wenn de Sonn schön schingk; 1974), Tango (Damenwahl em Stammlokal; 1976) oder Cha-Cha-Cha (Kaffeebud; 1978). Einige Songs der Bläck Fööss sind Coverversionen, deren Originale etwa von Ladysmith Black Mambazo, den Beatles, den Hollies, Willi Ostermann oder auch Herbert Grönemeyer stammen. Produzent der Gruppe war von 1973 bis zu seinem Tod 2003 Werner Dies.

Die Bläck Fööss behandeln auch ernste Themen wie beispielsweise im Lied Edelweißpiraten, das vom Schicksal Kölner Jugendlicher im „Dritten Reich“ erzählt oder mit dem Lied Feschers Köbes über den Aufstand gegen die Willkürherrschaft des Erzbischofs Anno im Jahre 1074. Mit Titeln wie Sirtaki oder Unser Stammbaum bezieht die Gruppe immer wieder Position gegen Fremdenfeindlichkeit, was sie auch durch ihre Auftritte 1992 und 2012 beim Konzert gegen rechte Gewalt Arsch huh, Zäng ussenander unterstrich. wikipedia

Bläck Fööss - A Capella (1993)


all of my uploads in my blog
________________

Download:

FLAC
Artwork
________________