Subcategories

Bill Nelson - Trial By Intimacy (The Book Of Splendours) (2012) {4CD Esoteric Recordings}

Posted By: ruskaval
Bill Nelson - Trial By Intimacy (The Book Of Splendours) (2012) {4CD Esoteric Recordings}

Bill Nelson - Trial By Intimacy (The Book Of Splendours) (2012) [4CD BoxSet] {Esoteric Recordings}
EAC rip (secure mode) | FLAC (tracks)+CUE+LOG -> 971 Mb | MP3 @320 -> 429 Mb
Full Artwork @ 600 dpi (png) -> 1.03 Gb | 5% repair rar
© 1984, 2012 Esoteric Recordings / BN / Cherry Red | COCD 4007
Rock / Alternative / Art Rock / Ambient

Esoteric Recordings announce a new release on their recently launched Cocteau Discs imprint, a limited edition reissue of BILL NELSON’s classic 4 disc ambient boxed set "TRIAL BY INTIMACY (The Book of Splendours)”. The set was originally released on Bill’s Cocteau Records label in October 1984 and comprised recordings made by Bill at his Echo Observatory home studio. Comprising some eighty pieces of music, the set was a fine example of Bill Nelson’s grasp of Ambient music and has subsequently been hailed as a ground-breaking work. Long deleted, the set is made available once more with this newly re-mastered Cocteau Discs edition. The new release fully restores the original elements of the "TRIAL BY INTIMACY” box and is an exact facsimile, reproducing a 32 page book and eight art postcards that featured in the original set.
Bill Nelson - Trial By Intimacy (The Book Of Splendours) (2012) {4CD Esoteric Recordings}

A LIMITED EDITION NEWLY REMASTERED 4CD DELUXE CLAMSHELL BOXED SET OF BILL NELSON’S RARE AND LEGENDARY AMBIENT COLLECTION OF RECORDINGS ORIGINALLY RELEASED ON COCTEAU RECORDS IN 1984

INCLUDES REPLICA OF THE ORIGINAL BOX FEATURING A 48 PAGE BOOK, 4CDs IN SLIPCASED ARTWORK AND POSTCARDS OF BILL NELSON’s ILLUSTRATIONS.
Bill Nelson - Trial By Intimacy (The Book Of Splendours) (2012) {4CD Esoteric Recordings}

A gorgeously packaged box set of four albums that also comes with a set of six postcards of Bill Nelson's artwork, along with a book of cryptic black-and-white photographs and puzzling fragments of text called The Arcane Eye, Trial By Intimacy (The Book of Splendours) is really a lovely item. However, it's also – it must be said – strictly for hardcore Bill Nelson fans and even those might find the set rather tiring in large doses. After dissolving the glam rock Be-Bop Deluxe and aborting the interesting art punk experiment Red Noise after only one album, Bill Nelson reinvented himself as a new wave synth-popper, releasing some fine records in this style best collected on the 1984 American compilation Vistamix.
Bill Nelson - Trial By Intimacy (The Book Of Splendours) (2012) {4CD Esoteric Recordings}

However, by the time Vistamix was released, Nelson had already grown tired of that style, and, it seems, of pop music in general. Retreating into his home studio in the north of England, Nelson began recording an entirely different sort of music. Seemingly influenced by Brian Eno's ambient experiments as well as those of Eno's contemporaries and associates (Robert Fripp, Harold Budd, etc.), Nelson began recording his own brand of watery guitar instrumentals. After an initial exploratory release, 1983's Savage Gestures for Charm's Sake, on his own Cocteau label, Nelson released the enormous Trial By Intimacy in early 1985. The four individually titled records have some nominal differences between them. The Summer of God's Piano consists of 23 very short ambient instrumentals, most of which are just long enough to introduce a texture or sound and then fade gracefully. Chamber of Dreams (Music From the Invisibility Exhibition) consists of the incidental music from a traveling exhibition of Nelson's artwork, as well as the backing tracks over which Nelson would improvise during performances in the galleries during the shows.

Bill Nelson - Trial By Intimacy (The Book Of Splendours) (2012) {4CD Esoteric Recordings}


These longer pieces include found-sound and spoken word segments not unlike the albums Nelson would do later in the decade under the name Orchestra Arcana. Pavilions of the Heart and Soul is subtitled "Dedicated to the charms of sacred and profane love." Yes, it's a pasty British art geek's version of Let's Get It On. A Catalogue of Obsessions is the darkest of the four albums, and probably the most artistically successful. Subtle undercurrents of dread fill the 20 short pieces, making the album the more unsettling bookend to the calming The Summer of God's Piano. All four albums were later individually reissued on CD on Enigma Records under their own names. Although they lack the sumptuous packaging and extras of Trial By Intimacy, the albums' individual strengths are perhaps best appreciated singly.
Bill Nelson - Trial By Intimacy (The Book Of Splendours) (2012) {4CD Esoteric Recordings}


tracklist:
Disc: 1 The Summer Of God's Piano

01. Antennae Two
02. Transmission (Nbc 97293)
03. The Sleep Of Hollywood
04. The Celestial Bridegroom
05. Under The Red Arch
06. Orient Pearl
07. Sacrament
08. Falling Blossoms
09. The Difficulty Of Being
10. Zanoni
11. The Chinese Nightingale
12. Tantra
13. Soon September (Another Enchantment)
14. Rural Shires
15. Perfidio Incanto
16. The Lost Years
17. The Charm Of Transmit
18. Night Thoughts (Twilight Radio)
19. Wysteria
20. Swing
21. Snowfall
22. Realm Of Dusk
23. Over Ocean

Disc: 2 Chamber Of Dreams
01. The Blazing Memory Of Innuendo
02. Into The Luminous Future
03. A Dip In The Swimming Pool Reactor
04. Tomorrowland (The Threshold Of 1947)
05. Listening To Lizards
06. Endless Torsion
07. My Sublime Perversion
08. Eros In Autumn
09. Sleeplessness
10. The Latest Skyline
11. Train Of Thought
12. Parks And Fountains, Clouds And Trees
13. The Golden Bough
14. Forever Orpheus
15. In Arcadia
16. Sentimental
17. Autumn Fires
18. Wild Blue Yonder

Disc: 3 Pavilions Of The Heart And Soul
01. Gift Of The August Tide
02. Loving Tongues
03. Blue Nude
04. In The Realm Of Bells
05. Your Nebulous Smile
06. The Glance Of A Glittering Stranger
07. Another Kiss For Your Slender Neck
08. The Warmth Of Women's Eyes
09. Seduction (Ritual With Roses)
10. Dreamed Embraces
11. Herself With Her Shadow
12. The Exquisite Corpse
13. Ardent Hands
14. Her Laughing Torso
15. Migrating Angels
16. Les Amoureux
17. Meshes Of The Afternoon
18. Mountains Of The Heart
19. Willow Silk
20. Tender Encounters (State Of Grace)
21. Melancholia
22. The Eternal Female

Disc: 4 A Catalogue Of Obsessions
01. Sex Party Six
02. Wider Windows For The Walls Of The World
03. Time In Tokyo
04. Happily Addicted To You
05. Snakes With Wings
06. The Boy Pilots Of Bangkok
07. Erotikon
08. Birds In Two Hemispheres
09. Windmills In A World Without Wind
10. Love's First Kiss
11. Initiation Of The Heart's Desire
12. Edge Of Tears
13. Test Of Affection
14. Words Across Tables
15. A Promise Of Perfume
16. This Dangerous Age
17. The Glass Breakfast
18. Talk Technique
19. The Last Summer For Dancing
20. View From A Balcony

Exact Audio Copy V1.0 beta 3 from 29. August 2011

EAC extraction logfile from 28. May 2014, 18:26

Bill Nelson / Trial By Intimacy (CD1). The Summer Of God's Piano

Used drive : ATAPI iHAS124 B Adapter: 2 ID: 1

Read mode : Secure
Utilize accurate stream : Yes
Defeat audio cache : Yes
Make use of C2 pointers : No

Read offset correction : 6
Overread into Lead-In and Lead-Out : No
Fill up missing offset samples with silence : Yes
Delete leading and trailing silent blocks : No
Null samples used in CRC calculations : Yes
Used interface : Native Win32 interface for Win NT & 2000
Gap handling : Appended to previous track

Used output format : User Defined Encoder
Selected bitrate : 1024 kBit/s
Quality : High
Add ID3 tag : No
Command line compressor : C:\Program Files (x86)\FLAC Frontend\tools\flac.exe
Additional command line options : -8 -V -T "ARTIST=%artist%" -T "TITLE=%title%" -T "ALBUM=%albumtitle%" -T "DATE=%year%" -T "TRACKNUMBER=%tracknr%" -T "TOTALTRACKS=%numtracks%" -T "GENRE=%genre%" -T "ALBUMARTIST=%albumartist%" -T "ALBUM ARTIST=%albumartist%" -T "COMMENT=EAC Secure Mode, Test & Copy, AccurateRip, FLAC -8" %source%


TOC of the extracted CD

Track | Start | Length | Start sector | End sector
––––––––––––––––––––––––––––-
1 | 0:00.00 | 0:45.44 | 0 | 3418
2 | 0:45.44 | 3:49.53 | 3419 | 20646
3 | 4:35.22 | 1:40.70 | 20647 | 28216
4 | 6:16.17 | 2:58.70 | 28217 | 41636
5 | 9:15.12 | 3:09.21 | 41637 | 55832
6 | 12:24.33 | 2:25.41 | 55833 | 66748
7 | 14:49.74 | 2:45.42 | 66749 | 79165
8 | 17:35.41 | 3:01.36 | 79166 | 92776
9 | 20:37.02 | 0:53.17 | 92777 | 96768
10 | 21:30.19 | 2:03.48 | 96769 | 106041
11 | 23:33.67 | 1:23.30 | 106042 | 112296
12 | 24:57.22 | 1:30.27 | 112297 | 119073
13 | 26:27.49 | 1:49.67 | 119074 | 127315
14 | 28:17.41 | 2:49.16 | 127316 | 140006
15 | 31:06.57 | 1:18.32 | 140007 | 145888
16 | 32:25.14 | 2:28.30 | 145889 | 157018
17 | 34:53.44 | 3:44.47 | 157019 | 173865
18 | 38:38.16 | 1:29.03 | 173866 | 180543
19 | 40:07.19 | 0:41.01 | 180544 | 183619
20 | 40:48.20 | 2:30.09 | 183620 | 194878
21 | 43:18.29 | 2:04.19 | 194879 | 204197
22 | 45:22.48 | 3:02.11 | 204198 | 217858
23 | 48:24.59 | 1:29.58 | 217859 | 224591


Track 1

Filename C:\Bill Nelson - Trial By Intimacy (The Book Of Splendours) (2012) [4CD BoxSet] {Esoteric Recordings}\CD1\01 - Antennae Two.wav

Pre-gap length 0:00:02.00

Peak level 87.5 %
Extraction speed 1.1 X
Track quality 100.0 %
Test CRC F239D7C5
Copy CRC F239D7C5
Accurately ripped (confidence 5) [D11C8E14] (AR v2)
Copy OK

Track 2

Filename C:\Bill Nelson - Trial By Intimacy (The Book Of Splendours) (2012) [4CD BoxSet] {Esoteric Recordings}\CD1\02 - Transmission (NBC 97293).wav

Pre-gap length 0:00:02.25

Peak level 87.8 %
Extraction speed 1.3 X
Track quality 99.9 %
Test CRC CE61017D
Copy CRC CE61017D
Accurately ripped (confidence 5) [6394D795] (AR v2)
Copy OK

Track 3

Filename C:\Bill Nelson - Trial By Intimacy (The Book Of Splendours) (2012) [4CD BoxSet] {Esoteric Recordings}\CD1\03 - The Sleep Of Hollywood.wav

Pre-gap length 0:00:00.50

Peak level 99.4 %
Extraction speed 0.9 X
Track quality 99.8 %
Test CRC 19D72F2B
Copy CRC 19D72F2B
Accurately ripped (confidence 5) [81C10072] (AR v2)
Copy OK

Track 4

Filename C:\Bill Nelson - Trial By Intimacy (The Book Of Splendours) (2012) [4CD BoxSet] {Esoteric Recordings}\CD1\04 - The Celestial Bridegroom.wav

Pre-gap length 0:00:01.00

Peak level 88.4 %
Extraction speed 1.4 X
Track quality 99.9 %
Test CRC 5636631C
Copy CRC 5636631C
Accurately ripped (confidence 5) [B6A935CB] (AR v2)
Copy OK

Track 5

Filename C:\Bill Nelson - Trial By Intimacy (The Book Of Splendours) (2012) [4CD BoxSet] {Esoteric Recordings}\CD1\05 - Under The Red Arch.wav

Pre-gap length 0:00:00.23

Peak level 99.4 %
Extraction speed 2.2 X
Track quality 100.0 %
Test CRC 8687BD3E
Copy CRC 8687BD3E
Accurately ripped (confidence 5) [2AC01390] (AR v2)
Copy OK

Track 6

Filename C:\Bill Nelson - Trial By Intimacy (The Book Of Splendours) (2012) [4CD BoxSet] {Esoteric Recordings}\CD1\06 - Orient Pearl.wav

Pre-gap length 0:00:00.01

Peak level 99.4 %
Extraction speed 2.2 X
Track quality 100.0 %
Test CRC 2C87D557
Copy CRC 2C87D557
Accurately ripped (confidence 5) [1AE0DEA2] (AR v2)
Copy OK

Track 7

Filename C:\Bill Nelson - Trial By Intimacy (The Book Of Splendours) (2012) [4CD BoxSet] {Esoteric Recordings}\CD1\07 - Sacrament.wav

Pre-gap length 0:00:02.30

Peak level 99.4 %
Extraction speed 2.3 X
Track quality 100.0 %
Test CRC 0F9B9679
Copy CRC 0F9B9679
Accurately ripped (confidence 5) [B395AF1A] (AR v2)
Copy OK

Track 8

Filename C:\Bill Nelson - Trial By Intimacy (The Book Of Splendours) (2012) [4CD BoxSet] {Esoteric Recordings}\CD1\08 - Falling Blossoms.wav

Pre-gap length 0:00:02.19

Peak level 83.4 %
Extraction speed 2.5 X
Track quality 100.0 %
Test CRC 37509DE7
Copy CRC 37509DE7
Accurately ripped (confidence 5) [FD307EF2] (AR v2)
Copy OK

Track 9

Filename C:\Bill Nelson - Trial By Intimacy (The Book Of Splendours) (2012) [4CD BoxSet] {Esoteric Recordings}\CD1\09 - The Difficulty Of Being.wav

Pre-gap length 0:00:02.08

Peak level 99.4 %
Extraction speed 1.8 X
Track quality 100.0 %
Test CRC C5DD47E2
Copy CRC C5DD47E2
Accurately ripped (confidence 5) [35E24DA9] (AR v2)
Copy OK

Track 10

Filename C:\Bill Nelson - Trial By Intimacy (The Book Of Splendours) (2012) [4CD BoxSet] {Esoteric Recordings}\CD1\10 - Zanoni.wav

Pre-gap length 0:00:00.37

Peak level 99.4 %
Extraction speed 2.4 X
Track quality 100.0 %
Test CRC 088DDB81
Copy CRC 088DDB81
Accurately ripped (confidence 5) [205E9F4C] (AR v2)
Copy OK

Track 11

Filename C:\Bill Nelson - Trial By Intimacy (The Book Of Splendours) (2012) [4CD BoxSet] {Esoteric Recordings}\CD1\11 - The Chinese Nightingale.wav

Pre-gap length 0:00:02.18

Peak level 82.1 %
Extraction speed 2.2 X
Track quality 100.0 %
Test CRC 33EC266E
Copy CRC 33EC266E
Accurately ripped (confidence 5) [22944C78] (AR v2)
Copy OK

Track 12

Filename C:\Bill Nelson - Trial By Intimacy (The Book Of Splendours) (2012) [4CD BoxSet] {Esoteric Recordings}\CD1\12 - Tantra.wav

Pre-gap length 0:00:01.68

Peak level 93.9 %
Extraction speed 2.3 X
Track quality 100.0 %
Test CRC 7CA5EFAC
Copy CRC 7CA5EFAC
Accurately ripped (confidence 5) [DE64C0DF] (AR v2)
Copy OK

Track 13

Filename C:\Bill Nelson - Trial By Intimacy (The Book Of Splendours) (2012) [4CD BoxSet] {Esoteric Recordings}\CD1\13 - Soon September (Another Enchantment).wav

Pre-gap length 0:00:00.70

Peak level 91.2 %
Extraction speed 1.4 X
Track quality 99.9 %
Test CRC A6E83C04
Copy CRC A6E83C04
Accurately ripped (confidence 5) [FBA94172] (AR v2)
Copy OK

Track 14

Filename C:\Bill Nelson - Trial By Intimacy (The Book Of Splendours) (2012) [4CD BoxSet] {Esoteric Recordings}\CD1\14 - Rural Shires.wav

Pre-gap length 0:00:00.55

Peak level 98.7 %
Extraction speed 2.8 X
Track quality 100.0 %
Test CRC CDB278C4
Copy CRC CDB278C4
Accurately ripped (confidence 5) [380C31FE] (AR v2)
Copy OK

Track 15

Filename C:\Bill Nelson - Trial By Intimacy (The Book Of Splendours) (2012) [4CD BoxSet] {Esoteric Recordings}\CD1\15 - Perfidio Incanto.wav

Pre-gap length 0:00:01.19

Peak level 99.4 %
Extraction speed 2.3 X
Track quality 100.0 %
Test CRC 7D38AACD
Copy CRC 7D38AACD
Accurately ripped (confidence 5) [8F6269D5] (AR v2)
Copy OK

Track 16

Filename C:\Bill Nelson - Trial By Intimacy (The Book Of Splendours) (2012) [4CD BoxSet] {Esoteric Recordings}\CD1\16 - The Lost Years.wav

Pre-gap length 0:00:00.01

Peak level 84.7 %
Extraction speed 1.8 X
Track quality 99.9 %
Test CRC 30C25E8F
Copy CRC 30C25E8F
Accurately ripped (confidence 5) [B4D956C3] (AR v2)
Copy OK

Track 17

Filename C:\Bill Nelson - Trial By Intimacy (The Book Of Splendours) (2012) [4CD BoxSet] {Esoteric Recordings}\CD1\17 - The Charm Of Transit.wav

Pre-gap length 0:00:00.16

Peak level 99.4 %
Extraction speed 3.1 X
Track quality 100.0 %
Test CRC 834FE2DA
Copy CRC 834FE2DA
Accurately ripped (confidence 5) [78ED46C0] (AR v2)
Copy OK

Track 18

Filename C:\Bill Nelson - Trial By Intimacy (The Book Of Splendours) (2012) [4CD BoxSet] {Esoteric Recordings}\CD1\18 - Night Thoughts (Twilight Radio).wav

Pre-gap length 0:00:01.00

Peak level 99.4 %
Extraction speed 2.6 X
Track quality 100.0 %
Test CRC 49BDD6B9
Copy CRC 49BDD6B9
Accurately ripped (confidence 5) [8386DAEC] (AR v2)
Copy OK

Track 19

Filename C:\Bill Nelson - Trial By Intimacy (The Book Of Splendours) (2012) [4CD BoxSet] {Esoteric Recordings}\CD1\19 - Wysteria.wav

Pre-gap length 0:00:00.54

Peak level 77.1 %
Extraction speed 1.9 X
Track quality 100.0 %
Test CRC AD5C962C
Copy CRC AD5C962C
Accurately ripped (confidence 5) [9E56AAAA] (AR v2)
Copy OK

Track 20

Filename C:\Bill Nelson - Trial By Intimacy (The Book Of Splendours) (2012) [4CD BoxSet] {Esoteric Recordings}\CD1\20 - Swing.wav

Pre-gap length 0:00:00.01

Peak level 78.6 %
Extraction speed 3.0 X
Track quality 100.0 %
Test CRC 3DE5357F
Copy CRC 3DE5357F
Accurately ripped (confidence 5) [B949FE66] (AR v2)
Copy OK

Track 21

Filename C:\Bill Nelson - Trial By Intimacy (The Book Of Splendours) (2012) [4CD BoxSet] {Esoteric Recordings}\CD1\21 - Snowfall.wav

Pre-gap length 0:00:00.17

Peak level 99.4 %
Extraction speed 3.0 X
Track quality 100.0 %
Test CRC D341CD1B
Copy CRC D341CD1B
Accurately ripped (confidence 5) [9274547C] (AR v2)
Copy OK

Track 22

Filename C:\Bill Nelson - Trial By Intimacy (The Book Of Splendours) (2012) [4CD BoxSet] {Esoteric Recordings}\CD1\22 - Realm Of Dusk.wav

Pre-gap length 0:00:00.37

Peak level 99.4 %
Extraction speed 3.3 X
Track quality 100.0 %
Test CRC A54E1C51
Copy CRC A54E1C51
Accurately ripped (confidence 5) [E025B9B9] (AR v2)
Copy OK

Track 23

Filename C:\Bill Nelson - Trial By Intimacy (The Book Of Splendours) (2012) [4CD BoxSet] {Esoteric Recordings}\CD1\23 - Over Ocean.wav

Pre-gap length 0:00:00.24

Peak level 86.7 %
Extraction speed 2.8 X
Track quality 100.0 %
Test CRC 6C2BC963
Copy CRC 6C2BC963
Accurately ripped (confidence 5) [A7795AE5] (AR v2)
Copy OK


All tracks accurately ripped

No errors occurred

End of status report

==== Log checksum 6379E53A326F42038BE21BB23E0B5CA320F28213A5EF26DF945DB6F8B49ED357 ====

Exact Audio Copy V1.0 beta 3 from 29. August 2011

EAC extraction logfile from 28. May 2014, 20:12

Bill Nelson / Trial By Intimacy (CD2). Chamber Of Dreams

Used drive : ATAPI iHAS124 B Adapter: 2 ID: 1

Read mode : Secure
Utilize accurate stream : Yes
Defeat audio cache : Yes
Make use of C2 pointers : No

Read offset correction : 6
Overread into Lead-In and Lead-Out : No
Fill up missing offset samples with silence : Yes
Delete leading and trailing silent blocks : No
Null samples used in CRC calculations : Yes
Used interface : Native Win32 interface for Win NT & 2000
Gap handling : Appended to previous track

Used output format : User Defined Encoder
Selected bitrate : 1024 kBit/s
Quality : High
Add ID3 tag : No
Command line compressor : C:\Program Files (x86)\FLAC Frontend\tools\flac.exe
Additional command line options : -8 -V -T "ARTIST=%artist%" -T "TITLE=%title%" -T "ALBUM=%albumtitle%" -T "DATE=%year%" -T "TRACKNUMBER=%tracknr%" -T "TOTALTRACKS=%numtracks%" -T "GENRE=%genre%" -T "ALBUMARTIST=%albumartist%" -T "ALBUM ARTIST=%albumartist%" -T "COMMENT=EAC Secure Mode, Test & Copy, AccurateRip, FLAC -8" %source%


TOC of the extracted CD

Track | Start | Length | Start sector | End sector
––––––––––––––––––––––––––––-
1 | 0:00.00 | 2:16.52 | 0 | 10251
2 | 2:16.52 | 2:16.48 | 10252 | 20499
3 | 4:33.25 | 2:35.42 | 20500 | 32166
4 | 7:08.67 | 3:13.46 | 32167 | 46687
5 | 10:22.38 | 2:28.38 | 46688 | 57825
6 | 12:51.01 | 2:03.25 | 57826 | 67075
7 | 14:54.26 | 1:24.64 | 67076 | 73439
8 | 16:19.15 | 1:16.38 | 73440 | 79177
9 | 17:35.53 | 6:11.57 | 79178 | 107059
10 | 23:47.35 | 1:18.17 | 107060 | 112926
11 | 25:05.52 | 3:26.56 | 112927 | 128432
12 | 28:32.33 | 2:55.23 | 128433 | 141580
13 | 31:27.56 | 3:38.02 | 141581 | 157932
14 | 35:05.58 | 1:47.35 | 157933 | 165992
15 | 36:53.18 | 2:14.21 | 165993 | 176063
16 | 39:07.39 | 2:02.58 | 176064 | 185271
17 | 41:10.22 | 2:20.39 | 185272 | 195810
18 | 43:30.61 | 1:05.17 | 195811 | 200702


Track 1

Filename C:\Bill Nelson - Trial By Intimacy (The Book Of Splendours) (2012) [4CD BoxSet] {Esoteric Recordings}\CD2\01 - The Blazing Memory Of Innuendo.wav

Pre-gap length 0:00:02.00

Peak level 99.4 %
Extraction speed 3.0 X
Track quality 100.0 %
Test CRC 11208973
Copy CRC 11208973
Accurately ripped (confidence 4) [6E0E0FD2] (AR v2)
Copy OK

Track 2

Filename C:\Bill Nelson - Trial By Intimacy (The Book Of Splendours) (2012) [4CD BoxSet] {Esoteric Recordings}\CD2\02 - Into The Luminous Future.wav

Peak level 99.4 %
Extraction speed 3.2 X
Track quality 100.0 %
Test CRC A2299379
Copy CRC A2299379
Accurately ripped (confidence 4) [7A44E492] (AR v2)
Copy OK

Track 3

Filename C:\Bill Nelson - Trial By Intimacy (The Book Of Splendours) (2012) [4CD BoxSet] {Esoteric Recordings}\CD2\03 - A Dip In The Swimming Pool Reactor.wav

Pre-gap length 0:00:01.43

Peak level 99.4 %
Extraction speed 3.6 X
Track quality 100.0 %
Test CRC 46C815A0
Copy CRC 46C815A0
Accurately ripped (confidence 4) [50034D4E] (AR v2)
Copy OK

Track 4

Filename C:\Bill Nelson - Trial By Intimacy (The Book Of Splendours) (2012) [4CD BoxSet] {Esoteric Recordings}\CD2\04 - Tomorrowland (The Threshold Of 1947).wav

Pre-gap length 0:00:01.43

Peak level 93.1 %
Extraction speed 3.9 X
Track quality 100.0 %
Test CRC B48A2968
Copy CRC B48A2968
Accurately ripped (confidence 4) [5F0C6B10] (AR v2)
Copy OK

Track 5

Filename C:\Bill Nelson - Trial By Intimacy (The Book Of Splendours) (2012) [4CD BoxSet] {Esoteric Recordings}\CD2\05 - Listening To Lizards.wav

Peak level 99.4 %
Extraction speed 3.9 X
Track quality 100.0 %
Test CRC 0DF00B79
Copy CRC 0DF00B79
Accurately ripped (confidence 4) [E83E40CE] (AR v2)
Copy OK

Track 6

Filename C:\Bill Nelson - Trial By Intimacy (The Book Of Splendours) (2012) [4CD BoxSet] {Esoteric Recordings}\CD2\06 - Endless Torsion.wav

Pre-gap length 0:00:01.49

Peak level 99.4 %
Extraction speed 4.0 X
Track quality 100.0 %
Test CRC 18625E8B
Copy CRC 18625E8B
Accurately ripped (confidence 4) [CDC2934E] (AR v2)
Copy OK

Track 7

Filename C:\Bill Nelson - Trial By Intimacy (The Book Of Splendours) (2012) [4CD BoxSet] {Esoteric Recordings}\CD2\07 - My Sublime Perversion.wav

Pre-gap length 0:00:00.50

Peak level 99.4 %
Extraction speed 3.7 X
Track quality 100.0 %
Test CRC 294160C5
Copy CRC 294160C5
Accurately ripped (confidence 4) [79416FF8] (AR v2)
Copy OK

Track 8

Filename C:\Bill Nelson - Trial By Intimacy (The Book Of Splendours) (2012) [4CD BoxSet] {Esoteric Recordings}\CD2\08 - Eros In Autumn.wav

Pre-gap length 0:00:01.13

Peak level 73.1 %
Extraction speed 3.6 X
Track quality 100.0 %
Test CRC 1776199B
Copy CRC 1776199B
Accurately ripped (confidence 4) [239CD560] (AR v2)
Copy OK

Track 9

Filename C:\Bill Nelson - Trial By Intimacy (The Book Of Splendours) (2012) [4CD BoxSet] {Esoteric Recordings}\CD2\09 - Sleeplessness.wav

Pre-gap length 0:00:01.44

Peak level 88.4 %
Extraction speed 5.3 X
Track quality 100.0 %
Test CRC BBE8E129
Copy CRC BBE8E129
Accurately ripped (confidence 4) [9D8BF813] (AR v2)
Copy OK

Track 10

Filename C:\Bill Nelson - Trial By Intimacy (The Book Of Splendours) (2012) [4CD BoxSet] {Esoteric Recordings}\CD2\10 - The Latest Skyline.wav

Pre-gap length 0:00:02.11

Peak level 99.4 %
Extraction speed 4.0 X
Track quality 100.0 %
Test CRC 78848DD0
Copy CRC 78848DD0
Accurately ripped (confidence 4) [21FEE894] (AR v2)
Copy OK

Track 11

Filename C:\Bill Nelson - Trial By Intimacy (The Book Of Splendours) (2012) [4CD BoxSet] {Esoteric Recordings}\CD2\11 - Train Of Thought.wav

Pre-gap length 0:00:01.25

Peak level 99.4 %
Extraction speed 5.2 X
Track quality 100.0 %
Test CRC 5E3D65CE
Copy CRC 5E3D65CE
Accurately ripped (confidence 4) [98DC3BD0] (AR v2)
Copy OK

Track 12

Filename C:\Bill Nelson - Trial By Intimacy (The Book Of Splendours) (2012) [4CD BoxSet] {Esoteric Recordings}\CD2\12 - Parks And Fountains, Clouds And Trees.wav

Pre-gap length 0:00:01.50

Peak level 68.9 %
Extraction speed 3.9 X
Track quality 99.9 %
Test CRC 2FA00D33
Copy CRC 2FA00D33
Accurately ripped (confidence 4) [A0FFCFEA] (AR v2)
Copy OK

Track 13

Filename C:\Bill Nelson - Trial By Intimacy (The Book Of Splendours) (2012) [4CD BoxSet] {Esoteric Recordings}\CD2\13 - The Golden Bough.wav

Pre-gap length 0:00:01.48

Peak level 73.1 %
Extraction speed 5.7 X
Track quality 100.0 %
Test CRC E95F9D0B
Copy CRC E95F9D0B
Accurately ripped (confidence 4) [7C7940A8] (AR v2)
Copy OK

Track 14

Filename C:\Bill Nelson - Trial By Intimacy (The Book Of Splendours) (2012) [4CD BoxSet] {Esoteric Recordings}\CD2\14 - Forever Orpheus.wav

Pre-gap length 0:00:02.45

Peak level 91.7 %
Extraction speed 4.9 X
Track quality 100.0 %
Test CRC 71B7027D
Copy CRC 71B7027D
Accurately ripped (confidence 4) [7661E974] (AR v2)
Copy OK

Track 15

Filename C:\Bill Nelson - Trial By Intimacy (The Book Of Splendours) (2012) [4CD BoxSet] {Esoteric Recordings}\CD2\15 - In Arcadia.wav

Pre-gap length 0:00:01.65

Peak level 77.1 %
Extraction speed 5.4 X
Track quality 100.0 %
Test CRC 92C540AF
Copy CRC 92C540AF
Accurately ripped (confidence 4) [31E73802] (AR v2)
Copy OK

Track 16

Filename C:\Bill Nelson - Trial By Intimacy (The Book Of Splendours) (2012) [4CD BoxSet] {Esoteric Recordings}\CD2\16 - Sentimental.wav

Pre-gap length 0:00:02.05

Peak level 91.4 %
Extraction speed 5.3 X
Track quality 100.0 %
Test CRC 517B3FA8
Copy CRC 517B3FA8
Accurately ripped (confidence 4) [FF302265] (AR v2)
Copy OK

Track 17

Filename C:\Bill Nelson - Trial By Intimacy (The Book Of Splendours) (2012) [4CD BoxSet] {Esoteric Recordings}\CD2\17 - Autumn Fires.wav

Pre-gap length 0:00:02.24

Peak level 99.3 %
Extraction speed 5.6 X
Track quality 100.0 %
Test CRC 8931D8D6
Copy CRC 8931D8D6
Accurately ripped (confidence 4) [0CEAAA22] (AR v2)
Copy OK

Track 18

Filename C:\Bill Nelson - Trial By Intimacy (The Book Of Splendours) (2012) [4CD BoxSet] {Esoteric Recordings}\CD2\18 - Wild Blue Yonder.wav

Pre-gap length 0:00:02.20

Peak level 70.6 %
Extraction speed 4.6 X
Track quality 100.0 %
Test CRC EC821DBA
Copy CRC EC821DBA
Accurately ripped (confidence 4) [7CBD0D5B] (AR v2)
Copy OK


All tracks accurately ripped

No errors occurred

End of status report

==== Log checksum FCFE2B684C502260B0E43A11703EDEFD18D6558D89E92A803A92D3E1924A0E2F ====

Exact Audio Copy V1.0 beta 3 from 29. August 2011

EAC extraction logfile from 28. May 2014, 20:42

Bill Nelson / Trial By Intimacy (CD3). Pavilions Of The Heart And Soul

Used drive : ATAPI iHAS124 B Adapter: 2 ID: 1

Read mode : Secure
Utilize accurate stream : Yes
Defeat audio cache : Yes
Make use of C2 pointers : No

Read offset correction : 6
Overread into Lead-In and Lead-Out : No
Fill up missing offset samples with silence : Yes
Delete leading and trailing silent blocks : No
Null samples used in CRC calculations : Yes
Used interface : Native Win32 interface for Win NT & 2000
Gap handling : Appended to previous track

Used output format : User Defined Encoder
Selected bitrate : 1024 kBit/s
Quality : High
Add ID3 tag : No
Command line compressor : C:\Program Files (x86)\FLAC Frontend\tools\flac.exe
Additional command line options : -8 -V -T "ARTIST=%artist%" -T "TITLE=%title%" -T "ALBUM=%albumtitle%" -T "DATE=%year%" -T "TRACKNUMBER=%tracknr%" -T "TOTALTRACKS=%numtracks%" -T "GENRE=%genre%" -T "ALBUMARTIST=%albumartist%" -T "ALBUM ARTIST=%albumartist%" -T "COMMENT=EAC Secure Mode, Test & Copy, AccurateRip, FLAC -8" %source%


TOC of the extracted CD

Track | Start | Length | Start sector | End sector
––––––––––––––––––––––––––––-
1 | 0:00.00 | 2:38.50 | 0 | 11899
2 | 2:38.50 | 4:04.50 | 11900 | 30249
3 | 6:43.25 | 1:35.45 | 30250 | 37419
4 | 8:18.70 | 2:10.10 | 37420 | 47179
5 | 10:29.05 | 2:42.12 | 47180 | 59341
6 | 13:11.17 | 1:24.18 | 59342 | 65659
7 | 14:35.35 | 2:07.66 | 65660 | 75250
8 | 16:43.26 | 1:22.16 | 75251 | 81416
9 | 18:05.42 | 2:47.64 | 81417 | 94005
10 | 20:53.31 | 0:49.18 | 94006 | 97698
11 | 21:42.49 | 0:28.48 | 97699 | 99846
12 | 22:11.22 | 0:53.47 | 99847 | 103868
13 | 23:04.69 | 1:04.40 | 103869 | 108708
14 | 24:09.34 | 0:53.06 | 108709 | 112689
15 | 25:02.40 | 1:23.41 | 112690 | 118955
16 | 26:26.06 | 2:48.12 | 118956 | 131567
17 | 29:14.18 | 0:56.42 | 131568 | 135809
18 | 30:10.60 | 2:06.35 | 135810 | 145294
19 | 32:17.20 | 2:12.65 | 145295 | 155259
20 | 34:30.10 | 1:53.55 | 155260 | 163789
21 | 36:23.65 | 2:49.15 | 163790 | 176479
22 | 39:13.05 | 2:58.55 | 176480 | 189884


Track 1

Filename C:\Bill Nelson - Trial By Intimacy (The Book Of Splendours) (2012) [4CD BoxSet] {Esoteric Recordings}\CD3\01 - Gift Of The August Tide.wav

Pre-gap length 0:00:02.00

Peak level 99.4 %
Extraction speed 2.4 X
Track quality 99.9 %
Test CRC E9D3BA90
Copy CRC E9D3BA90
Accurately ripped (confidence 5) [379887B8] (AR v2)
Copy OK

Track 2

Filename C:\Bill Nelson - Trial By Intimacy (The Book Of Splendours) (2012) [4CD BoxSet] {Esoteric Recordings}\CD3\02 - Loving Tongues.wav

Pre-gap length 0:00:01.37

Peak level 99.4 %
Extraction speed 3.0 X
Track quality 99.9 %
Test CRC 668C9612
Copy CRC 668C9612
Accurately ripped (confidence 5) [967824CA] (AR v2)
Copy OK

Track 3

Filename C:\Bill Nelson - Trial By Intimacy (The Book Of Splendours) (2012) [4CD BoxSet] {Esoteric Recordings}\CD3\03 - Blue Nude.wav

Pre-gap length 0:00:01.08

Peak level 99.4 %
Extraction speed 2.2 X
Track quality 99.8 %
Test CRC 4836B5D5
Copy CRC 4836B5D5
Accurately ripped (confidence 5) [8D23CE18] (AR v2)
Copy OK

Track 4

Filename C:\Bill Nelson - Trial By Intimacy (The Book Of Splendours) (2012) [4CD BoxSet] {Esoteric Recordings}\CD3\04 - In The Realm Of Bells.wav

Pre-gap length 0:00:00.34

Peak level 99.1 %
Extraction speed 2.6 X
Track quality 99.9 %
Test CRC 35621B1D
Copy CRC 35621B1D
Accurately ripped (confidence 5) [6C1B004F] (AR v2)
Copy OK

Track 5

Filename C:\Bill Nelson - Trial By Intimacy (The Book Of Splendours) (2012) [4CD BoxSet] {Esoteric Recordings}\CD3\05 - Your Nebulous Smile.wav

Pre-gap length 0:00:01.03

Peak level 99.4 %
Extraction speed 4.1 X
Track quality 100.0 %
Test CRC 7F014612
Copy CRC 7F014612
Accurately ripped (confidence 5) [6C20CC92] (AR v2)
Copy OK

Track 6

Filename C:\Bill Nelson - Trial By Intimacy (The Book Of Splendours) (2012) [4CD BoxSet] {Esoteric Recordings}\CD3\06 - The Glance Of A Glittering Stranger.wav

Pre-gap length 0:00:01.28

Peak level 97.3 %
Extraction speed 3.6 X
Track quality 100.0 %
Test CRC D82ACDE1
Copy CRC D82ACDE1
Accurately ripped (confidence 5) [82DC7435] (AR v2)
Copy OK

Track 7

Filename C:\Bill Nelson - Trial By Intimacy (The Book Of Splendours) (2012) [4CD BoxSet] {Esoteric Recordings}\CD3\07 - Another Kiss For Your Slender Neck.wav

Pre-gap length 0:00:01.41

Peak level 98.5 %
Extraction speed 4.1 X
Track quality 100.0 %
Test CRC 4D5548CA
Copy CRC 4D5548CA
Accurately ripped (confidence 5) [30F5D546] (AR v2)
Copy OK

Track 8

Filename C:\Bill Nelson - Trial By Intimacy (The Book Of Splendours) (2012) [4CD BoxSet] {Esoteric Recordings}\CD3\08 - The Warmth Of Women's Eyes.wav

Pre-gap length 0:00:01.52

Peak level 90.0 %
Extraction speed 3.7 X
Track quality 100.0 %
Test CRC FBE2B4A7
Copy CRC FBE2B4A7
Accurately ripped (confidence 5) [A6AB5139] (AR v2)
Copy OK

Track 9

Filename C:\Bill Nelson - Trial By Intimacy (The Book Of Splendours) (2012) [4CD BoxSet] {Esoteric Recordings}\CD3\09 - Seduction (Ritual With Roses).wav

Pre-gap length 0:00:00.16

Peak level 99.4 %
Extraction speed 4.6 X
Track quality 100.0 %
Test CRC 52D319FC
Copy CRC 52D319FC
Accurately ripped (confidence 5) [6EFF15E3] (AR v2)
Copy OK

Track 10

Filename C:\Bill Nelson - Trial By Intimacy (The Book Of Splendours) (2012) [4CD BoxSet] {Esoteric Recordings}\CD3\10 - Dreamed Embraces.wav

Pre-gap length 0:00:01.24

Peak level 99.4 %
Extraction speed 3.2 X
Track quality 100.0 %
Test CRC 840CCF68
Copy CRC 840CCF68
Accurately ripped (confidence 5) [E0A456E6] (AR v2)
Copy OK

Track 11

Filename C:\Bill Nelson - Trial By Intimacy (The Book Of Splendours) (2012) [4CD BoxSet] {Esoteric Recordings}\CD3\11 - Herself With Her Shadow.wav

Pre-gap length 0:00:02.05

Peak level 80.0 %
Extraction speed 2.5 X
Track quality 100.0 %
Test CRC 08F69B13
Copy CRC 08F69B13
Accurately ripped (confidence 5) [46267675] (AR v2)
Copy OK

Track 12

Filename C:\Bill Nelson - Trial By Intimacy (The Book Of Splendours) (2012) [4CD BoxSet] {Esoteric Recordings}\CD3\12 - The Exquisite Corpse.wav

Pre-gap length 0:00:00.26

Peak level 99.4 %
Extraction speed 3.4 X
Track quality 100.0 %
Test CRC B51E41F7
Copy CRC B51E41F7
Accurately ripped (confidence 5) [4CF1F61A] (AR v2)
Copy OK

Track 13

Filename C:\Bill Nelson - Trial By Intimacy (The Book Of Splendours) (2012) [4CD BoxSet] {Esoteric Recordings}\CD3\13 - Ardent Hands.wav

Pre-gap length 0:00:00.41

Peak level 78.9 %
Extraction speed 3.7 X
Track quality 100.0 %
Test CRC BE1D533F
Copy CRC BE1D533F
Accurately ripped (confidence 5) [729D0FD2] (AR v2)
Copy OK

Track 14

Filename C:\Bill Nelson - Trial By Intimacy (The Book Of Splendours) (2012) [4CD BoxSet] {Esoteric Recordings}\CD3\14 - Her Laughing Torso.wav

Pre-gap length 0:00:01.27

Peak level 76.7 %
Extraction speed 3.5 X
Track quality 100.0 %
Test CRC 3EC5DEA9
Copy CRC 3EC5DEA9
Accurately ripped (confidence 5) [68769DF0] (AR v2)
Copy OK

Track 15

Filename C:\Bill Nelson - Trial By Intimacy (The Book Of Splendours) (2012) [4CD BoxSet] {Esoteric Recordings}\CD3\15 - Migrating Angels.wav

Pre-gap length 0:00:00.01

Peak level 90.4 %
Extraction speed 4.2 X
Track quality 100.0 %
Test CRC 37AD610F
Copy CRC 37AD610F
Accurately ripped (confidence 5) [2F2BFD40] (AR v2)
Copy OK

Track 16

Filename C:\Bill Nelson - Trial By Intimacy (The Book Of Splendours) (2012) [4CD BoxSet] {Esoteric Recordings}\CD3\16 - Les Amoureux.wav

Pre-gap length 0:00:01.07

Peak level 99.4 %
Extraction speed 5.1 X
Track quality 100.0 %
Test CRC CD434D43
Copy CRC CD434D43
Accurately ripped (confidence 5) [6721F867] (AR v2)
Copy OK

Track 17

Filename C:\Bill Nelson - Trial By Intimacy (The Book Of Splendours) (2012) [4CD BoxSet] {Esoteric Recordings}\CD3\17 - Meshes Of The Afternoon.wav

Pre-gap length 0:00:00.01

Peak level 80.5 %
Extraction speed 3.8 X
Track quality 100.0 %
Test CRC 863ED7B0
Copy CRC 863ED7B0
Accurately ripped (confidence 5) [A6213A00] (AR v2)
Copy OK

Track 18

Filename C:\Bill Nelson - Trial By Intimacy (The Book Of Splendours) (2012) [4CD BoxSet] {Esoteric Recordings}\CD3\18 - Mountains Of The Heart.wav

Pre-gap length 0:00:01.17

Peak level 83.0 %
Extraction speed 3.5 X
Track quality 99.9 %
Test CRC 3FCA3D2B
Copy CRC 3FCA3D2B
Accurately ripped (confidence 5) [86954B7F] (AR v2)
Copy OK

Track 19

Filename C:\Bill Nelson - Trial By Intimacy (The Book Of Splendours) (2012) [4CD BoxSet] {Esoteric Recordings}\CD3\19 - Willow Silk.wav

Pre-gap length 0:00:01.70

Peak level 95.6 %
Extraction speed 5.2 X
Track quality 100.0 %
Test CRC 3DB7F541
Copy CRC 3DB7F541
Accurately ripped (confidence 5) [A389C62F] (AR v2)
Copy OK

Track 20

Filename C:\Bill Nelson - Trial By Intimacy (The Book Of Splendours) (2012) [4CD BoxSet] {Esoteric Recordings}\CD3\20 - Tender Encounters (States Of Grace).wav

Pre-gap length 0:00:02.00

Peak level 95.8 %
Extraction speed 5.0 X
Track quality 100.0 %
Test CRC 6B21559E
Copy CRC 6B21559E
Accurately ripped (confidence 5) [A35837ED] (AR v2)
Copy OK

Track 21

Filename C:\Bill Nelson - Trial By Intimacy (The Book Of Splendours) (2012) [4CD BoxSet] {Esoteric Recordings}\CD3\21 - Melancholia.wav

Pre-gap length 0:00:00.72

Peak level 93.0 %
Extraction speed 5.7 X
Track quality 100.0 %
Test CRC C0D02553
Copy CRC C0D02553
Accurately ripped (confidence 5) [F0F6151F] (AR v2)
Copy OK

Track 22

Filename C:\Bill Nelson - Trial By Intimacy (The Book Of Splendours) (2012) [4CD BoxSet] {Esoteric Recordings}\CD3\22 - The Eternal Female.wav

Pre-gap length 0:00:01.49

Peak level 73.8 %
Extraction speed 5.9 X
Track quality 100.0 %
Test CRC 990BA690
Copy CRC 990BA690
Accurately ripped (confidence 5) [9A1ABB55] (AR v2)
Copy OK


All tracks accurately ripped

No errors occurred

End of status report

==== Log checksum BFF5ADF715356615C2601EA95E0560DD5216346ACFCB1D9B3EFEA282FA317D03 ====

Exact Audio Copy V1.0 beta 3 from 29. August 2011

EAC extraction logfile from 28. May 2014, 21:12

Bill Nelson / Trial By Intimacy (CD4). A Catalogue Of Obsessions

Used drive : ATAPI iHAS124 B Adapter: 2 ID: 1

Read mode : Secure
Utilize accurate stream : Yes
Defeat audio cache : Yes
Make use of C2 pointers : No

Read offset correction : 6
Overread into Lead-In and Lead-Out : No
Fill up missing offset samples with silence : Yes
Delete leading and trailing silent blocks : No
Null samples used in CRC calculations : Yes
Used interface : Native Win32 interface for Win NT & 2000
Gap handling : Appended to previous track

Used output format : User Defined Encoder
Selected bitrate : 1024 kBit/s
Quality : High
Add ID3 tag : No
Command line compressor : C:\Program Files (x86)\FLAC Frontend\tools\flac.exe
Additional command line options : -8 -V -T "ARTIST=%artist%" -T "TITLE=%title%" -T "ALBUM=%albumtitle%" -T "DATE=%year%" -T "TRACKNUMBER=%tracknr%" -T "TOTALTRACKS=%numtracks%" -T "GENRE=%genre%" -T "ALBUMARTIST=%albumartist%" -T "ALBUM ARTIST=%albumartist%" -T "COMMENT=EAC Secure Mode, Test & Copy, AccurateRip, FLAC -8" %source%


TOC of the extracted CD

Track | Start | Length | Start sector | End sector
––––––––––––––––––––––––––––-
1 | 0:00.14 | 4:44.46 | 14 | 21359
2 | 4:44.60 | 2:15.55 | 21360 | 31539
3 | 7:00.40 | 3:04.72 | 31540 | 45411
4 | 10:05.37 | 1:02.56 | 45412 | 50117
5 | 11:08.18 | 2:09.25 | 50118 | 59817
6 | 13:17.43 | 2:28.62 | 59818 | 70979
7 | 15:46.30 | 1:49.12 | 70980 | 79166
8 | 17:35.42 | 1:45.08 | 79167 | 87049
9 | 19:20.50 | 2:23.48 | 87050 | 97822
10 | 21:44.23 | 1:41.03 | 97823 | 105400
11 | 23:25.26 | 2:00.74 | 105401 | 114474
12 | 25:26.25 | 1:48.50 | 114475 | 122624
13 | 27:15.00 | 2:27.47 | 122625 | 133696
14 | 29:42.47 | 1:49.42 | 133697 | 141913
15 | 31:32.14 | 3:09.54 | 141914 | 156142
16 | 34:41.68 | 2:05.33 | 156143 | 165550
17 | 36:47.26 | 1:53.09 | 165551 | 174034
18 | 38:40.35 | 2:11.45 | 174035 | 183904
19 | 40:52.05 | 2:10.01 | 183905 | 193655
20 | 43:02.06 | 1:56.39 | 193656 | 202394


Track 1

Filename C:\Bill Nelson - Trial By Intimacy (The Book Of Splendours) (2012) [4CD BoxSet] {Esoteric Recordings}\CD4\01 - Sex Party Six.wav

Pre-gap length 0:00:02.14

Peak level 99.4 %
Extraction speed 3.5 X
Track quality 100.0 %
Test CRC EB6598AD
Copy CRC EB6598AD
Accurately ripped (confidence 5) [CDBB1F74] (AR v2)
Copy OK

Track 2

Filename C:\Bill Nelson - Trial By Intimacy (The Book Of Splendours) (2012) [4CD BoxSet] {Esoteric Recordings}\CD4\02 - Wider Windows For The Walls Of The World.wav

Pre-gap length 0:00:00.52

Peak level 95.6 %
Extraction speed 3.4 X
Track quality 100.0 %
Test CRC 4A03B728
Copy CRC 4A03B728
Accurately ripped (confidence 5) [BE65DB29] (AR v2)
Copy OK

Track 3

Filename C:\Bill Nelson - Trial By Intimacy (The Book Of Splendours) (2012) [4CD BoxSet] {Esoteric Recordings}\CD4\03 - Time In Tokyo.wav

Pre-gap length 0:00:00.37

Peak level 93.9 %
Extraction speed 3.9 X
Track quality 100.0 %
Test CRC 0937B618
Copy CRC 0937B618
Accurately ripped (confidence 5) [2B10A0FA] (AR v2)
Copy OK

Track 4

Filename C:\Bill Nelson - Trial By Intimacy (The Book Of Splendours) (2012) [4CD BoxSet] {Esoteric Recordings}\CD4\04 - Happily Addicted To You.wav

Pre-gap length 0:00:01.57

Peak level 77.3 %
Extraction speed 1.8 X
Track quality 99.8 %
Test CRC 6871876D
Copy CRC 6871876D
Accurately ripped (confidence 5) [EC342780] (AR v2)
Copy OK

Track 5

Filename C:\Bill Nelson - Trial By Intimacy (The Book Of Splendours) (2012) [4CD BoxSet] {Esoteric Recordings}\CD4\05 - Snakes With Wings.wav

Pre-gap length 0:00:01.74

Peak level 99.4 %
Extraction speed 3.9 X
Track quality 100.0 %
Test CRC FF6F73B4
Copy CRC FF6F73B4
Accurately ripped (confidence 5) [782A50C4] (AR v2)
Copy OK

Track 6

Filename C:\Bill Nelson - Trial By Intimacy (The Book Of Splendours) (2012) [4CD BoxSet] {Esoteric Recordings}\CD4\06 - The Boy Pilots Of Bangkok.wav

Pre-gap length 0:00:01.53

Peak level 99.4 %
Extraction speed 4.2 X
Track quality 100.0 %
Test CRC 7010C724
Copy CRC 7010C724
Accurately ripped (confidence 5) [26994403] (AR v2)
Copy OK

Track 7

Filename C:\Bill Nelson - Trial By Intimacy (The Book Of Splendours) (2012) [4CD BoxSet] {Esoteric Recordings}\CD4\07 - Erotikon.wav

Pre-gap length 0:00:01.71

Peak level 99.4 %
Extraction speed 4.0 X
Track quality 100.0 %
Test CRC 79D53689
Copy CRC 79D53689
Accurately ripped (confidence 5) [D1A91EC1] (AR v2)
Copy OK

Track 8

Filename C:\Bill Nelson - Trial By Intimacy (The Book Of Splendours) (2012) [4CD BoxSet] {Esoteric Recordings}\CD4\08 - Birds In Two Hemispheres.wav

Pre-gap length 0:00:01.64

Peak level 90.3 %
Extraction speed 4.1 X
Track quality 100.0 %
Test CRC F2C3E788
Copy CRC F2C3E788
Accurately ripped (confidence 5) [2785664C] (AR v2)
Copy OK

Track 9

Filename C:\Bill Nelson - Trial By Intimacy (The Book Of Splendours) (2012) [4CD BoxSet] {Esoteric Recordings}\CD4\09 - Windmills In A World Without Wind.wav

Pre-gap length 0:00:00.30

Peak level 61.4 %
Extraction speed 4.5 X
Track quality 100.0 %
Test CRC 2DBE4ED7
Copy CRC 2DBE4ED7
Accurately ripped (confidence 5) [2F911C11] (AR v2)
Copy OK

Track 10

Filename C:\Bill Nelson - Trial By Intimacy (The Book Of Splendours) (2012) [4CD BoxSet] {Esoteric Recordings}\CD4\10 - Love's First Kiss.wav

Pre-gap length 0:00:02.16

Peak level 98.4 %
Extraction speed 4.3 X
Track quality 100.0 %
Test CRC 7432CC5D
Copy CRC 7432CC5D
Accurately ripped (confidence 5) [E1763CF6] (AR v2)
Copy OK

Track 11

Filename C:\Bill Nelson - Trial By Intimacy (The Book Of Splendours) (2012) [4CD BoxSet] {Esoteric Recordings}\CD4\11 - Initiation Of The Heart's Desire.wav

Pre-gap length 0:00:01.26

Peak level 78.5 %
Extraction speed 4.6 X
Track quality 100.0 %
Test CRC B2CDF996
Copy CRC B2CDF996
Accurately ripped (confidence 5) [34376868] (AR v2)
Copy OK

Track 12

Filename C:\Bill Nelson - Trial By Intimacy (The Book Of Splendours) (2012) [4CD BoxSet] {Esoteric Recordings}\CD4\12 - Edge Of Tears.wav

Pre-gap length 0:00:01.08

Peak level 75.3 %
Extraction speed 4.6 X
Track quality 100.0 %
Test CRC DDC6456F
Copy CRC DDC6456F
Accurately ripped (confidence 5) [00468A4E] (AR v2)
Copy OK

Track 13

Filename C:\Bill Nelson - Trial By Intimacy (The Book Of Splendours) (2012) [4CD BoxSet] {Esoteric Recordings}\CD4\13 - Test Of Affection.wav

Pre-gap length 0:00:01.27

Peak level 94.1 %
Extraction speed 5.0 X
Track quality 100.0 %
Test CRC F9847F73
Copy CRC F9847F73
Accurately ripped (confidence 5) [878AFE5D] (AR v2)
Copy OK

Track 14

Filename C:\Bill Nelson - Trial By Intimacy (The Book Of Splendours) (2012) [4CD BoxSet] {Esoteric Recordings}\CD4\14 - Words Across Tables.wav

Pre-gap length 0:00:01.65

Peak level 99.4 %
Extraction speed 3.2 X
Track quality 99.9 %
Test CRC 3AF469A0
Copy CRC 3AF469A0
Accurately ripped (confidence 5) [E235FBD8] (AR v2)
Copy OK

Track 15

Filename C:\Bill Nelson - Trial By Intimacy (The Book Of Splendours) (2012) [4CD BoxSet] {Esoteric Recordings}\CD4\15 - A Promise Of Perfume.wav

Pre-gap length 0:00:02.26

Peak level 99.4 %
Extraction speed 5.5 X
Track quality 100.0 %
Test CRC 8C37579F
Copy CRC 8C37579F
Accurately ripped (confidence 5) [58999918] (AR v2)
Copy OK

Track 16

Filename C:\Bill Nelson - Trial By Intimacy (The Book Of Splendours) (2012) [4CD BoxSet] {Esoteric Recordings}\CD4\16 - This Dangerous Age.wav

Pre-gap length 0:00:01.59

Peak level 91.8 %
Extraction speed 5.2 X
Track quality 100.0 %
Test CRC 76A7B09E
Copy CRC 76A7B09E
Accurately ripped (confidence 5) [D4EC68C1] (AR v2)
Copy OK

Track 17

Filename C:\Bill Nelson - Trial By Intimacy (The Book Of Splendours) (2012) [4CD BoxSet] {Esoteric Recordings}\CD4\17 - The Glass Breakfast.wav

Pre-gap length 0:00:01.44

Peak level 91.4 %
Extraction speed 5.2 X
Track quality 100.0 %
Test CRC C0124779
Copy CRC C0124779
Accurately ripped (confidence 5) [18CA7FD1] (AR v2)
Copy OK

Track 18

Filename C:\Bill Nelson - Trial By Intimacy (The Book Of Splendours) (2012) [4CD BoxSet] {Esoteric Recordings}\CD4\18 - Talk Technique.wav

Pre-gap length 0:00:01.44

Peak level 99.4 %
Extraction speed 5.5 X
Track quality 100.0 %
Test CRC 24EFC230
Copy CRC 24EFC230
Accurately ripped (confidence 5) [46A0AF8B] (AR v2)
Copy OK

Track 19

Filename C:\Bill Nelson - Trial By Intimacy (The Book Of Splendours) (2012) [4CD BoxSet] {Esoteric Recordings}\CD4\19 - The Last Summer For Dancing.wav

Pre-gap length 0:00:01.47

Peak level 99.4 %
Extraction speed 5.5 X
Track quality 100.0 %
Test CRC 128B01C3
Copy CRC 128B01C3
Accurately ripped (confidence 5) [2CB1459D] (AR v2)
Copy OK

Track 20

Filename C:\Bill Nelson - Trial By Intimacy (The Book Of Splendours) (2012) [4CD BoxSet] {Esoteric Recordings}\CD4\20 - View From A Balcony.wav

Pre-gap length 0:00:01.21

Peak level 53.2 %
Extraction speed 3.7 X
Track quality 99.9 %
Test CRC 3941EE00
Copy CRC 3941EE00
Accurately ripped (confidence 5) [97455854] (AR v2)
Copy OK


All tracks accurately ripped

No errors occurred

End of status report

==== Log checksum 4EF36F2C34712F4C46C8B9FB20474A79F6294EF94A100FB9FE02FC38A9B975B1 ====


Bill Nelson - Trial By Intimacy (The Book Of Splendours) (2012) {4CD Esoteric Recordings}

Bill Nelson - Trial By Intimacy (The Book Of Splendours) (2012) {4CD Esoteric Recordings}

Bill Nelson - Trial By Intimacy (The Book Of Splendours) (2012) {4CD Esoteric Recordings}


More Bill Nelson…