Subcategories

Bad Religion - Suffer (1988) [ORG] RESTORED

Posted By: Rehabilly
Bad Religion - Suffer (1988) [ORG] RESTORED

Bad Religion - Suffer (1988)
FLAC+CUE+LOG or MP3 CBR 320 | 26:12 mins | 227 or 103 MB
Original North American pressing '1992 | Epitaph Records # E-86404-2

Along with such releases as NO CONTROL and AGAINST THE GRAIN, Bad Religion's 1988 release, SUFFER, is one of their finest. The band (which saw the original line-up reunite for the album's release) was improving and becoming more and more focused with each successive release, and SUFFER showed the band as one of the world's top thought-provoking punk outfits. Although many similar-sounding bands have taken Bad Religion's patented sound further chartwise, few have been able to truly top such Bad Religion classics as "You Are (the Government)", the title track ,"Do What You Want", and "What Can You Do?".

Suffer was always one of the band's strongest albums, marking the reunion of its original lineup, tighter playing, and the blazing erudition of cuts like "Land of Competition", "You Are (The Government)", and "What Can You Do?". The album also rings true aesthetically, especially in light of the factional muddle the punk and hardcore scenes find themselves in today. Suffer drives forward at a consistent, breakneck speed, the band's no-frills chording supporting Greg Graffin's still vital cautionary wordsmithing; it's not flashy, nor is it slick, but it gets the job done.

~ Johnny Loftus, all media guide


Although Suffer was not charted in Billboard, it is considered by many to be one of the best punk albums of the 1980s, as well as its follow-up No Control. After its release, Suffer quickly became Epitaph Records best seller and was the label's best-selling third album for a number of years, until the release of The Offspring's 1994 highly acclaimed album Smash. A plethora of third-wave punk bands cite this album as a major inspiration; NOFX's Fat Mike has called it "the record that changed everything".

Tracklist:

01. You Are (The Government)
02. 1000 More Fools
03. How Much Is Enough?
04. When?
05. Give You Nothing
06. Land Of Competition
07. Forbidden Beat
08. Best For You
09. Suffer
10. Delirium Of Disorder
11. Part II (The Numbers Game)
12. What Can You Do?
13. Do What You Want
14. Part IV (The Index Fossil)
15. Pessimistic Lines

all songs written by Graffin / Gurewitz

Exact Audio Copy V0.99 prebeta 5 from 4. May 2009

EAC extraction logfile from 27. May 2009, 10:21

Bad Religion / Suffer

Used drive : ASUS DRW-1814BL Adapter: 1 ID: 0

Read mode : Secure
Utilize accurate stream : Yes
Defeat audio cache : Yes
Make use of C2 pointers : No

Read offset correction : 6
Overread into Lead-In and Lead-Out : No
Fill up missing offset samples with silence : Yes
Delete leading and trailing silent blocks : No
Null samples used in CRC calculations : Yes
Used interface : Installed external ASPI interface

Used output format : Internal WAV Routines
Sample format : 44.100 Hz; 16 Bit; Stereo


TOC of the extracted CD

Track | Start | Length | Start sector | End sector
––––––––––––––––––––––––––––-
1 | 0:00.00 | 1:21.70 | 0 | 6144
2 | 1:21.70 | 1:35.39 | 6145 | 13308
3 | 2:57.34 | 1:22.68 | 13309 | 19526
4 | 4:20.27 | 1:40.05 | 19527 | 27031
5 | 6:00.32 | 2:02.18 | 27032 | 36199
6 | 8:02.50 | 2:04.52 | 36200 | 45551
7 | 10:07.27 | 1:57.28 | 45552 | 54354
8 | 12:04.55 | 1:55.42 | 54355 | 63021
9 | 14:00.22 | 1:47.43 | 63022 | 71089
10 | 15:47.65 | 1:39.22 | 71090 | 78536
11 | 17:27.12 | 1:41.15 | 78537 | 86126
12 | 19:08.27 | 2:44.60 | 86127 | 98486
13 | 21:53.12 | 1:07.10 | 98487 | 103521
14 | 23:00.22 | 2:04.38 | 103522 | 112859
15 | 25:04.60 | 1:07.47 | 112860 | 117931


Range status and errors

Selected range

Filename C:\200\1988- Suffer (E-86404-2)\Bad Religion - Suffer (Orig).wav

Peak level 89.9 %
Range quality 100.0 %
Copy CRC 63CDC441
Copy OK

No errors occurred


AccurateRip summary

Track 1 accurately ripped (confidence 14) [CB3A642D]
Track 2 accurately ripped (confidence 14) [FA5B6F82]
Track 3 accurately ripped (confidence 14) [09EAF676]
Track 4 accurately ripped (confidence 13) [3975DB0B]
Track 5 accurately ripped (confidence 15) [5F91824D]
Track 6 accurately ripped (confidence 14) [AC1AC9E5]
Track 7 accurately ripped (confidence 12) [2E1E9896]
Track 8 accurately ripped (confidence 13) [102D7BA0]
Track 9 accurately ripped (confidence 14) [1883D4D1]
Track 10 accurately ripped (confidence 15) [9F503D0B]
Track 11 accurately ripped (confidence 14) [F2494BF7]
Track 12 accurately ripped (confidence 11) [B9509CB3]
Track 13 accurately ripped (confidence 14) [3DEA83A9]
Track 14 accurately ripped (confidence 14) [5310BD70]
Track 15 accurately ripped (confidence 13) [333C19F2]

All tracks accurately ripped

End of status report

Produced and Arranged by Bad Religion
Engineered by The Legendary Starbolt and Donnell Cameron
Recorded at Westbeach Recorders, Hollywood, CA, in April 1988.

• Greg Graffin – lead & backing voices
• Mr. Brett – lead & rhythm guitar, backing vocals
• Greg Hetson – lead & rhythm guitar
• Jay Bentley – bass guitar, backing vocals
• Pete Finestone – drums

Original Release Date: September 8, 1988
CD Release Date: September 28, 1992
Format: Original Recording Reissued
Label: Epitaph Records
Catalog No.: E-86404-2
The Right choice*
http://www.uploadable.ch/file/zkEzBBXH4m4m/BAR188SUF942FC.rar

lossy.mp3
http://www.uploadable.ch/file/n644epKmGCEZ/BAR188SUF20GC.rar


* Original CD -> EAC Image, embedded cuesheet & more, foobar2000 ready, etc.
(all CUEs, LOGs and other technical info includes in the internal "CD_Support" archive)
All Covers included (in FLAC & MP3).