Subcategories

Bad Religion - 80-85 (1991) RESTORED

Posted By: Rehabilly
Bad Religion - 80-85 (1991) RESTORED

Bad Religion - 80-85 (1991)
FLAC+CUE+LOG or MP3 CBR 320 | 56:36 min | 398 or 124 MB

80-85 contains Bad Religion's first full-length album, HOW COULD HELL BE ANY WORSE?…, their first EP, and additional rare material. Bad Religion: Greg Graffin (vocals); Mr. Brett, Greg Hetson (guitar); Jay Bentley, Tim Gallegos (bass); Pete Finestone (drums). Principally recorded in Los Angeles, California between 1980 and 1985. For newest Punk-Rock fans, this compilation 80-85 is highly recommended… As expected, the songs are a lot rawer than their later releases, but a lot of the same musical elements that would be perfected in the 1990s by the band (biting social commentary, melodic twists and turns) are present. Some fans consider this era "the Real Bad Religion", as evidenced by such tracks as "Yesterday", "New Leaf", "Along the Way", and "Bad Religion".

A tremendous collection of early Bad Religion that covers most of their hardcore and early post-hardcore period, including their debut record, How Could Hell Be Any Worse? Greg Graffin's snarl is prominently displayed, and the band rages through this anthology's 28 tracks, which include three takes of their signature theme, "Bad Religion." Lots of tracks are suffused with a quasi-liberal, populist message (e.g., "Politics," "World War III," and "Oligarchy") and are more lyrically sophisticated than one might assume. An excellent introduction.

~ John Dougan, all media guide
Tracklist:

01. We're Only Gonna Die
02. Latch Key Kids
03. Part III
04. Faith In God
05. Fuck Armageddon… This Is Hell
06. Pitty
07. Into The Night
08. Damned To Be Free
09. White Trash (2nd Generation)
10. American Dream
11. Eat Your Dog
12. Voice Of God Is Government
13. Oligarchy
14. Doing Time
15. Bad Religion
16. Politics
17. Sensory Overload
18. Slaves
19. Drastic Actions
20. World War III
21. Yesterday
22. Frogger
23. Bad Religion
24. Along The Way
25. New Leaf
26. Bad Religion
27. Slaves
28. Drastic Actions

Exact Audio Copy V0.99 prebeta 4 from 23. January 2008

EAC extraction logfile from 31. January 2009, 5:06

Bad Religion / 80-85

Used drive : PLEXTOR CD-R PREMIUM2 Adapter: 1 ID: 1

Read mode : Secure
Utilize accurate stream : Yes
Defeat audio cache : Yes
Make use of C2 pointers : No

Read offset correction : 30
Overread into Lead-In and Lead-Out : Yes
Fill up missing offset samples with silence : Yes
Delete leading and trailing silent blocks : No
Null samples used in CRC calculations : Yes
Used interface : Installed external ASPI interface

Used output format : Internal WAV Routines
Sample format : 44.100 Hz; 16 Bit; Stereo


TOC of the extracted CD

Track | Start | Length | Start sector | End sector
––––––––––––––––––––––––––––-
1 | 0:00.00 | 2:17.30 | 0 | 10304
2 | 2:17.30 | 1:44.00 | 10305 | 18104
3 | 4:01.30 | 1:54.35 | 18105 | 26689
4 | 5:55.65 | 1:54.25 | 26690 | 35264
5 | 7:50.15 | 2:54.73 | 35265 | 48387
6 | 10:45.13 | 2:05.17 | 48388 | 57779
7 | 12:50.30 | 3:28.43 | 57780 | 73422
8 | 16:18.73 | 2:03.05 | 73423 | 82652
9 | 18:22.03 | 2:25.02 | 82653 | 93529
10 | 20:47.05 | 1:40.25 | 93530 | 101054
11 | 22:27.30 | 1:06.23 | 101055 | 106027
12 | 23:33.53 | 2:55.40 | 106028 | 119192
13 | 26:29.18 | 1:05.45 | 119193 | 124112
14 | 27:34.63 | 3:04.42 | 124113 | 137954
15 | 30:39.30 | 1:49.43 | 137955 | 146172
16 | 32:28.73 | 1:21.72 | 146173 | 152319
17 | 33:50.70 | 1:34.65 | 152320 | 159434
18 | 35:25.60 | 1:20.25 | 159435 | 165459
19 | 36:46.10 | 2:39.68 | 165460 | 177452
20 | 39:26.03 | 0:58.07 | 177453 | 181809
21 | 40:24.10 | 2:40.08 | 181810 | 193817
22 | 43:04.18 | 1:20.47 | 193818 | 199864
23 | 44:24.65 | 2:10.48 | 199865 | 209662
24 | 46:35.38 | 1:36.00 | 209663 | 216862
25 | 48:11.38 | 2:57.25 | 216863 | 230162
26 | 51:08.63 | 1:48.25 | 230163 | 238287
27 | 52:57.13 | 1:07.15 | 238288 | 243327
28 | 54:04.28 | 2:31.72 | 243328 | 254724


Range status and errors

Selected range

Filename C:\200\Bad Religion - 80-85 (Epitaph E-86407-2, 1991)\Bad Religion - 80-85.wav

Peak level 100.0 %
Range quality 99.9 %
Copy CRC B9C70995
Copy OK

No errors occurred


AccurateRip summary

Track 1 accurately ripped (confidence 3) [C2798FA6]
Track 2 accurately ripped (confidence 3) [7C8FC4D8]
Track 3 accurately ripped (confidence 3) [83B8BC64]
Track 4 accurately ripped (confidence 3) [DCF88009]
Track 5 accurately ripped (confidence 3) [FDA1D8FC]
Track 6 accurately ripped (confidence 3) [6CE502F3]
Track 7 accurately ripped (confidence 3) [88A8603D]
Track 8 accurately ripped (confidence 3) [F10A252D]
Track 9 accurately ripped (confidence 3) [4CFAAF63]
Track 10 accurately ripped (confidence 3) [CB7F5D77]
Track 11 accurately ripped (confidence 3) [D18E2372]
Track 12 accurately ripped (confidence 3) [F71F0749]
Track 13 accurately ripped (confidence 3) [A3F16B99]
Track 14 accurately ripped (confidence 3) [719F01E1]
Track 15 accurately ripped (confidence 3) [1E9B5639]
Track 16 accurately ripped (confidence 3) [27CFD09F]
Track 17 accurately ripped (confidence 3) [14A18F89]
Track 18 accurately ripped (confidence 3) [A1FDBE28]
Track 19 accurately ripped (confidence 3) [03A5DF1C]
Track 20 accurately ripped (confidence 3) [0171276F]
Track 21 accurately ripped (confidence 3) [03ED3782]
Track 22 accurately ripped (confidence 3) [97869DBE]
Track 23 accurately ripped (confidence 3) [5EF55D5A]
Track 24 accurately ripped (confidence 3) [F187CA2F]
Track 25 accurately ripped (confidence 3) [9975802D]
Track 26 accurately ripped (confidence 3) [AEA0893C]
Track 27 accurately ripped (confidence 3) [BEBED043]
Track 28 accurately ripped (confidence 3) [507EAA0D]

All tracks accurately ripped

End of status report

Tracks 1-14 taken from "How Could Hell Be Any Worse?" LP '1982
Tracks 15-20 taken from "Bad Religion" Mini-LP '1980
Tracks 20-25 taken from "Back To The Known" Mini-LP '1984
Tracks 26-28 taken from "Public Service" Compilation LP '1981

Release Date: 1991
Format: Original Recording Reissued
Label: Epitaph Records
Catalog No.: E-86407-2
The Right choice*
http://www.uploadable.ch/file/CA2fNTfpNg56/BAR191EEF928F.rar

all covers.png (40 MB)
http://www.uploadable.ch/file/xJATqeCQAMCR/BAR191EEF315C.rar

lossy.mp3
http://www.uploadable.ch/file/9EGnRJzD4UEZ/BAR191EEF20G.rar


* EAC Image, embedded cuesheet & more, foobar2000 ready, etc.
(all CUEs, LOGs and other technical info includes in the internal "CD_Support" archive)