Subcategories

Art Blakey and The Jazz Messengers - Moanin' (1958) {2013 Japan SHM-CD Blue Note 24-192 Remaster}

Posted By: ruskaval
Art Blakey and The Jazz Messengers - Moanin' (1958) {2013 Japan SHM-CD Blue Note 24-192 Remaster}

Art Blakey and The Jazz Messengers - Moanin' (1958) {2013 Japan SHM-CD Blue Note 24-192 Remaster}
EAC rip (secure mode) | FLAC (tracks)+CUE+LOG -> 420 Mb | MP3 @320 -> 133 Mb
Full Artwork @ 600 dpi (png) -> 239 Mb | 5% repair rar | 24-bit 192 kHz remaster
© 2013 Universal Japan / Blue Note | BN 75th The Masterworks | TYCJ-81005
Jazz / Hard Bop

Reissue from Art Blakey & The Jazz Messengers features the high-fidelity SHM-CD format (compatible with standard CD player) and 24bit remastering. Includes an alternate take of "Blues March" for the first time in the world. Moanin' includes some of the greatest music Blakey produced in the studio with arguably his very best band. There are three tracks that are immortal and will always stand the test of time. The title selection is a pure tuneful melody stewed in a bluesy shuffle penned by pianist Bobby Timmons, while tenor saxophonist Benny Golson's classy, slowed "Along Came Betty" and the static, militaristic "Blues March" will always have a home in the repertoire of every student or professional jazz band.
Art Blakey and The Jazz Messengers - Moanin' (1958) {2013 Japan SHM-CD Blue Note 24-192 Remaster}

"Are You Real?" has the most subtle of melody lines, and "Drum Thunder Suite" has Blakey's quick blasting tom-tom-based rudiments reigning on high as the horns sigh, leading to hard bop. "Come Rain or Come Shine" is the piece that commands the most attention, a highly modified, lilting arrangement where the accompanying staggered, staccato rhythms contrast the light-hearted refrains. Certainly a complete and wholly satisfying album, Moanin' ranks with the very best of Blakey and what modern jazz offered in the late '50s and beyond.
Art Blakey and The Jazz Messengers - Moanin' (1958) {2013 Japan SHM-CD Blue Note 24-192 Remaster}


Personnel:
Art Blakey - drums
Benny Golson - tenor sax
Jymie Meritt - bass
Lee Morgan - trumpet
Bobby Timmons - piano

tracklist:
01 - Moanin'
02 - Are You Real
03 - Along Came Betty
04 - The Drum Thunder Suite
05 - Blues March
06 - Come Rain Or Come Shine
07 - Moanin' (alt. take) (bonus track)
08 - Blues March (alt. take) (bonus track)

Exact Audio Copy V1.0 beta 3 from 29. August 2011

EAC extraction logfile from 3. November 2014, 1:55

Art Blakey and The Jazz Messengers / Moanin'

Used drive : TSSTcorpCDDVDW SE-208DB Adapter: 7 ID: 0

Read mode : Secure
Utilize accurate stream : Yes
Defeat audio cache : Yes
Make use of C2 pointers : No

Read offset correction : 6
Overread into Lead-In and Lead-Out : No
Fill up missing offset samples with silence : Yes
Delete leading and trailing silent blocks : No
Null samples used in CRC calculations : Yes
Used interface : Native Win32 interface for Win NT & 2000
Gap handling : Appended to previous track

Used output format : User Defined Encoder
Selected bitrate : 1024 kBit/s
Quality : High
Add ID3 tag : No
Command line compressor : C:\Program Files (x86)\FLAC Frontend\tools\flac.exe
Additional command line options : -8 -V -T "ARTIST=%artist%" -T "TITLE=%title%" -T "ALBUM=%albumtitle%" -T "DATE=%year%" -T "TRACKNUMBER=%tracknr%" -T "TOTALTRACKS=%numtracks%" -T "GENRE=%genre%" -T "ALBUMARTIST=%albumartist%" -T "ALBUM ARTIST=%albumartist%" -T "COMMENT=EAC Secure Mode, Test & Copy, AccurateRip, FLAC -8" %source%


TOC of the extracted CD

Track | Start | Length | Start sector | End sector
––––––––––––––––––––––––––––-
1 | 0:00.00 | 9:35.39 | 0 | 43163
2 | 9:35.39 | 4:51.21 | 43164 | 65009
3 | 14:26.60 | 6:11.56 | 65010 | 92890
4 | 20:38.41 | 7:34.62 | 92891 | 127002
5 | 28:13.28 | 6:16.27 | 127003 | 155229
6 | 34:29.55 | 5:49.22 | 155230 | 181426
7 | 40:19.02 | 9:22.52 | 181427 | 223628
8 | 49:41.54 | 6:01.18 | 223629 | 250721


Track 1

Filename C:\Art Blakey and The Jazz Messengers - Moanin' (1958) {2013 Japan SHM-CD Blue Note 24-192 Remaster}\01 - Moanin'.wav

Pre-gap length 0:00:02.00

Peak level 100.0 %
Extraction speed 3.0 X
Track quality 100.0 %
Test CRC 7450BCDB
Copy CRC 7450BCDB
Accurately ripped (confidence 2) [CDD01683] (AR v2)
Copy OK

Track 2

Filename C:\Art Blakey and The Jazz Messengers - Moanin' (1958) {2013 Japan SHM-CD Blue Note 24-192 Remaster}\02 - Are You Real.wav

Pre-gap length 0:00:02.18

Peak level 99.2 %
Extraction speed 3.3 X
Track quality 100.0 %
Test CRC 5B7D8AAD
Copy CRC 5B7D8AAD
Accurately ripped (confidence 2) [3E741C7A] (AR v2)
Copy OK

Track 3

Filename C:\Art Blakey and The Jazz Messengers - Moanin' (1958) {2013 Japan SHM-CD Blue Note 24-192 Remaster}\03 - Along Came Betty.wav

Pre-gap length 0:00:02.19

Peak level 100.0 %
Extraction speed 3.8 X
Track quality 100.0 %
Test CRC 104CC33E
Copy CRC 104CC33E
Accurately ripped (confidence 2) [A8E7FC6E] (AR v2)
Copy OK

Track 4

Filename C:\Art Blakey and The Jazz Messengers - Moanin' (1958) {2013 Japan SHM-CD Blue Note 24-192 Remaster}\04 - The Drum Thunder Suite.wav

Pre-gap length 0:00:02.18

Peak level 100.0 %
Extraction speed 3.7 X
Track quality 99.9 %
Test CRC 33EF2451
Copy CRC 33EF2451
Accurately ripped (confidence 2) [F7D63FB9] (AR v2)
Copy OK

Track 5

Filename C:\Art Blakey and The Jazz Messengers - Moanin' (1958) {2013 Japan SHM-CD Blue Note 24-192 Remaster}\05 - Blues March.wav

Pre-gap length 0:00:02.18

Peak level 100.0 %
Extraction speed 4.4 X
Track quality 100.0 %
Test CRC 50EECF1F
Copy CRC 50EECF1F
Accurately ripped (confidence 2) [762707BA] (AR v2)
Copy OK

Track 6

Filename C:\Art Blakey and The Jazz Messengers - Moanin' (1958) {2013 Japan SHM-CD Blue Note 24-192 Remaster}\06 - Come Rain Or Come Shine.wav

Pre-gap length 0:00:02.18

Peak level 100.0 %
Extraction speed 4.6 X
Track quality 100.0 %
Test CRC 603C016E
Copy CRC 603C016E
Accurately ripped (confidence 2) [81DA87E1] (AR v2)
Copy OK

Track 7

Filename C:\Art Blakey and The Jazz Messengers - Moanin' (1958) {2013 Japan SHM-CD Blue Note 24-192 Remaster}\07 - Moanin' (alt. take) (bonus track).wav

Pre-gap length 0:00:02.43

Peak level 100.0 %
Extraction speed 5.2 X
Track quality 100.0 %
Test CRC 838F4152
Copy CRC 838F4152
Accurately ripped (confidence 2) [05A0061C] (AR v2)
Copy OK

Track 8

Filename C:\Art Blakey and The Jazz Messengers - Moanin' (1958) {2013 Japan SHM-CD Blue Note 24-192 Remaster}\08 - Blues March (alt. take) (bonus track).wav

Pre-gap length 0:00:02.43

Peak level 100.0 %
Extraction speed 4.5 X
Track quality 99.9 %
Test CRC 7C390651
Copy CRC 7C390651
Accurately ripped (confidence 2) [0B6F0838] (AR v2)
Copy OK


All tracks accurately ripped

No errors occurred

End of status report

==== Log checksum C29222E70B7DE0221C6E97368EAD433A0B3FFEE52B327CA7E23481B097149735 ====


Art Blakey and The Jazz Messengers - Moanin' (1958) {2013 Japan SHM-CD Blue Note 24-192 Remaster}

Art Blakey and The Jazz Messengers - Moanin' (1958) {2013 Japan SHM-CD Blue Note 24-192 Remaster}




NEXT -> More Blue Note 75th Anniversary The Masterworks Japan SHM-CD Blue Note 24-bit 192 kHz Remasters…