Art Blakey and The Jazz Messengers - Moanin' (1958) {2009 Analogue Productions DSD Remaster}

Posted By: ruskaval
Art Blakey and The Jazz Messengers - Moanin' (1958) {2009 Analogue Productions DSD Remaster}

Art Blakey and The Jazz Messengers - Moanin' (1958) {2009 Analogue Productions DSD Remaster}
XLD rip | FLAC (tracks)+CUE+LOG -> 309 Mb | MP3 @320 -> 119 Mb
Full Artwork @ 300 dpi (jpg) -> 13 Mb | 5% repair rar | DSD remaster
© 2009 Blue Note / Analogue Productions / EMI | CBNJ 84003 SA
Jazz / Hard Bop

Art Blakey's most successful album gave us Bobby Timmons' "Moanin'" and Benny Golson's "Along Came Betty" and "Blues March," tunes so powerful that Blakey played them almost every night for the next 30 years. This beautifully performed and recorded session made the Jazz Messengers a jazz institution and put Golson, Timmons and Morgan to the forefront of jazz.
Art Blakey and The Jazz Messengers - Moanin' (1958) {2009 Analogue Productions DSD Remaster}

Moanin' includes some of the greatest music Blakey produced in the studio with arguably his very best band. There are three tracks that are immortal and will always stand the test of time. The title selection is a pure tuneful melody stewed in a bluesy shuffle penned by pianist Bobby Timmons, while tenor saxophonist Benny Golson's classy, slowed "Along Came Betty" and the static, militaristic "Blues March" will always have a home in the repertoire of every student or professional jazz band. "Are You Real?" has the most subtle of melody lines, and "Drum Thunder Suite" has Blakey's quick blasting tom-tom-based rudiments reigning on high as the horns sigh, leading to hard bop. "Come Rain or Come Shine" is the piece that commands the most attention, a highly modified, lilting arrangement where the accompanying staggered, staccato rhythms contrast the light-hearted refrains. Certainly a complete and wholly satisfying album, Moanin' ranks with the very best of Blakey and what modern jazz offered in the late '50s and beyond.

Personnel:
Art Blakey, drums
Benny Golson, sax (tenor)
Jymie Meritt, bass
Lee Morgan, trumpet
Bobby Timmons, piano

tracklist:
01 - Warm-Up And Dialogue Between Lee And Rudy
02 - Moanin'
03 - Are You Real
04 - Along Came Betty
05 - The Drum Thunder Suite
06 - Blues March
07 - Come Rain Or Come Shine
08 - Moanin' [Alternate Take]

X Lossless Decoder version 20090320 (105.1)

XLD extraction logfile from 2009-05-16 06:41:55 -0700

Art Blakey & The Jazz Messengers / Moanin'

Used drive : PIONEER DVD-RW DVR-115D (revision 1.18)

Use cdparanoia mode : YES (CDParanoia III 10.2 engine)
Disable audio cache : OK for the drive with cache less than 2750KB
Make use of C2 pointers : NO
Read offset correction : 48
Max retry count : 100

TOC of the extracted CD
Track | Start | Length | Start sector | End sector
––––––––––––––––––––––––––––-
1 | 00:00:00 | 00:19:18 | 0 | 1442
2 | 00:19:18 | 09:34:04 | 1443 | 44496
3 | 09:53:22 | 04:50:14 | 44497 | 66260
4 | 14:43:36 | 06:11:65 | 66261 | 94150
5 | 20:55:26 | 07:32:31 | 94151 | 128081
6 | 28:27:57 | 06:15:60 | 128082 | 156266
7 | 34:43:42 | 05:47:64 | 156267 | 182355
8 | 40:31:31 | 09:28:42 | 182356 | 224997

Track 01
Filename : /Volumes/SG1TB/BluFrog/Upload/Art Blakey & The Jazz Messengers - Moanin' (1958) [FLAC] {Analogue Productions}/01 - Warm-Up And Dialogue Between Lee And Rudy.flac

CRC32 hash (test run) : 40D02368
CRC32 hash : 40D02368
CRC32 hash (skip zero) : 017BB5D6
AccurateRip signature : 2CCC82C6
->Track not present in AccurateRip database.
Statistics
Read error : 0
Skipped (treated as error) : 0
Edge jitter error (maybe fixed) : 0
Atom jitter error (maybe fixed) : 0
Drift error (maybe fixed) : 0
Dropped bytes error (maybe fixed) : 0
Duplicated bytes error (maybe fixed) : 0
Inconsistency in error sectors : 0

Track 02
Filename : /Volumes/SG1TB/BluFrog/Upload/Art Blakey & The Jazz Messengers - Moanin' (1958) [FLAC] {Analogue Productions}/02 - Moanin'.flac

CRC32 hash (test run) : 60803B62
CRC32 hash : 60803B62
CRC32 hash (skip zero) : 58925225
AccurateRip signature : 0D9DDFFC
->Track not present in AccurateRip database.
Statistics
Read error : 0
Skipped (treated as error) : 0
Edge jitter error (maybe fixed) : 0
Atom jitter error (maybe fixed) : 0
Drift error (maybe fixed) : 0
Dropped bytes error (maybe fixed) : 0
Duplicated bytes error (maybe fixed) : 0
Inconsistency in error sectors : 0

Track 03
Filename : /Volumes/SG1TB/BluFrog/Upload/Art Blakey & The Jazz Messengers - Moanin' (1958) [FLAC] {Analogue Productions}/03 - Are You Real.flac

CRC32 hash (test run) : EB6CEDEB
CRC32 hash : EB6CEDEB
CRC32 hash (skip zero) : 24D313EA
AccurateRip signature : E2B7D3FE
->Track not present in AccurateRip database.
Statistics
Read error : 0
Skipped (treated as error) : 0
Edge jitter error (maybe fixed) : 0
Atom jitter error (maybe fixed) : 0
Drift error (maybe fixed) : 0
Dropped bytes error (maybe fixed) : 0
Duplicated bytes error (maybe fixed) : 0
Inconsistency in error sectors : 0

Track 04
Filename : /Volumes/SG1TB/BluFrog/Upload/Art Blakey & The Jazz Messengers - Moanin' (1958) [FLAC] {Analogue Productions}/04 - Along Came Betty.flac

CRC32 hash (test run) : 4A16253E
CRC32 hash : 4A16253E
CRC32 hash (skip zero) : 6E47D748
AccurateRip signature : DB7A0C07
->Track not present in AccurateRip database.
Statistics
Read error : 0
Skipped (treated as error) : 0
Edge jitter error (maybe fixed) : 0
Atom jitter error (maybe fixed) : 0
Drift error (maybe fixed) : 0
Dropped bytes error (maybe fixed) : 0
Duplicated bytes error (maybe fixed) : 0
Inconsistency in error sectors : 0

Track 05
Filename : /Volumes/SG1TB/BluFrog/Upload/Art Blakey & The Jazz Messengers - Moanin' (1958) [FLAC] {Analogue Productions}/05 - The Drum Thunder Suite.flac

CRC32 hash (test run) : 8CB4535B
CRC32 hash : 8CB4535B
CRC32 hash (skip zero) : 823884CA
AccurateRip signature : B197E0AC
->Track not present in AccurateRip database.
Statistics
Read error : 0
Skipped (treated as error) : 0
Edge jitter error (maybe fixed) : 0
Atom jitter error (maybe fixed) : 0
Drift error (maybe fixed) : 0
Dropped bytes error (maybe fixed) : 0
Duplicated bytes error (maybe fixed) : 0
Inconsistency in error sectors : 0

Track 06
Filename : /Volumes/SG1TB/BluFrog/Upload/Art Blakey & The Jazz Messengers - Moanin' (1958) [FLAC] {Analogue Productions}/06 - Blues March.flac

CRC32 hash (test run) : BBBD7BC1
CRC32 hash : BBBD7BC1
CRC32 hash (skip zero) : 7E77385F
AccurateRip signature : 715087D2
->Track not present in AccurateRip database.
Statistics
Read error : 0
Skipped (treated as error) : 0
Edge jitter error (maybe fixed) : 0
Atom jitter error (maybe fixed) : 0
Drift error (maybe fixed) : 0
Dropped bytes error (maybe fixed) : 0
Duplicated bytes error (maybe fixed) : 0
Inconsistency in error sectors : 0

Track 07
Filename : /Volumes/SG1TB/BluFrog/Upload/Art Blakey & The Jazz Messengers - Moanin' (1958) [FLAC] {Analogue Productions}/07 - Come Rain Or Come Shine.flac

CRC32 hash (test run) : 80AF6A27
CRC32 hash : 80AF6A27
CRC32 hash (skip zero) : 87607B37
AccurateRip signature : 911E7F02
->Track not present in AccurateRip database.
Statistics
Read error : 0
Skipped (treated as error) : 0
Edge jitter error (maybe fixed) : 0
Atom jitter error (maybe fixed) : 0
Drift error (maybe fixed) : 0
Dropped bytes error (maybe fixed) : 0
Duplicated bytes error (maybe fixed) : 0
Inconsistency in error sectors : 0

Track 08
Filename : /Volumes/SG1TB/BluFrog/Upload/Art Blakey & The Jazz Messengers - Moanin' (1958) [FLAC] {Analogue Productions}/08 - Moanin' [Alternate Take].flac

CRC32 hash (test run) : FD40672D
CRC32 hash : FD40672D
CRC32 hash (skip zero) : B4B14AB6
AccurateRip signature : 5853FE5B
->Track not present in AccurateRip database.
Statistics
Read error : 0
Skipped (treated as error) : 0
Edge jitter error (maybe fixed) : 0
Atom jitter error (maybe fixed) : 0
Drift error (maybe fixed) : 0
Dropped bytes error (maybe fixed) : 0
Duplicated bytes error (maybe fixed) : 0
Inconsistency in error sectors : 0

No errors occurred

End of status report


Art Blakey and The Jazz Messengers - Moanin' (1958) {2009 Analogue Productions DSD Remaster}

Art Blakey and The Jazz Messengers - Moanin' (1958) {2009 Analogue Productions DSD Remaster}


All thanks goes to the original releaser!