Subcategories

Art Blakey - Drums Around The Corner (1958) {1999 Connoisseur CD Series}

Posted By: ruskaval
Art Blakey - Drums Around The Corner (1958) {1999 Connoisseur CD Series}

Art Blakey - Drums Around The Corner (1958) {1999 Connoisseur CD Series}
EAC rip (secure mode) | FLAC+CUE+LOG -> 475 Mb | MP3 @320 -> 165 Mb
Full Artwork @ 300 dpi (jpg) -> 8 Mb
© 1999 Capitol / Blue Note | 7243 3 21455 2 2 | Super Bit Mapping
Jazz / Hard Bop


Art Blakey - Drums Around The Corner (1958) {1999 Connoisseur CD Series}

This rare session, finally released in 1999, represents some of the most powerful drumming by Art Blakey, Roy Haynes, and Philly Joe Jones. Gathered together under Blakey's leadership, these three legendary drummers, conga master Ray Barretto, and Lee Morgan, Bobby Timmons, and Jymie Merritt from the Jazz Messengers all converge into a stunning ensemble unlike any that had come before. Each piece not only offers swinging grooves and dynamic interaction between the musicians, but Blakey, Haynes, Jones, and Barretto each take turns propelling the group and soloing in his own signature way.

Blakey's legendary strength, Haynes' snap-crackle-pop, and Jones' melodic invention are all evident as they each produce mesmerizing improvisations, complimenting and topping each other as they go. Whether on Bird's "Moose The Mooche," the free-flowing "Drums In The Rain," or the standard "Lover," the focus here is on the primal energy of the drum and its legitimacy as an essential source of music. Also included are "I've Got My Love To Keep Me Warm" and "What Is This Thing Called Love," both of which are electrifying duets between Blakey and bassist Paul Chambers. For drumming fans, there is little left to ask for from this priceless collection.
Personnel: Art Blakey (drums, timpani); Lee Morgan (trumpet); Bobby Timmons (piano); Philly Joe Jones (drums, timpani); Roy Haynes (drums); Ray Barretto (congas).

tracklist:
1 Moose the Mooche (Parker) 15:16
2 Blakey's Blues (Blakey) 11:04
3 Lee's Tune (Morgan) 8:22
4 Let's Take 16 Bars (Blakey) 6:09
5 Drums in the Rain (Blakey) 11:09
6 Lover (Hart, Rodgers) 7:19
7 I've Got My Love to Keep Me Warm (Berlin) 7:07
8 What Is This Thing Called Love? (Porter) 5:42

Art Blakey - Drums Around The Corner (1958) {1999 Connoisseur CD Series}

Exact Audio Copy V0.99 prebeta 5 from 4. May 2009

EAC extraction logfile from 6. December 2009, 20:36

Art Blakey / Drums Around The Corner

Used drive : TSSTcorpCD/DVDW TS-H552L Adapter: 3 ID: 0

Read mode : Secure
Utilize accurate stream : Yes
Defeat audio cache : Yes
Make use of C2 pointers : No

Read offset correction : 6
Overread into Lead-In and Lead-Out : No
Fill up missing offset samples with silence : Yes
Delete leading and trailing silent blocks : No
Null samples used in CRC calculations : Yes
Used interface : Native Win32 interface for Win NT & 2000
Gap handling : Appended to previous track

Used output format : User Defined Encoder
Selected bitrate : 1024 kBit/s
Quality : High
Add ID3 tag : No
Command line compressor : C:\Program Files\FLAC\flac.exe
Additional command line options : -6 -V -T "ARTIST=%a" -T "TITLE=%t" -T "ALBUM=%g" -T "DATE=%y" -T "TRACKNUMBER=%n" -T "GENRE=%m" -T "COMMENT=EAC FLAC -6" %s


TOC of the extracted CD

Track | Start | Length | Start sector | End sector
––––––––––––––––––––––––––––-
1 | 0:00.00 | 15:17.30 | 0 | 68804
2 | 15:17.30 | 11:05.45 | 68805 | 118724
3 | 26:23.00 | 8:24.00 | 118725 | 156524
4 | 34:47.00 | 6:11.30 | 156525 | 184379
5 | 40:58.30 | 11:11.07 | 184380 | 234711
6 | 52:09.37 | 7:21.68 | 234712 | 267854
7 | 59:31.30 | 7:09.32 | 267855 | 300061
8 | 66:40.62 | 5:43.08 | 300062 | 325794


Track 1

Filename C:\Art Blakey - Drums Around The Corner (1958) {1999 Connoisseur CD Series}\01 - Moose The Mooche.wav

Pre-gap length 0:00:02.00

Peak level 98.8 %
Track quality 100.0 %
Test CRC CDB13661
Copy CRC CDB13661
Accurately ripped (confidence 2) [E2E7D2B1]
Copy OK

Track 2

Filename C:\Art Blakey - Drums Around The Corner (1958) {1999 Connoisseur CD Series}\02 - Blakey's Blues.wav

Peak level 98.8 %
Track quality 100.0 %
Test CRC 711C5406
Copy CRC 711C5406
Accurately ripped (confidence 2) [10A3D888]
Copy OK

Track 3

Filename C:\Art Blakey - Drums Around The Corner (1958) {1999 Connoisseur CD Series}\03 - Lee's Tune.wav

Pre-gap length 0:00:01.09

Peak level 97.1 %
Track quality 100.0 %
Test CRC 3E447415
Copy CRC 3E447415
Accurately ripped (confidence 2) [A669DB74]
Copy OK

Track 4

Filename C:\Art Blakey - Drums Around The Corner (1958) {1999 Connoisseur CD Series}\04 - Let's Take 16 Bars.wav

Peak level 98.8 %
Track quality 100.0 %
Test CRC B99DCAFC
Copy CRC B99DCAFC
Accurately ripped (confidence 2) [071DDD49]
Copy OK

Track 5

Filename C:\Art Blakey - Drums Around The Corner (1958) {1999 Connoisseur CD Series}\05 - Drums In The Rain.wav

Pre-gap length 0:00:01.49

Peak level 98.8 %
Track quality 99.9 %
Test CRC 2FC24241
Copy CRC 2FC24241
Accurately ripped (confidence 2) [B99503EE]
Copy OK

Track 6

Filename C:\Art Blakey - Drums Around The Corner (1958) {1999 Connoisseur CD Series}\06 - Lover.wav

Pre-gap length 0:00:01.36

Peak level 98.8 %
Track quality 100.0 %
Test CRC C80E224B
Copy CRC C80E224B
Accurately ripped (confidence 2) [53F1B29A]
Copy OK

Track 7

Filename C:\Art Blakey - Drums Around The Corner (1958) {1999 Connoisseur CD Series}\07 - I've Got My Love To Keep Me Warm.wav

Pre-gap length 0:00:01.63

Peak level 98.8 %
Track quality 100.0 %
Test CRC F4B6EC9F
Copy CRC F4B6EC9F
Accurately ripped (confidence 2) [96B4E7C9]
Copy OK

Track 8

Filename C:\Art Blakey - Drums Around The Corner (1958) {1999 Connoisseur CD Series}\08 - What Is This Thing Called Love.wav

Pre-gap length 0:00:01.06

Peak level 98.8 %
Track quality 100.0 %
Test CRC A14F91BB
Copy CRC A14F91BB
Accurately ripped (confidence 2) [1A829057]
Copy OK


All tracks accurately ripped

No errors occurred

End of status report

FSonic Linkz

or

FileServe Linkz

p.s. the files are interchangeable…

No Mirror, plz!

pass: ruskaval