Art Blakey & The Jazz Messengers - Drivin' Hard In Zurich (1958) (ft. Lee Morgan) {2009 Hard Note}

Posted By: ruskaval
Art Blakey & The Jazz Messengers - Drivin' Hard In Zurich (1958) (ft. Lee Morgan) {2009 Hard Note}

Art Blakey & The Jazz Messengers - Drivin' Hard In Zurich (1958) (ft. Lee Morgan) {2009 Hard Note}
EAC rip (secure mode) | FLAC+CUE+LOG -> 600 Mb | MP3 @320 -> 247 Mb | Full Artwork
© 2009 Hard Note | HD041258
Jazz / Hard Bop

The late 50's were a prime period for Art Blakey's Jazz Messengers, and in 1958 this group features emerging stars trumpeter Lee Morgan, Benny Golson on tenor and pianist Bobby Timmons, and the 1958 version of The Jazz Messengers was widely recorded during their stay in Euroupe, so this CD contains some of the better uptempo arrangements in the Blakey book as I Remember Clifford, Along Came Betty, Moanin' and Whisper Not. Hard bop at its best, and all of them propelled by the powerful drumming of Art Blakey.
Personnel:
Lee Morgan - Trumpet
Benny Golson - Tenor Sax
Bobby Timmons - Piano
Jymie Merritt - Bass
Art Blakey - Drums

tracklist:
01 - Now's The Time (13:17)
02 - The Theme (6:48)
03 - Moanin' (14:31)
04 - Whisper Not (11:05)
05 - Evidence (6:14)
06 - I Remember Clifford (7:59)
07 - Just By Myself (6:44)
08 - Along Came Betty (11:59)
09 - My Funny Valentine (5:22)
10 - Come Rain Or Come Shine (8:47)
11 - Night In Tunisia (9:06)

Art Blakey & The Jazz Messengers - Drivin' Hard In Zurich (1958) (ft. Lee Morgan) {2009 Hard Note}

Exact Audio Copy V0.99 prebeta 5 from 4. May 2009

EAC extraction logfile from 1. November 2010, 13:56

Art Blakey & The Jazz Messengers / Drivin' Hard In Zurich

Used drive : TSSTcorpCD/DVDW TS-H552L Adapter: 3 ID: 0

Read mode : Secure
Utilize accurate stream : Yes
Defeat audio cache : Yes
Make use of C2 pointers : No

Read offset correction : 6
Overread into Lead-In and Lead-Out : No
Fill up missing offset samples with silence : Yes
Delete leading and trailing silent blocks : No
Null samples used in CRC calculations : Yes
Used interface : Native Win32 interface for Win NT & 2000
Gap handling : Appended to previous track

Used output format : User Defined Encoder
Selected bitrate : 1024 kBit/s
Quality : High
Add ID3 tag : No
Command line compressor : C:\Program Files\FLAC\flac.exe
Additional command line options : -6 -V -T "ARTIST=%a" -T "TITLE=%t" -T "ALBUM=%g" -T "DATE=%y" -T "TRACKNUMBER=%n" -T "GENRE=%m" -T "COMMENT=EAC FLAC -6" %s


TOC of the extracted CD

Track | Start | Length | Start sector | End sector
––––––––––––––––––––––––––––-
1 | 0:00.00 | 13:17.54 | 0 | 59828
2 | 13:17.54 | 6:48.25 | 59829 | 90453
3 | 20:06.04 | 14:31.04 | 90454 | 155782
4 | 34:37.08 | 11:05.31 | 155783 | 205688
5 | 45:42.39 | 6:14.29 | 205689 | 233767
6 | 51:56.68 | 7:59.61 | 233768 | 269753
7 | 59:56.54 | 6:44.39 | 269754 | 300092
8 | 66:41.18 | 11:59.35 | 300093 | 354052
9 | 78:40.53 | 5:22.65 | 354053 | 378267
10 | 84:03.43 | 8:47.69 | 378268 | 417861
11 | 92:51.37 | 9:06.58 | 417862 | 458869


Track 1

Filename C:\Art Blakey & The Jazz Messengers - Drivin' Hard In Zurich (1958) (ft. Lee Morgan) {2009 Hard Note}\01 - Now's The Time.wav

Pre-gap length 0:00:02.00

Peak level 95.8 %
Track quality 100.0 %
Test CRC 0B8D73DE
Copy CRC 0B8D73DE
Track not present in AccurateRip database
Copy OK

Track 2

Filename C:\Art Blakey & The Jazz Messengers - Drivin' Hard In Zurich (1958) (ft. Lee Morgan) {2009 Hard Note}\02 - The Theme.wav

Peak level 95.3 %
Track quality 100.0 %
Test CRC ECF78693
Copy CRC ECF78693
Track not present in AccurateRip database
Copy OK

Track 3

Filename C:\Art Blakey & The Jazz Messengers - Drivin' Hard In Zurich (1958) (ft. Lee Morgan) {2009 Hard Note}\03 - Moanin'.wav

Peak level 95.4 %
Track quality 100.0 %
Test CRC 933C06B5
Copy CRC 933C06B5
Track not present in AccurateRip database
Copy OK

Track 4

Filename C:\Art Blakey & The Jazz Messengers - Drivin' Hard In Zurich (1958) (ft. Lee Morgan) {2009 Hard Note}\04 - Whisper Not.wav

Peak level 95.7 %
Track quality 100.0 %
Test CRC 29B4E7A8
Copy CRC 29B4E7A8
Track not present in AccurateRip database
Copy OK

Track 5

Filename C:\Art Blakey & The Jazz Messengers - Drivin' Hard In Zurich (1958) (ft. Lee Morgan) {2009 Hard Note}\05 - Evidence.wav

Peak level 99.8 %
Track quality 100.0 %
Test CRC 94EAD2DF
Copy CRC 94EAD2DF
Track not present in AccurateRip database
Copy OK

Track 6

Filename C:\Art Blakey & The Jazz Messengers - Drivin' Hard In Zurich (1958) (ft. Lee Morgan) {2009 Hard Note}\06 - I Remember Clifford.wav

Peak level 95.2 %
Track quality 99.9 %
Test CRC C5D3E700
Copy CRC C5D3E700
Track not present in AccurateRip database
Copy OK

Track 7

Filename C:\Art Blakey & The Jazz Messengers - Drivin' Hard In Zurich (1958) (ft. Lee Morgan) {2009 Hard Note}\07 - Just By Myself.wav

Peak level 95.4 %
Track quality 100.0 %
Test CRC 2346544F
Copy CRC 2346544F
Track not present in AccurateRip database
Copy OK

Track 8

Filename C:\Art Blakey & The Jazz Messengers - Drivin' Hard In Zurich (1958) (ft. Lee Morgan) {2009 Hard Note}\08 - Along Came Betty.wav

Peak level 95.0 %
Track quality 100.0 %
Test CRC 932AB663
Copy CRC 932AB663
Track not present in AccurateRip database
Copy OK

Track 9

Filename C:\Art Blakey & The Jazz Messengers - Drivin' Hard In Zurich (1958) (ft. Lee Morgan) {2009 Hard Note}\09 - My Funny Valentine.wav

Peak level 94.6 %
Track quality 100.0 %
Test CRC C97C97EB
Copy CRC C97C97EB
Track not present in AccurateRip database
Copy OK

Track 10

Filename C:\Art Blakey & The Jazz Messengers - Drivin' Hard In Zurich (1958) (ft. Lee Morgan) {2009 Hard Note}\10 - Come Rain Or Come Shine.wav

Peak level 96.5 %
Track quality 100.0 %
Test CRC B3B8FC55
Copy CRC B3B8FC55
Track not present in AccurateRip database
Copy OK

Track 11

Filename C:\Art Blakey & The Jazz Messengers - Drivin' Hard In Zurich (1958) (ft. Lee Morgan) {2009 Hard Note}\11 - Night In Tunisia.wav

Peak level 98.9 %
Track quality 100.0 %
Test CRC F96A7513
Copy CRC F96A7513
Track not present in AccurateRip database
Copy OK


None of the tracks are present in the AccurateRip database

No errors occurred

End of status report

HF Linkz

or

FSonic Linkz

p.s. the files are interchangeable…

No Mirror, plz!