Art Blakey – Jazz In Paris – 1958 Paris Olympia (1958)

Posted By: janwal46
Art Blakey – Jazz In Paris – 1958 Paris Olympia (1958)

Art Blakey – Jazz In Paris – 1958 Paris Olympia (1958)

Art Blakey – Jazz In Paris – 1958 Paris Olympia (1958)
Gitanes–24-Bit Remastered | 1958 | Jazz | EAC RIP | FLAC+CUE+LOG+HQ-Covers(400Dpi) | 362Mb+20Mb

All seven tunes are interesting, with the well-know "Moanin'" as the big draw, but the incredibly beautiful "I Remember Clifford" as a second highlight. Art Blakey, drummer and leader, was famous for recruiting talent time and again for relatively short stints in his Jazz Messengers. This group includes Lee Morgan on trumpet, Benny Golson on tenor sax, Bobbie Timmons on piano, and Jymie Merritt on double bass. Each has wonderful moments on this disc. Golson is also credited with writing five of the songs.Timmons gets credit for the unforgettable "Moanin'" and the group also does "Justice" by Monk. If you've read this far, you are interested in jazz and also in Art Blakey and in his historical recordings in Paris.

Personnel:

Lee Morgan - Trumpet
Benny Golson - Tenor Saxophone
Bobby Timmons - Piano
Jymie Merritt - Bass
Art Blakey – Drums

Tracklist:

01. Just By Myself
02. I Remember Clifford
03. Are You Real
04. Moanin'
05. Justice
06. Blues March
07. Whisper Not

Recorded November 22, 1958 (Tracks 01-03) And December 17, 1958 (Tracks 04-07)

Sound Quality: 7

Exact Audio Copy V0.99 prebeta 4 from 23. January 2008

EAC extraction logfile from 16. August 2009, 12:32

Art Blakey / 1958 Paris Olympia

Used drive : Optiarc DVD RW AD-7173A Adapter: 1 ID: 0

Read mode : Secure
Utilize accurate stream : Yes
Defeat audio cache : Yes
Make use of C2 pointers : No

Read offset correction : 48
Overread into Lead-In and Lead-Out : No
Fill up missing offset samples with silence : Yes
Delete leading and trailing silent blocks : No
Null samples used in CRC calculations : No
Used interface : Native Win32 interface for Win NT & 2000

Used output format : Internal WAV Routines
Sample format : 44.100 Hz; 16 Bit; Stereo


TOC of the extracted CD

Track | Start | Length | Start sector | End sector
––––––––––––––––––––––––––––-
1 | 0:00.00 | 4:34.42 | 0 | 20591
2 | 4:34.42 | 5:35.72 | 20592 | 45788
3 | 10:10.39 | 10:17.21 | 45789 | 92084
4 | 20:27.60 | 13:17.63 | 92085 | 151922
5 | 33:45.48 | 9:16.28 | 151923 | 193650
6 | 43:02.01 | 5:46.18 | 193651 | 219618
7 | 48:48.19 | 7:11.19 | 219619 | 251962


Range status and errors

Selected range

Filename G:\AVAXHOME\Art Blakey - 1958 Paris Olympia (1958)\Art Blakey - 1958 Paris Olympia.wav

Peak level 89.7 %
Range quality 99.9 %
Copy CRC 8EF120D1
Copy OK

No errors occurred


AccurateRip summary

Track 1 accurately ripped (confidence 5) [7468BF3D]
Track 2 accurately ripped (confidence 5) [0EDC2F39]
Track 3 accurately ripped (confidence 5) [66D67188]
Track 4 accurately ripped (confidence 5) [47DDBB92]
Track 5 accurately ripped (confidence 5) [A1889071]
Track 6 accurately ripped (confidence 5) [66D775E4]
Track 7 accurately ripped (confidence 4) [01C8DE46]

All tracks accurately ripped

End of status report

RIPPED BY JANWAL46


<span style="color:#ffffff">New RS Links:</span>



In case you encounter dead links in any of my posts, please send me a private message !!!!


Password: janwal46

Say thanks, but please, no mirrors and/or direct links in your comments !!!!