Subcategories

AC/DC - Ultimate Paper Sleeve Collection + (20 CDs, 2007-08) [Japanese Limited Release] -Repost-

Posted By: Shar'EmAll
AC/DC - Ultimate Paper Sleeve Collection + (20 CDs, 2007-08) [Japanese Limited Release] -Repost-

AC/DC - Ultimate Paper Sleeve Collection + (20 CDs, 2007-08)
EAC Rip | 20x FLAC+CUE+LOG > 6,9 GB | Complete Scans > 590 MB | MP3 CBR 320 Kbps > 2,1 GB
Rock / Hard Rock | TT ~ 15,5 hours | Label: Sony Music Japan / Cat. # SICP 1700-1718 + 2055

AC/DC - Complete Vinyl Replica Series, 2007/8 Japanese exclusive limited edition box set containing a total of 186 tracks across 19 digitally remastered CD albums [18 single + 1 double] with every official studio and live album from the 1976 debut 'High Voltage' through to their 2000 release 'Stiff Upper Lip', each disc is housed in a mini-LP style card picture sleeve complete with individual inserts & lyric sheets plus obi-strips which create the band logo when placed together in chronological order. The collection was expanded with the last band release 'Black Ice'.


AC/DC - Ultimate Paper Sleeve Collection + (20 CDs, 2007-08) [Japanese Limited Release] -Repost-

AC/DC's mammoth power chord roar became one of the most influential hard rock sounds of the '70s. In its own way, it was a reaction against the pompous art rock and lumbering arena rock of the early '70s. AC/DC's rock was minimalist – no matter how huge and bludgeoning their guitar chords were, there was a clear sense of space and restraint. Combined with Bon Scott's larynx-shredding vocals, the band spawned countless imitators over the next two decades and enjoyed commercial success well into the 2000s.

AC/DC were formed in 1973 in Australia by guitarist Malcolm Young after his previous band, the Velvet Underground, collapsed (Young's band has no relation to the seminal American group). With his younger brother Angus serving as lead guitarist, the band played some gigs around Sydney. Angus was only 15 years old at the time and his sister suggested that he should wear his school uniform on-stage; the look became the band's visual trademark. While still in Sydney, the original lineup featuring singer Dave Evans cut a single called "Can I Sit Next to You," with ex-Easybeats Harry Vanda and George Young (Malcolm and Angus' older brother) producing.

The band moved to Melbourne the following year, where drummer Phil Rudd (formerly of the Coloured Balls) and bassist Mark Evans joined the lineup. The band's chauffeur, Bon Scott, became the lead vocalist when singer Dave Evans refused to go on-stage. Previously, Scott had been vocalist for the Australian prog rock bands Fraternity and the Valentines. More importantly, he helped cement the group's image as brutes – he had several convictions on minor criminal offenses and was rejected by the Australian Army for being "socially maladjusted." And AC/DC were socially maladjusted. Throughout their career they favored crude double entendres and violent imagery, all spiked with a mischievous sense of fun.

The group released two albums – High Voltage and T.N.T. – in Australia in 1974 and 1975. Material from the two records comprised the 1976 release High Voltage in the U.S. and U.K.; the group also toured both countries. Dirty Deeds Done Dirt Cheap followed at the end of the year. In the fall of 1977, AC/DC released Let There Be Rock, which became their first album to chart in the U.S. Mark Evans left the band soon after, with Cliff Williams taking his place. Powerage, released in spring of 1978, expanded their audience even further, thanks in no small part to their dynamic live shows (which were captured on 1978's live If You Want Blood You've Got It). What really broke the doors down for the band was the following year's Highway to Hell, which hit number 17 in the U.S. and number eight in the U.K., becoming the group's first million-seller.

AC/DC's train was derailed when Bon Scott died on February 20, 1980. The official coroner's report stated he had "drunk himself to death." In March, the band replaced Scott with Brian Johnson. The following month, the band recorded Back in Black, which would prove to be its biggest album, selling over ten million copies in the U.S. alone. For the next few years, the band was one of the largest rock bands in the world, with For Those About to Rock We Salute You topping the charts in the U.S. In 1983, Rudd left the band after the recording of Flick of the Switch; he was replaced by Simon Wright.

With Flick of the Switch, AC/DC's commercial standing began to slip, and they weren't able to reverse their slide until 1990's The Razor's Edge, which spawned the hit "Thunderstruck." While not the commercial powerhouse they were during the late '70s and early '80s, the 1990s saw AC/DC maintain their status as a top international concert draw. In the fall of 1995, their 16th album, Ballbreaker, was released. Produced by Rick Rubin, the album received some of the most positive reviews of AC/DC's career; it also entered the American charts at number four and sold over a million copies in its first six months of release. Stiff Upper Lip followed in early 2000 with similar results. AC/DC signed a multi-album deal with Sony the following year that resulted in a slew of reissues and DVDs, and they returned to the studio in 2008 for Black Ice, an all-new collection of songs that was followed by the group's first world tour since 2001.

biography by Stephen Thomas Erlewine

AC/DC - Ultimate Paper Sleeve Collection + (20 CDs, 2007-08) [Japanese Limited Release] -Repost-


AC/DC - Ultimate Paper Sleeve Collection + (20 CDs, 2007-08) [Japanese Limited Release] -Repost-

AC/DC - High Voltage (1976) [Japanese SICP-1700]
FLAC-IMG+CUE+LOG > 300 MB | 44:21 min | Scans > 29 MB | MP3 CBR 320 Kbps > 102 MB

Tracklist:

01. It's A Long Way To The Top (If You Wanna Rock 'N' Roll)
02. Rock 'N' Roll Singer
03. The Jack
04. Live Wire
05. T.N.T.
06. Can I Sit Next To You Girl
07. Little Lover
08. She's Got Balls
09. High Voltage

more info @ Wikipedia

Exact Audio Copy V0.99 prebeta 4 from 23. January 2008

Отчёт EAC об извлечении, выполненном 4. апреля 2008, 17:10

AC-DC / High Voltage (Japanese SICP-1700)

Дисковод: PLEXTOR DVDR PX-716A Adapter: 3 ID: 0

Режим чтения : Достоверность
Использование точного потока : Да
Отключение кэша аудио : Да
Использование указателей C2 : Нет

Коррекция смещения при чтении : 30
Способность читать области Lead-in и Lead-out : Да
Заполнение пропущенных сэмплов тишиной : Да
Удаление блоков с тишиной в начале и конце : Нет
При вычислениях CRC использовались нулевые сэмплы : Нет
Интерфейс : Установленный внешний ASPI-интерфейс

Выходной формат : Пользовательский кодировщик
Выбранный битрейт : 32 kBit/s
Качество : Высокий
Добавление ID3-тэга : Да
Утилита сжатия : C:\Program Files\Audio\Exact Audio Copy 099pb4\Flac\flac.exe
Дополнительные параметры : -6 -V -T "artist=%a" -T "title=%t" -T "album=%g" -T "date=%y" -T "tracknumber=%n" -T "genre=%m" -T "comment=EAC v0.99pb4 / FLAC 1.2.1 q6" %s


TOC извлечённого CD

Трек | Старт | Длительность | Начальный сектор | Конечный сектор
––––––––––––––––––––––––––––––––––-
1 | 0:00.00 | 5:01.70 | 0 | 22644
2 | 5:01.70 | 5:03.52 | 22645 | 45421
3 | 10:05.47 | 5:52.73 | 45422 | 71894
4 | 15:58.45 | 5:49.72 | 71895 | 98141
5 | 21:48.42 | 3:34.59 | 98142 | 114250
6 | 25:23.26 | 4:12.01 | 114251 | 133151
7 | 29:35.27 | 5:39.45 | 133152 | 158621
8 | 35:14.72 | 4:51.40 | 158622 | 180486
9 | 40:06.37 | 4:14.18 | 180487 | 199554


Характеристики диапазона извлечения и сообщения об ошибках

Выбранный диапазон

Имя файла F:\CDImage\AC-DC_1976_Japanese\CDImage.wav

Пиковый уровень 100.0 %
Качество диапазона 100.0 %
CRC копии 557A74F3
Копирование… OK

Ошибок не произошло

Конец отчёта

all tracks were accurately ripped / checked on March 2011



_________________________________________________________________________________________


AC/DC - Ultimate Paper Sleeve Collection + (20 CDs, 2007-08) [Japanese Limited Release] -Repost-

AC/DC - Dirty Deeds Done Dirt Cheap (1976) [Japanese SICP-1701]
FLAC-IMG+CUE+LOG > 260 MB | 39:59 min | Scans > 33 MB | MP3 CBR 320 Kbps > 92 MB

Tracklist:

01. Dirty Deeds Done Dirt Cheap
02. Love At First Feel
03. Big Balls
04. Rocker
05. Problem Child
06. There's Gonna Be Some Rockin'
07. Ain't No Fun (Waiting Round To Be A Millionaire)
08. Ride On
09. Squealer

more info @ Wikipedia

Exact Audio Copy V0.99 prebeta 4 from 23. January 2008

Отчёт EAC об извлечении, выполненном 7. апреля 2008, 19:58

AC-DC / Dirty Deeds Done Dirt Cheap (Japanese SICP-1701)

Дисковод: PLEXTOR DVDR PX-716A Adapter: 3 ID: 0

Режим чтения : Достоверность
Использование точного потока : Да
Отключение кэша аудио : Да
Использование указателей C2 : Нет

Коррекция смещения при чтении : 30
Способность читать области Lead-in и Lead-out : Да
Заполнение пропущенных сэмплов тишиной : Да
Удаление блоков с тишиной в начале и конце : Нет
При вычислениях CRC использовались нулевые сэмплы : Нет
Интерфейс : Установленный внешний ASPI-интерфейс

Выходной формат : Пользовательский кодировщик
Выбранный битрейт : 32 kBit/s
Качество : Высокий
Добавление ID3-тэга : Да
Утилита сжатия : C:\Program Files\Audio\Exact Audio Copy 099pb4\Flac\flac.exe
Дополнительные параметры : -6 -V -T "artist=%a" -T "title=%t" -T "album=%g" -T "date=%y" -T "tracknumber=%n" -T "genre=%m" -T "comment=EAC v0.99pb4 / FLAC 1.2.1 q6" %s


TOC извлечённого CD

Трек | Старт | Длительность | Начальный сектор | Конечный сектор
––––––––––––––––––––––––––––––––––-
1 | 0:00.00 | 3:51.72 | 0 | 17396
2 | 3:51.72 | 3:12.70 | 17397 | 31866
3 | 7:04.67 | 2:38.60 | 31867 | 43776
4 | 9:43.52 | 2:51.63 | 43777 | 56664
5 | 12:35.40 | 5:46.52 | 56665 | 82666
6 | 18:22.17 | 3:18.25 | 82667 | 97541
7 | 21:40.42 | 6:57.53 | 97542 | 128869
8 | 28:38.20 | 5:53.40 | 128870 | 155384
9 | 34:31.60 | 5:27.37 | 155385 | 179946


Характеристики диапазона извлечения и сообщения об ошибках

Выбранный диапазон

Имя файла F:\CDImage\AC-DC_1976.2_Japanese\CDImage.wav

Пиковый уровень 100.0 %
Качество диапазона 100.0 %
CRC копии 3E779C9D
Копирование… OK

Ошибок не произошло

Конец отчёта

all tracks were accurately ripped / checked on March 2011



_________________________________________________________________________________________


AC/DC - Ultimate Paper Sleeve Collection + (20 CDs, 2007-08) [Japanese Limited Release] -Repost-

AC/DC - Let There Be Rock (1977) [Japanese SICP-1702]
FLAC-IMG+CUE+LOG > 302 MB | 41:02 min | Scans > 34 MB | MP3 CBR 320 Kbps > 95 MB

Tracklist:

01. Go Down
02. Dog Eat Dog
03. Let There Be Rock
04. Bad Boy Boogie
05. Problem Child
06. Overdose
07. Hell Ain't A Bad Place To Be
08. Whole Lotta Rosie

more info @ Wikipedia

Exact Audio Copy V0.99 prebeta 4 from 23. January 2008

Отчёт EAC об извлечении, выполненном 8. апреля 2008, 10:55

AC-DC / Let There Be Rock (Japanese SICP-1702)

Дисковод: PLEXTOR DVDR PX-716A Adapter: 3 ID: 0

Режим чтения : Достоверность
Использование точного потока : Да
Отключение кэша аудио : Да
Использование указателей C2 : Нет

Коррекция смещения при чтении : 30
Способность читать области Lead-in и Lead-out : Да
Заполнение пропущенных сэмплов тишиной : Да
Удаление блоков с тишиной в начале и конце : Нет
При вычислениях CRC использовались нулевые сэмплы : Нет
Интерфейс : Установленный внешний ASPI-интерфейс

Выходной формат : Пользовательский кодировщик
Выбранный битрейт : 32 kBit/s
Качество : Высокий
Добавление ID3-тэга : Да
Утилита сжатия : C:\Program Files\Audio\Exact Audio Copy 099pb4\Flac\flac.exe
Дополнительные параметры : -6 -V -T "artist=%a" -T "title=%t" -T "album=%g" -T "date=%y" -T "tracknumber=%n" -T "genre=%m" -T "comment=EAC v0.99pb4 / FLAC 1.2.1 q6" %s


TOC извлечённого CD

Трек | Старт | Длительность | Начальный сектор | Конечный сектор
––––––––––––––––––––––––––––––––––-
1 | 0:00.00 | 5:31.32 | 0 | 24856
2 | 5:31.32 | 3:34.55 | 24857 | 40961
3 | 9:06.12 | 6:06.33 | 40962 | 68444
4 | 15:12.45 | 4:27.40 | 68445 | 88509
5 | 19:40.10 | 5:24.66 | 88510 | 112875
6 | 25:05.01 | 6:08.66 | 112876 | 140541
7 | 31:13.67 | 4:14.13 | 140542 | 159604
8 | 35:28.05 | 5:33.69 | 159605 | 184648


Характеристики диапазона извлечения и сообщения об ошибках

Выбранный диапазон

Имя файла F:\CDImage\AC-DC_1977_Japanese\CDImage.wav

Пиковый уровень 100.0 %
Качество диапазона 100.0 %
CRC копии FB8C3522
Копирование… OK

Ошибок не произошло

Конец отчёта

all tracks were accurately ripped / checked on March 2011



_________________________________________________________________________________________


AC/DC - Ultimate Paper Sleeve Collection + (20 CDs, 2007-08) [Japanese Limited Release] -Repost-

AC/DC - Powerage (1978) [Japanese SICP-1703]
FLAC-IMG+CUE+LOG > 293 MB | 39:54 min | Scans > 32 MB | MP3 CBR 320 Kbps > 90 MB

Tracklist:

01. Rock 'N' Roll Damnation
02. Down Payment Blues
03. Gimme A Bullet
04. Riff Raff
05. Sin City
06. What's Next To The Moon
07. Gone Shootin'
08. Up To My Neck In You
09. Kicked In The Teeth

more info @ Wikipedia

Exact Audio Copy V0.99 prebeta 4 from 23. January 2008

Отчёт EAC об извлечении, выполненном 11. апреля 2008, 12:00

AC-DC / Powerage (Japanese SICP 1703)

Дисковод: PLEXTOR DVDR PX-716A Adapter: 3 ID: 0

Режим чтения : Достоверность
Использование точного потока : Да
Отключение кэша аудио : Да
Использование указателей C2 : Нет

Коррекция смещения при чтении : 30
Способность читать области Lead-in и Lead-out : Да
Заполнение пропущенных сэмплов тишиной : Да
Удаление блоков с тишиной в начале и конце : Нет
При вычислениях CRC использовались нулевые сэмплы : Нет
Интерфейс : Установленный внешний ASPI-интерфейс

Выходной формат : Пользовательский кодировщик
Выбранный битрейт : 32 kBit/s
Качество : Высокий
Добавление ID3-тэга : Да
Утилита сжатия : C:\Program Files\Audio\Exact Audio Copy 099pb4\Flac\flac.exe
Дополнительные параметры : -6 -V -T "artist=%a" -T "title=%t" -T "album=%g" -T "date=%y" -T "tracknumber=%n" -T "genre=%m" -T "comment=EAC v0.99pb4 / FLAC 1.2.1 q6" %s


TOC извлечённого CD

Трек | Старт | Длительность | Начальный сектор | Конечный сектор
––––––––––––––––––––––––––––––––––-
1 | 0:00.00 | 3:37.48 | 0 | 16322
2 | 3:37.48 | 6:03.55 | 16323 | 43602
3 | 9:41.28 | 3:21.45 | 43603 | 58722
4 | 13:02.73 | 5:11.72 | 58723 | 82119
5 | 18:14.70 | 4:45.03 | 82120 | 103497
6 | 22:59.73 | 3:31.61 | 103498 | 119383
7 | 26:31.59 | 5:05.44 | 119384 | 142302
8 | 31:37.28 | 4:13.32 | 142303 | 161309
9 | 35:50.60 | 4:03.30 | 161310 | 179564


Характеристики диапазона извлечения и сообщения об ошибках

Выбранный диапазон

Имя файла F:\CDImage\AC-DC_1978_Japanese\CDImage.wav

Пиковый уровень 100.0 %
Качество диапазона 100.0 %
CRC копии 0D8AB5F4
Копирование… OK

Ошибок не произошло

Конец отчёта

all tracks were accurately ripped / checked on March 2011



_________________________________________________________________________________________


AC/DC - Ultimate Paper Sleeve Collection + (20 CDs, 2007-08) [Japanese Limited Release] -Repost-

AC/DC - If You Want Blood You've Got It (1978) [Japanese SICP-1704]
FLAC-IMG+CUE+LOG > 419 MB | 53:00 min | Scans > 31 MB | MP3 CBR 320 Kbps > 118 MB

Tracklist:

01. Riff Raff
02. Hell Ain't A Bad Place To Be
03. Bad Boy Boogie
04. The Jack
05. Problem Child
06. Whole Lotta Rosie
07. Rock 'N' Roll Damnation
08. High Voltage
09. Let There Be Rock
10. Rocker

more info @ Wikipedia

Exact Audio Copy V0.99 prebeta 4 from 23. January 2008

Отчёт EAC об извлечении, выполненном 11. апреля 2008, 14:10

AC-DC / If You Want Blood You've Got It (Japanese SICP-1704)

Дисковод: PLEXTOR DVDR PX-716A Adapter: 3 ID: 0

Режим чтения : Достоверность
Использование точного потока : Да
Отключение кэша аудио : Да
Использование указателей C2 : Нет

Коррекция смещения при чтении : 30
Способность читать области Lead-in и Lead-out : Да
Заполнение пропущенных сэмплов тишиной : Да
Удаление блоков с тишиной в начале и конце : Нет
При вычислениях CRC использовались нулевые сэмплы : Нет
Интерфейс : Установленный внешний ASPI-интерфейс

Выходной формат : Пользовательский кодировщик
Выбранный битрейт : 32 kBit/s
Качество : Высокий
Добавление ID3-тэга : Да
Утилита сжатия : C:\Program Files\Audio\Exact Audio Copy 099pb4\Flac\flac.exe
Дополнительные параметры : -6 -V -T "artist=%a" -T "title=%t" -T "album=%g" -T "date=%y" -T "tracknumber=%n" -T "genre=%m" -T "comment=EAC v0.99pb4 / FLAC 1.2.1 q6" %s


TOC извлечённого CD

Трек | Старт | Длительность | Начальный сектор | Конечный сектор
––––––––––––––––––––––––––––––––––-
1 | 0:00.00 | 5:59.06 | 0 | 26930
2 | 5:59.06 | 4:10.72 | 26931 | 45752
3 | 10:10.03 | 7:29.74 | 45753 | 79501
4 | 17:40.02 | 5:48.43 | 79502 | 105644
5 | 23:28.45 | 4:40.70 | 105645 | 126714
6 | 28:09.40 | 4:05.00 | 126715 | 145089
7 | 32:14.40 | 3:41.04 | 145090 | 161668
8 | 35:55.44 | 5:05.27 | 161669 | 184570
9 | 41:00.71 | 8:33.53 | 184571 | 223098
10 | 49:34.49 | 3:24.68 | 223099 | 238466


Характеристики диапазона извлечения и сообщения об ошибках

Выбранный диапазон

Имя файла F:\CDImage\AC-DC_1978-Live_Japanese\CDImage.wav

Пиковый уровень 100.0 %
Качество диапазона 100.0 %
CRC копии 0DF798E4
Копирование… OK

Ошибок не произошло

Конец отчёта

all tracks were accurately ripped / checked on March 2011



_________________________________________________________________________________________

AC/DC - Ultimate Paper Sleeve Collection + (20 CDs, 2007-08) [Japanese Limited Release] -Repost-

AC/DC - Highway To Hell (1979) [Japanese SICP-1705]
FLAC-IMG+CUE+LOG > 330 MB | 41:43 min | Scans > 31 MB | MP3 CBR 320 Kbps > 94 MB

Tracklist:

01. Highway To Hell
02. Girls Got Rhythm
03. Walk All Over You
04. Touch Too Much
05. Beating Around The Bush
06. Shot Down In Flames
07. Get It Hot
08. If You Want Blood (You've Got It)
09. Love Hungry Man
10. Night Prowler

more info @ Wikipedia

Exact Audio Copy V0.99 prebeta 4 from 23. January 2008

Отчёт EAC об извлечении, выполненном 13. апреля 2008, 11:48

AC-DC / Highway To Hell (Japanese SICP-1705)

Дисковод: PLEXTOR DVDR PX-716A Adapter: 3 ID: 0

Режим чтения : Достоверность
Использование точного потока : Да
Отключение кэша аудио : Да
Использование указателей C2 : Нет

Коррекция смещения при чтении : 30
Способность читать области Lead-in и Lead-out : Да
Заполнение пропущенных сэмплов тишиной : Да
Удаление блоков с тишиной в начале и конце : Нет
При вычислениях CRC использовались нулевые сэмплы : Нет
Интерфейс : Установленный внешний ASPI-интерфейс

Выходной формат : Пользовательский кодировщик
Выбранный битрейт : 32 kBit/s
Качество : Высокий
Добавление ID3-тэга : Да
Утилита сжатия : C:\Program Files\Audio\Exact Audio Copy 099pb4\Flac\flac.exe
Дополнительные параметры : -6 -V -T "artist=%a" -T "title=%t" -T "album=%g" -T "date=%y" -T "tracknumber=%n" -T "genre=%m" -T "comment=EAC v0.99pb4 / FLAC 1.2.1 q6" %s


TOC извлечённого CD

Трек | Старт | Длительность | Начальный сектор | Конечный сектор
––––––––––––––––––––––––––––––––––-
1 | 0:00.00 | 3:28.30 | 0 | 15629
2 | 3:28.30 | 3:23.22 | 15630 | 30876
3 | 6:51.52 | 5:10.00 | 30877 | 54126
4 | 12:01.52 | 4:26.20 | 54127 | 74096
5 | 16:27.72 | 3:55.55 | 74097 | 91776
6 | 20:23.52 | 3:22.65 | 91777 | 106991
7 | 23:46.42 | 2:34.38 | 106992 | 118579
8 | 26:21.05 | 4:36.42 | 118580 | 139321
9 | 30:57.47 | 4:17.13 | 139322 | 158609
10 | 35:14.60 | 6:27.72 | 158610 | 187706


Характеристики диапазона извлечения и сообщения об ошибках

Выбранный диапазон

Имя файла F:\CDImage\AC-DC_1979_Japanese\CDImage.wav

Пиковый уровень 100.0 %
Качество диапазона 99.9 %
CRC копии 355D4BC1
Копирование… OK

Ошибок не произошло

Конец отчёта

all tracks were accurately ripped / checked on March 2011



_________________________________________________________________________________________


AC/DC - Ultimate Paper Sleeve Collection + (20 CDs, 2007-08) [Japanese Limited Release] -Repost-

AC/DC - Back In Black (1980) [Japanese SICP-1707]
FLAC-IMG+CUE+LOG > 326 MB | 42:08 min | Scans > 28 MB | MP3 CBR 320 Kbps > 101 MB

Tracklist:

01. Hells Bells
02. Shoot To Thrill
03. What Do You Do For Money Honey
04. Givin The Dog A Bone
05. Let Me Put My Love Into You
06. Back In Black
07. You Shook Me All Night Long
08. Have A Drink On Me
09. Shake A Leg
10. Rock And Roll Ain't Noise Pollution

more info @ Wikipedia

Exact Audio Copy V0.99 prebeta 4 from 23. January 2008

Отчёт EAC об извлечении, выполненном 15. апреля 2008, 10:46

AC-DC / Back In Black (Japanese SICP-1707)

Дисковод: PLEXTOR DVDR PX-716A Adapter: 3 ID: 0

Режим чтения : Достоверность
Использование точного потока : Да
Отключение кэша аудио : Да
Использование указателей C2 : Нет

Коррекция смещения при чтении : 30
Способность читать области Lead-in и Lead-out : Да
Заполнение пропущенных сэмплов тишиной : Да
Удаление блоков с тишиной в начале и конце : Нет
При вычислениях CRC использовались нулевые сэмплы : Нет
Интерфейс : Установленный внешний ASPI-интерфейс

Выходной формат : Пользовательский кодировщик
Выбранный битрейт : 32 kBit/s
Качество : Высокий
Добавление ID3-тэга : Да
Утилита сжатия : C:\Program Files\Audio\Exact Audio Copy 099pb4\Flac\flac.exe
Дополнительные параметры : -6 -V -T "artist=%a" -T "title=%t" -T "album=%g" -T "date=%y" -T "tracknumber=%n" -T "genre=%m" -T "comment=EAC v0.99pb4 / FLAC 1.2.1 q6" %s


TOC извлечённого CD

Трек | Старт | Длительность | Начальный сектор | Конечный сектор
––––––––––––––––––––––––––––––––––-
1 | 0:00.00 | 5:12.30 | 0 | 23429
2 | 5:12.30 | 5:17.45 | 23430 | 47249
3 | 10:30.00 | 3:35.20 | 47250 | 63394
4 | 14:05.20 | 3:31.67 | 63395 | 79286
5 | 17:37.12 | 4:15.48 | 79287 | 98459
6 | 21:52.60 | 4:15.22 | 98460 | 117606
7 | 26:08.07 | 3:30.15 | 117607 | 133371
8 | 29:38.22 | 3:58.48 | 133372 | 151269
9 | 33:36.70 | 4:05.37 | 151270 | 169681
10 | 37:42.32 | 4:26.03 | 169682 | 189634


Характеристики диапазона извлечения и сообщения об ошибках

Выбранный диапазон

Имя файла F:\CDImage\AC-DC_1980_Japanese\CDImage.wav

Пиковый уровень 100.0 %
Качество диапазона 100.0 %
CRC копии 3237C242
Копирование… OK

Ошибок не произошло

Конец отчёта

all tracks were accurately ripped / checked on March 2011



_________________________________________________________________________________________


AC/DC - Ultimate Paper Sleeve Collection + (20 CDs, 2007-08) [Japanese Limited Release] -Repost-

AC/DC - For Those About To Rock (We Salute You) (1981) [Japanese SICP-1708]
FLAC-IMG+CUE+LOG > 303 MB | 40:10 min | Scans > 16 MB | MP3 CBR 320 Kbps > 92 MB

Tracklist:

01. For Those About To Rock (We Salute You)
02. I Put The Finger On You
03. Let's Get It Up
04. Inject The Venom
05. Snowballed
06. Evil Walks
07. C.O.D.
08. Breaking The Rules
09. Night Of The Long Knives
10. Spellbound

more info @ Wikipedia

Exact Audio Copy V0.99 prebeta 4 from 23. January 2008

Отчёт EAC об извлечении, выполненном 10. сентября 2008, 14:00

AC-DC / For Those About To Rock (We Salute You) (Japanese SICP-1708)

Дисковод: PLEXTOR DVDR PX-716A Adapter: 3 ID: 0

Режим чтения : Достоверность
Использование точного потока : Да
Отключение кэша аудио : Да
Использование указателей C2 : Нет

Коррекция смещения при чтении : 30
Способность читать области Lead-in и Lead-out : Да
Заполнение пропущенных сэмплов тишиной : Да
Удаление блоков с тишиной в начале и конце : Нет
При вычислениях CRC использовались нулевые сэмплы : Нет
Интерфейс : Установленный внешний ASPI-интерфейс

Выходной формат : Пользовательский кодировщик
Выбранный битрейт : 32 kBit/s
Качество : Высокий
Добавление ID3-тэга : Да
Утилита сжатия : C:\Program Files\AUDIO\Exact Audio Copy 099pb4\Flac\flac.exe
Дополнительные параметры : -6 -V -T "artist=%a" -T "title=%t" -T "album=%g" -T "date=%y" -T "tracknumber=%n" -T "genre=%m" -T "comment=EAC 0.95prebeta5 / FLAC 1.1.2 q6" %s


TOC извлечённого CD

Трек | Старт | Длительность | Начальный сектор | Конечный сектор
––––––––––––––––––––––––––––––––––-
1 | 0:00.00 | 5:44.18 | 0 | 25817
2 | 5:44.18 | 3:25.51 | 25818 | 41243
3 | 9:09.69 | 3:54.05 | 41244 | 58798
4 | 13:03.74 | 3:30.66 | 58799 | 74614
5 | 16:34.65 | 3:23.08 | 74615 | 89847
6 | 19:57.73 | 4:23.51 | 89848 | 109623
7 | 24:21.49 | 3:19.65 | 109624 | 124613
8 | 27:41.39 | 4:23.33 | 124614 | 144371
9 | 32:04.72 | 3:25.56 | 144372 | 159802
10 | 35:30.53 | 4:39.32 | 159803 | 180759


Характеристики диапазона извлечения и сообщения об ошибках

Выбранный диапазон

Имя файла D:\MY_Create\AC-DC_81\AC-DC - For Those About To Rock (We Salute You) (Japanese SICP-1708).wav

Пиковый уровень 100.0 %
Качество диапазона 99.9 %
CRC копии BBD8BF45
Копирование… OK

Ошибок не произошло

Конец отчёта

all tracks were accurately ripped / checked on March 2011



_________________________________________________________________________________________


AC/DC - Ultimate Paper Sleeve Collection + (20 CDs, 2007-08) [Japanese Limited Release] -Repost-

AC/DC - Flick Of The Switch (1983) [Japanese SICP-1709]
FLAC-IMG+CUE+LOG > 284 MB | 37:10 min | Scans > 29 MB | MP3 CBR 320 Kbps > 85 MB

Tracklist:

01. Rising Power
02. This House Is On Fire
03. Flick Of The Switch
04. Nervous Shakedown
05. Landslide
06. Guns For Hire
07. Deep In The Hole
08. Bedlam In Belgium
09. Badlands
10. Brain Shake

more info @ Wikipedia

Exact Audio Copy V0.99 prebeta 4 from 23. January 2008

Отчёт EAC об извлечении, выполненном 20. апреля 2008, 18:48

AC-DC / Flick Of The Switch (Japanese SICP-1709)

Дисковод: PLEXTOR DVDR PX-716A Adapter: 3 ID: 0

Режим чтения : Достоверность
Использование точного потока : Да
Отключение кэша аудио : Да
Использование указателей C2 : Нет

Коррекция смещения при чтении : 30
Способность читать области Lead-in и Lead-out : Да
Заполнение пропущенных сэмплов тишиной : Да
Удаление блоков с тишиной в начале и конце : Нет
При вычислениях CRC использовались нулевые сэмплы : Нет
Интерфейс : Установленный внешний ASPI-интерфейс

Выходной формат : Пользовательский кодировщик
Выбранный битрейт : 32 kBit/s
Качество : Высокий
Добавление ID3-тэга : Да
Утилита сжатия : C:\Program Files\Audio\Exact Audio Copy 099pb4\Flac\flac.exe
Дополнительные параметры : -6 -V -T "artist=%a" -T "title=%t" -T "album=%g" -T "date=%y" -T "tracknumber=%n" -T "genre=%m" -T "comment=EAC v0.99pb4 / FLAC 1.2.1 q6" %s


TOC извлечённого CD

Трек | Старт | Длительность | Начальный сектор | Конечный сектор
––––––––––––––––––––––––––––––––––-
1 | 0:00.00 | 3:43.51 | 0 | 16775
2 | 3:43.51 | 3:23.37 | 16776 | 32037
3 | 7:07.13 | 3:13.43 | 32038 | 46555
4 | 10:20.56 | 4:27.08 | 46556 | 66588
5 | 14:47.64 | 3:57.65 | 66589 | 84428
6 | 18:45.54 | 3:24.46 | 84429 | 99774
7 | 22:10.25 | 3:19.43 | 99775 | 114742
8 | 25:29.68 | 3:52.10 | 114743 | 132152
9 | 29:22.03 | 3:38.44 | 132153 | 148546
10 | 33:00.47 | 4:09.22 | 148547 | 167243


Характеристики диапазона извлечения и сообщения об ошибках

Выбранный диапазон

Имя файла F:\CDImage\AC-DC_1983_Japanese\CDImage.wav

Пиковый уровень 100.0 %
Качество диапазона 100.0 %
CRC копии 683EED1D
Копирование… OK

Ошибок не произошло

Конец отчёта

all tracks were accurately ripped / checked on March 2011



_________________________________________________________________________________________


AC/DC - Ultimate Paper Sleeve Collection + (20 CDs, 2007-08) [Japanese Limited Release] -Repost-

AC/DC - '74 Jailbreak (1984) [Japanese SICP-1706]
FLAC-IMG+CUE+LOG > 170 MB | 24:24 min | Scans > 57 MB | MP3 CBR 320 Kbps > 56 MB

Tracklist:

01. Jailbreak
02. You Ain't Got A Hold On Me
03. Show Business
04. Soul Stripper
05. Baby, Please Don't Go

more info @ Wikipedia

Exact Audio Copy V0.99 prebeta 4 from 23. January 2008

Отчёт EAC об извлечении, выполненном 2. апреля 2008, 17:14

AC-DC / '74 Jailbreak (Japanese SICP-1706)

Дисковод: PLEXTOR DVDR PX-716A Adapter: 3 ID: 0

Режим чтения : Достоверность
Использование точного потока : Да
Отключение кэша аудио : Да
Использование указателей C2 : Нет

Коррекция смещения при чтении : 30
Способность читать области Lead-in и Lead-out : Да
Заполнение пропущенных сэмплов тишиной : Да
Удаление блоков с тишиной в начале и конце : Нет
При вычислениях CRC использовались нулевые сэмплы : Нет
Интерфейс : Установленный внешний ASPI-интерфейс

Выходной формат : Пользовательский кодировщик
Выбранный битрейт : 32 kBit/s
Качество : Высокий
Добавление ID3-тэга : Да
Утилита сжатия : C:\Program Files\Audio\Exact Audio Copy 099pb4\Flac\flac.exe
Дополнительные параметры : -6 -V -T "artist=%a" -T "title=%t" -T "album=%g" -T "date=%y" -T "tracknumber=%n" -T "genre=%m" -T "comment=EAC v0.99pb4 / FLAC 1.2.1 q6" %s


TOC извлечённого CD

Трек | Старт | Длительность | Начальный сектор | Конечный сектор
––––––––––––––––––––––––––––––––––-
1 | 0:00.00 | 4:40.72 | 0 | 21071
2 | 4:40.72 | 3:31.36 | 21072 | 36932
3 | 8:12.33 | 4:46.34 | 36933 | 58416
4 | 12:58.67 | 6:25.01 | 58417 | 87292
5 | 19:23.68 | 5:00.01 | 87293 | 109793


Характеристики диапазона извлечения и сообщения об ошибках

Выбранный диапазон

Имя файла F:\CDImage\AC-DC_1975_Japanese\CDImage.wav

Пиковый уровень 100.0 %
Качество диапазона 100.0 %
CRC копии 92109B5A
Копирование… OK

Ошибок не произошло

Конец отчёта

all tracks were accurately ripped / checked on March 2011



_________________________________________________________________________________________


AC/DC - Ultimate Paper Sleeve Collection + (20 CDs, 2007-08) [Japanese Limited Release] -Repost-

AC/DC - Fly On The Wall (1985) [Japanese SICP-1710]
FLAC-IMG+CUE+LOG > 315 MB | 40:30 min | Scans > 18 MB | MP3 CBR 320 Kbps > 92 MB

Tracklist:

01. Fly On The Wall
02. Shake Your Foundations
03. First Blood
04. Danger
05. Sink The Pink
06. Playing With Girls
07. Stand Up
08. Hell Or High Water
09. Back In Business
10. Send For The Man

more info @ Wikipedia

Exact Audio Copy V0.99 prebeta 4 from 23. January 2008

Отчёт EAC об извлечении, выполненном 13. сентября 2008, 13:04

AC-DC / Fly On The Wall (Japanese SICP-1710)

Дисковод: PLEXTOR DVDR PX-716A Adapter: 3 ID: 0

Режим чтения : Достоверность
Использование точного потока : Да
Отключение кэша аудио : Да
Использование указателей C2 : Нет

Коррекция смещения при чтении : 30
Способность читать области Lead-in и Lead-out : Да
Заполнение пропущенных сэмплов тишиной : Да
Удаление блоков с тишиной в начале и конце : Нет
При вычислениях CRC использовались нулевые сэмплы : Нет
Интерфейс : Установленный внешний ASPI-интерфейс

Выходной формат : Пользовательский кодировщик
Выбранный битрейт : 32 kBit/s
Качество : Высокий
Добавление ID3-тэга : Да
Утилита сжатия : C:\Program Files\AUDIO\Exact Audio Copy 099pb4\Flac\flac.exe
Дополнительные параметры : -6 -V -T "artist=%a" -T "title=%t" -T "album=%g" -T "date=%y" -T "tracknumber=%n" -T "genre=%m" -T "comment=EAC 0.95prebeta5 / FLAC 1.1.2 q6" %s


TOC извлечённого CD

Трек | Старт | Длительность | Начальный сектор | Конечный сектор
––––––––––––––––––––––––––––––––––-
1 | 0:00.00 | 3:44.14 | 0 | 16813
2 | 3:44.14 | 4:10.49 | 16814 | 35612
3 | 7:54.63 | 3:45.73 | 35613 | 52560
4 | 11:40.61 | 4:22.41 | 52561 | 72251
5 | 16:03.27 | 4:15.11 | 72252 | 91387
6 | 20:18.38 | 3:44.71 | 91388 | 108258
7 | 24:03.34 | 3:53.24 | 108259 | 125757
8 | 27:56.58 | 4:32.26 | 125758 | 146183
9 | 32:29.09 | 4:24.28 | 146184 | 166011
10 | 36:53.37 | 3:36.66 | 166012 | 182277


Характеристики диапазона извлечения и сообщения об ошибках

Выбранный диапазон

Имя файла D:\MY_Create\AC-DC_85\AC-DC - Fly On The Wall (Japanese SICP-1710).wav

Пиковый уровень 100.0 %
Качество диапазона 99.9 %
CRC копии DC9F43CC
Копирование… OK

Ошибок не произошло

Конец отчёта

all tracks were accurately ripped / checked on March 2011



_________________________________________________________________________________________


AC/DC - Ultimate Paper Sleeve Collection + (20 CDs, 2007-08) [Japanese Limited Release] -Repost-

AC/DC - Who Made Who (1986) [Japanese SICP-1713]
FLAC-IMG+CUE+LOG > 273 MB | 37:58 min | Scans > 17 MB | MP3 CBR 320 Kbps > 87 MB

Tracklist:

01. Who Made Who
02. You Shook Me All Night Long
03. D.T.
04. Sink The Pink
05. Ride On
06. Hells Bells
07. Shake Your Foundations
08. Chase The Ace
09. For Those About To Rock

more info @ Wikipedia

Exact Audio Copy V0.99 prebeta 4 from 23. January 2008

Отчёт EAC об извлечении, выполненном 26. сентября 2008, 12:16

AC-DC / Who Made Who (Japanese SICP-1713)

Дисковод: PLEXTOR DVDR PX-716A Adapter: 3 ID: 0

Режим чтения : Достоверность
Использование точного потока : Да
Отключение кэша аудио : Да
Использование указателей C2 : Нет

Коррекция смещения при чтении : 30
Способность читать области Lead-in и Lead-out : Да
Заполнение пропущенных сэмплов тишиной : Да
Удаление блоков с тишиной в начале и конце : Нет
При вычислениях CRC использовались нулевые сэмплы : Нет
Интерфейс : Установленный внешний ASPI-интерфейс

Выходной формат : Пользовательский кодировщик
Выбранный битрейт : 32 kBit/s
Качество : Высокий
Добавление ID3-тэга : Да
Утилита сжатия : C:\Program Files\AUDIO\Exact Audio Copy 099pb4\Flac\flac.exe
Дополнительные параметры : -6 -V -T "artist=%a" -T "title=%t" -T "album=%g" -T "date=%y" -T "tracknumber=%n" -T "genre=%m" -T "comment=EAC 0.95prebeta5 / FLAC 1.1.2 q6" %s


TOC извлечённого CD

Трек | Старт | Длительность | Начальный сектор | Конечный сектор
––––––––––––––––––––––––––––––––––-
1 | 0:00.00 | 3:26.73 | 0 | 15522
2 | 3:26.73 | 3:30.66 | 15523 | 31338
3 | 6:57.64 | 2:53.54 | 31339 | 44367
4 | 9:51.43 | 4:13.28 | 44368 | 63370
5 | 14:04.71 | 5:51.12 | 63371 | 89707
6 | 19:56.08 | 5:12.67 | 89708 | 113174
7 | 25:09.00 | 3:53.52 | 113175 | 130701
8 | 29:02.52 | 3:01.30 | 130702 | 144306
9 | 32:04.07 | 5:53.61 | 144307 | 170842


Характеристики диапазона извлечения и сообщения об ошибках

Выбранный диапазон

Имя файла D:\MY_Create\AC-DC_86\AC-DC - Who Made Who (Japanese SICP-1713).wav

Пиковый уровень 100.0 %
Качество диапазона 100.0 %
CRC копии DD2A416F
Копирование… OK

Ошибок не произошло

Конец отчёта

all tracks were accurately ripped / checked on March 2011



_________________________________________________________________________________________


AC/DC - Ultimate Paper Sleeve Collection + (20 CDs, 2007-08) [Japanese Limited Release] -Repost-

AC/DC - Blow Up Your Video (1988) [Japanese SICP-1711]
FLAC-IMG+CUE+LOG > 323 MB | 44:21 min | Scans > 18 MB | MP3 CBR 320 Kbps > 100 MB

Tracklist:

01. Heatseeker
02. That's The Way I Wanna Rock N Roll
03. Mean Streak
04. Go Zone
05. Kissin' Dynamite
06. Nick Of Time
07. Some Sin For Nuthin'
08. Ruff Stuff
09. Two's Up
10. This Means War

more info @ Wikipedia

Exact Audio Copy V0.99 prebeta 4 from 23. January 2008

Отчёт EAC об извлечении, выполненном 30. сентября 2008, 13:27

AC-DC / Blow Up Your Video (Japanese SICP-1711)

Дисковод: PLEXTOR DVDR PX-716A Adapter: 3 ID: 0

Режим чтения : Достоверность
Использование точного потока : Да
Отключение кэша аудио : Да
Использование указателей C2 : Нет

Коррекция смещения при чтении : 30
Способность читать области Lead-in и Lead-out : Да
Заполнение пропущенных сэмплов тишиной : Да
Удаление блоков с тишиной в начале и конце : Нет
При вычислениях CRC использовались нулевые сэмплы : Нет
Интерфейс : Установленный внешний ASPI-интерфейс

Выходной формат : Пользовательский кодировщик
Выбранный битрейт : 32 kBit/s
Качество : Высокий
Добавление ID3-тэга : Да
Утилита сжатия : C:\Program Files\AUDIO\Exact Audio Copy 099pb4\Flac\flac.exe
Дополнительные параметры : -6 -V -T "artist=%a" -T "title=%t" -T "album=%g" -T "date=%y" -T "tracknumber=%n" -T "genre=%m" -T "comment=EAC 0.99prebeta4 / FLAC 1.2.1 q6" %s


TOC извлечённого CD

Трек | Старт | Длительность | Начальный сектор | Конечный сектор
––––––––––––––––––––––––––––––––––-
1 | 0:00.00 | 3:50.22 | 0 | 17271
2 | 3:50.22 | 3:45.00 | 17272 | 34146
3 | 7:35.22 | 4:08.35 | 34147 | 52781
4 | 11:43.57 | 4:26.30 | 52782 | 72761
5 | 16:10.12 | 3:58.33 | 72762 | 90644
6 | 20:08.45 | 4:16.38 | 90645 | 109882
7 | 24:25.08 | 4:11.18 | 109883 | 128725
8 | 28:36.26 | 4:28.55 | 128726 | 148880
9 | 33:05.06 | 5:19.70 | 148881 | 172875
10 | 38:25.01 | 4:32.35 | 172876 | 193310


Характеристики диапазона извлечения и сообщения об ошибках

Выбранный диапазон

Имя файла D:\MY_Create\AC-DC_88\AC-DC - Blow Up Your Video (Japanese SICP-1711).wav

Пиковый уровень 100.0 %
Качество диапазона 99.9 %
CRC копии 568CBB8A
Копирование… OK

Ошибок не произошло

Конец отчёта

all tracks were accurately ripped / checked on March 2011



_________________________________________________________________________________________

AC/DC - Ultimate Paper Sleeve Collection + (20 CDs, 2007-08) [Japanese Limited Release] -Repost-

AC/DC - The Razor's Edge (1990) [Japanese SICP-1712]
FLAC-IMG+CUE+LOG > 360 MB | 44:21 min | Scans > 17 MB | MP3 CBR 320 Kbps > 106 MB

Tracklist:

01. Thunderstruck
02. Fire Your Guns
03. Moneytalks
04. The Razors Edge
05. Mistress For Christmas
06. Rock Your Heart Out
07. Are You Ready
08. Got You By The Balls
09. Shot Of Love
10. Let's Make It
11. Goodbye And Good Riddance To Bad Luck
12. If You Dare

more info @ Wikipedia

Exact Audio Copy V0.99 prebeta 4 from 23. January 2008

Отчёт EAC об извлечении, выполненном 19. октября 2008, 10:18

AC-DC / The Razor's Edge (Japanese SICP-1712)

Дисковод: PLEXTOR DVDR PX-716A Adapter: 3 ID: 0

Режим чтения : Достоверность
Использование точного потока : Да
Отключение кэша аудио : Да
Использование указателей C2 : Нет

Коррекция смещения при чтении : 30
Способность читать области Lead-in и Lead-out : Да
Заполнение пропущенных сэмплов тишиной : Да
Удаление блоков с тишиной в начале и конце : Нет
При вычислениях CRC использовались нулевые сэмплы : Нет
Интерфейс : Установленный внешний ASPI-интерфейс

Выходной формат : Пользовательский кодировщик
Выбранный битрейт : 32 kBit/s
Качество : Высокий
Добавление ID3-тэга : Да
Утилита сжатия : C:\Program Files\AUDIO\Exact Audio Copy 099pb4\Flac\flac.exe
Дополнительные параметры : -6 -V -T "artist=%a" -T "title=%t" -T "album=%g" -T "date=%y" -T "tracknumber=%n" -T "genre=%m" -T "comment=EAC 0.99prebeta4 / FLAC 1.2.1 q6" %s


TOC извлечённого CD

Трек | Старт | Длительность | Начальный сектор | Конечный сектор
––––––––––––––––––––––––––––––––––-
1 | 0:00.00 | 4:52.64 | 0 | 21963
2 | 4:52.64 | 2:53.56 | 21964 | 34994
3 | 7:46.45 | 3:45.71 | 34995 | 51940
4 | 11:32.41 | 4:22.40 | 51941 | 71630
5 | 15:55.06 | 3:59.39 | 71631 | 89594
6 | 19:54.45 | 4:06.51 | 89595 | 108095
7 | 24:01.21 | 4:10.25 | 108096 | 126870
8 | 28:11.46 | 4:30.18 | 126871 | 147138
9 | 32:41.64 | 3:56.39 | 147139 | 164877
10 | 36:38.28 | 3:32.24 | 164878 | 180801
11 | 40:10.52 | 3:13.41 | 180802 | 195317
12 | 43:24.18 | 3:18.29 | 195318 | 210196


Характеристики диапазона извлечения и сообщения об ошибках

Выбранный диапазон

Имя файла D:\MY_Create\AC-DC_90\AC-DC - The Razor's Edge (Japanese SICP-1712).wav

Пиковый уровень 100.0 %
Качество диапазона 99.9 %
CRC копии F68C071F
Копирование… OK

Ошибок не произошло

Конец отчёта

all tracks were accurately ripped / checked on March 2011



_________________________________________________________________________________________


AC/DC - Ultimate Paper Sleeve Collection + 			  		 	 	  		 	    	 			   		   	  		 		   		   	  	 			   		  	   		      		      	 			   		   	  		 			  		    			 (20 CDs, 2007-08) [Japanese Limited Release] -Repost-

AC/DC - Live: Collector's Edition (1992) [Japanese SICP-1714~5] 2CDs
FLAC-IMG+CUE+LOG > 1025 MB | 132:21 min | Scans > 22 MB | MP3 CBR 320 Kbps > 300 MB

Tracklist:

01. Thunderstruck
02. Shoot To Thrill
03. Back In Black
04. Sin City
05. Who Made Who
06. Heatseeker
07. Fire Your Guns
08. Jailbreak
09. The Jack
10. The Razor's Edge
11. Dirty Deeds Done Dirt Cheap
12. Moneytalks

Exact Audio Copy V0.99 prebeta 4 from 23. January 2008

Отчёт EAC об извлечении, выполненном 26. ноября 2008, 12:31

AC-DC / Live (Collector's Edition) (Japanese SICP-1714) CD1

Дисковод: PLEXTOR DVDR PX-716A Adapter: 3 ID: 0

Режим чтения : Достоверность
Использование точного потока : Да
Отключение кэша аудио : Да
Использование указателей C2 : Нет

Коррекция смещения при чтении : 30
Способность читать области Lead-in и Lead-out : Да
Заполнение пропущенных сэмплов тишиной : Да
Удаление блоков с тишиной в начале и конце : Нет
При вычислениях CRC использовались нулевые сэмплы : Нет
Интерфейс : Установленный внешний ASPI-интерфейс

Выходной формат : Пользовательский кодировщик
Выбранный битрейт : 32 kBit/s
Качество : Высокий
Добавление ID3-тэга : Да
Утилита сжатия : C:\Program Files\AUDIO\Exact Audio Copy 099pb4\Flac\flac.exe
Дополнительные параметры : -6 -V -T "artist=%a" -T "title=%t" -T "album=%g" -T "date=%y" -T "tracknumber=%n" -T "genre=%m" -T "comment=EAC 0.99prebeta4 / FLAC 1.2.1 q6" %s


TOC извлечённого CD

Трек | Старт | Длительность | Начальный сектор | Конечный сектор
––––––––––––––––––––––––––––––––––-
1 | 0:00.00 | 6:35.02 | 0 | 29626
2 | 6:35.02 | 5:23.00 | 29627 | 53851
3 | 11:58.02 | 4:28.05 | 53852 | 73956
4 | 16:26.07 | 5:40.50 | 73957 | 99506
5 | 22:06.57 | 5:15.55 | 99507 | 123186
6 | 27:22.37 | 3:37.05 | 123187 | 139466
7 | 30:59.42 | 3:40.65 | 139467 | 156031
8 | 34:40.32 | 14:43.05 | 156032 | 222261
9 | 49:23.37 | 6:57.48 | 222262 | 253584
10 | 56:21.10 | 4:35.35 | 253585 | 274244
11 | 60:56.45 | 5:02.62 | 274245 | 296956
12 | 65:59.32 | 4:29.65 | 296957 | 317196


Характеристики диапазона извлечения и сообщения об ошибках

Выбранный диапазон

Имя файла D:\MY_Create\AC-DC_1992_(Collector's Edition)\CD1\AC-DC - Live (Collector's Edition) (Japanese SICP-1714) CD1.wav

Пиковый уровень 100.0 %
Качество диапазона 100.0 %
CRC копии AAC9BCD2
Копирование… OK

Ошибок не произошло

Конец отчёта

all tracks were accurately ripped / checked on March 2011


13. Hells Bells
14. Are You Ready
15. That's The Way I Wanna Rock 'N' Roll
16. High Voltage
17. You Shook Me All Night Long
18. Whole Lotta Rosie
19. Let There Be Rock
20. Bonny
21. Highway To Hell
22. T.N.T.
23. For Those About To Rock (We Salute You)

Exact Audio Copy V0.99 prebeta 4 from 23. January 2008

Отчёт EAC об извлечении, выполненном 26. ноября 2008, 13:12

AC-DC / Live (Collector's Edition) (Japanese SICP-1715) CD2

Дисковод: PLEXTOR DVDR PX-716A Adapter: 3 ID: 0

Режим чтения : Достоверность
Использование точного потока : Да
Отключение кэша аудио : Да
Использование указателей C2 : Нет

Коррекция смещения при чтении : 30
Способность читать области Lead-in и Lead-out : Да
Заполнение пропущенных сэмплов тишиной : Да
Удаление блоков с тишиной в начале и конце : Нет
При вычислениях CRC использовались нулевые сэмплы : Нет
Интерфейс : Установленный внешний ASPI-интерфейс

Выходной формат : Пользовательский кодировщик
Выбранный битрейт : 32 kBit/s
Качество : Высокий
Добавление ID3-тэга : Да
Утилита сжатия : C:\Program Files\AUDIO\Exact Audio Copy 099pb4\Flac\flac.exe
Дополнительные параметры : -6 -V -T "artist=%a" -T "title=%t" -T "album=%g" -T "date=%y" -T "tracknumber=%n" -T "genre=%m" -T "comment=EAC 0.99prebeta4 / FLAC 1.2.1 q6" %s


TOC извлечённого CD

Трек | Старт | Длительность | Начальный сектор | Конечный сектор
––––––––––––––––––––––––––––––––––-
1 | 0:00.00 | 6:01.22 | 0 | 27096
2 | 6:01.22 | 4:34.08 | 27097 | 47654
3 | 10:35.30 | 3:57.22 | 47655 | 65451
4 | 14:32.52 | 10:33.10 | 65452 | 112936
5 | 25:05.62 | 3:54.60 | 112937 | 130546
6 | 29:00.47 | 4:30.60 | 130547 | 150856
7 | 33:31.32 | 12:17.08 | 150857 | 206139
8 | 45:48.40 | 1:03.27 | 206140 | 210891
9 | 46:51.67 | 3:53.48 | 210892 | 228414
10 | 50:45.40 | 3:48.00 | 228415 | 245514
11 | 54:33.40 | 7:17.62 | 245515 | 278351


Характеристики диапазона извлечения и сообщения об ошибках

Выбранный диапазон

Имя файла D:\MY_Create\AC-DC_1992_(Collector's Edition)\CD2\AC-DC - Live (Collector's Edition) (Japanese SICP-1715) CD2.wav

Пиковый уровень 100.0 %
Качество диапазона 100.0 %
CRC копии 1C3317A2
Копирование… OK

Ошибок не произошло

Конец отчёта

all tracks were accurately ripped / checked on March 2011


more info @ Wikipedia



_________________________________________________________________________________________


AC/DC - Ultimate Paper Sleeve Collection + (20 CDs, 2007-08) [Japanese Limited Release] -Repost-

AC/DC - Live (1992) [Japanese SICP-1716]
FLAC-IMG+CUE+LOG > 557 MB | 71:11 min | Scans > 34 MB | MP3 CBR 320 Kbps > 162 MB

Tracklist:

01. Thunderstruck
02. Shoot To Thrill
03. Back In Black
04. Who Made Who
05. Heatseeker
06. The Jack
07. Moneytalks
08. Hells Bells
09. Dirty Deeds Done Dirt Cheap
10. Whole Lotta Rosie
11. You Shook Me All Night Long
12. Highway To Hell
13. T.N.T.
14. For Those About To Rock (We Salute You)

more info @ Wikipedia

Exact Audio Copy V0.99 prebeta 4 from 23. January 2008

Отчёт EAC об извлечении, выполненном 27. мая 2008, 18:20

AC-DC / Live (Japanese SICP-1716)

Дисковод: PLEXTOR DVDR PX-716A Adapter: 3 ID: 0

Режим чтения : Достоверность
Использование точного потока : Да
Отключение кэша аудио : Да
Использование указателей C2 : Нет

Коррекция смещения при чтении : 30
Способность читать области Lead-in и Lead-out : Да
Заполнение пропущенных сэмплов тишиной : Да
Удаление блоков с тишиной в начале и конце : Нет
При вычислениях CRC использовались нулевые сэмплы : Нет
Интерфейс : Установленный внешний ASPI-интерфейс

Выходной формат : Пользовательский кодировщик
Выбранный битрейт : 32 kBit/s
Качество : Высокий
Добавление ID3-тэга : Да
Утилита сжатия : C:\Program Files\AUDIO\Exact Audio Copy 099pb4\Flac\flac.exe
Дополнительные параметры : -6 -V -T "artist=%a" -T "title=%t" -T "album=%g" -T "date=%y" -T "tracknumber=%n" -T "genre=%m" -T "comment=EAC 0.99prebeta4 / FLAC 1.2.1 q6" %s


TOC извлечённого CD

Трек | Старт | Длительность | Начальный сектор | Конечный сектор
––––––––––––––––––––––––––––––––––-
1 | 0:00.00 | 6:35.17 | 0 | 29641
2 | 6:35.17 | 5:23.18 | 29642 | 53884
3 | 11:58.35 | 4:28.00 | 53885 | 73984
4 | 16:26.35 | 5:16.17 | 73985 | 97701
5 | 21:42.52 | 3:37.03 | 97702 | 113979
6 | 25:19.55 | 6:57.62 | 113980 | 145316
7 | 32:17.42 | 4:19.15 | 145317 | 164756
8 | 36:36.57 | 6:01.15 | 164757 | 191846
9 | 42:37.72 | 5:02.56 | 191847 | 214552
10 | 47:40.53 | 4:30.59 | 214553 | 234861
11 | 52:11.37 | 3:54.65 | 234862 | 252476
12 | 56:06.27 | 3:59.03 | 252477 | 270404
13 | 60:05.30 | 3:47.50 | 270405 | 287479
14 | 63:53.05 | 7:17.48 | 287480 | 320302


Характеристики диапазона извлечения и сообщения об ошибках

Выбранный диапазон

Имя файла G:\CDImage\AC-DC_1992_Japanese\AC-DC - Live (Japanese SICP-1716).wav

Пиковый уровень 100.0 %
Качество диапазона 100.0 %
CRC копии 594A31BB
Копирование… OK

Ошибок не произошло

Конец отчёта

all tracks were accurately ripped / checked on March 2011



_________________________________________________________________________________________


AC/DC - Ultimate Paper Sleeve Collection + (20 CDs, 2007-08) [Japanese Limited Release] -Repost-

AC/DC - Ballbreaker (1995) [Japanese SICP-1717]
FLAC-IMG+CUE+LOG > 370 MB | 49:52 min | Scans > 19 MB | MP3 CBR 320 Kbps > 112 MB

Tracklist:

01. Hard As A Rock
02. Cover You In Oil
03. The Furor
04. Boogie Man
05. The Honey Roll
06. Burnin' Alive
07. Hail Caesar
08. Love Bomb
09. Caught With You Pants Down
10. Whiskey On The Rocks
11. Ballbreaker

more info @ Wikipedia

Exact Audio Copy V0.99 prebeta 4 from 23. January 2008

Отчёт EAC об извлечении, выполненном 23. октября 2008, 19:39

AC-DC / Ballbreaker (Japanese SICP-1717)

Дисковод: PLEXTOR DVDR PX-716A Adapter: 3 ID: 0

Режим чтения : Достоверность
Использование точного потока : Да
Отключение кэша аудио : Да
Использование указателей C2 : Нет

Коррекция смещения при чтении : 30
Способность читать области Lead-in и Lead-out : Да
Заполнение пропущенных сэмплов тишиной : Да
Удаление блоков с тишиной в начале и конце : Нет
При вычислениях CRC использовались нулевые сэмплы : Нет
Интерфейс : Установленный внешний ASPI-интерфейс

Выходной формат : Пользовательский кодировщик
Выбранный битрейт : 32 kBit/s
Качество : Высокий
Добавление ID3-тэга : Да
Утилита сжатия : C:\Program Files\AUDIO\Exact Audio Copy 099pb4\Flac\flac.exe
Дополнительные параметры : -6 -V -T "artist=%a" -T "title=%t" -T "album=%g" -T "date=%y" -T "tracknumber=%n" -T "genre=%m" -T "comment=EAC 0.99prebeta4 / FLAC 1.2.1 q6" %s


TOC извлечённого CD

Трек | Старт | Длительность | Начальный сектор | Конечный сектор
––––––––––––––––––––––––––––––––––-
1 | 0:00.00 | 4:31.22 | 0 | 20346
2 | 4:31.22 | 4:32.55 | 20347 | 40801
3 | 9:04.02 | 4:10.53 | 40802 | 59604
4 | 13:14.55 | 4:07.05 | 59605 | 78134
5 | 17:21.60 | 5:34.72 | 78135 | 103256
6 | 22:56.57 | 5:05.30 | 103257 | 126161
7 | 28:02.12 | 5:14.38 | 126162 | 149749
8 | 33:16.50 | 3:14.04 | 149750 | 164303
9 | 36:30.54 | 4:14.53 | 164304 | 183406
10 | 40:45.32 | 4:35.03 | 183407 | 204034
11 | 45:20.35 | 4:31.67 | 204035 | 224426


Характеристики диапазона извлечения и сообщения об ошибках

Выбранный диапазон

Имя файла D:\MY_Create\AC-DC_95\AC-DC - Ballbreaker (Japanese SICP-1717).wav

Пиковый уровень 100.0 %
Качество диапазона 100.0 %
CRC копии B395C24D
Копирование… OK

Ошибок не произошло

Конец отчёта

all tracks were accurately ripped / checked on March 2011



_________________________________________________________________________________________


AC/DC - Ultimate Paper Sleeve Collection + (20 CDs, 2007-08) [Japanese Limited Release] -Repost-

AC/DC - Stiff Upper Lip (2000) [Japanese SICP-1718]
FLAC-IMG+CUE+LOG > 360 MB | 47:26 min | Scans > 101 MB | MP3 CBR 320 Kbps > 104 MB

Tracklist:

01. Stiff Upper Lip
02. Meltdown
03. House Of Jazz
04. Hold Me Back
05. Safe In New York City
06. Can't Stand Still
07. Can't Stop Rock 'N' Roll
08. Satellite Blues
09. Damned
10. Come And Get It
11. All Screwed Up
12. Give It Up

more info @ Wikipedia

Exact Audio Copy V0.99 prebeta 4 from 23. January 2008

Отчёт EAC об извлечении, выполненном 28. октября 2008, 13:26

AC-DC / Stiff Upper Lip (Japanese SICP-1718)

Дисковод: PLEXTOR DVDR PX-716A Adapter: 3 ID: 0

Режим чтения : Достоверность
Использование точного потока : Да
Отключение кэша аудио : Да
Использование указателей C2 : Нет

Коррекция смещения при чтении : 30
Способность читать области Lead-in и Lead-out : Да
Заполнение пропущенных сэмплов тишиной : Да
Удаление блоков с тишиной в начале и конце : Нет
При вычислениях CRC использовались нулевые сэмплы : Нет
Интерфейс : Установленный внешний ASPI-интерфейс

Выходной формат : Пользовательский кодировщик
Выбранный битрейт : 32 kBit/s
Качество : Высокий
Добавление ID3-тэга : Да
Утилита сжатия : C:\Program Files\AUDIO\Exact Audio Copy 099pb4\Flac\flac.exe
Дополнительные параметры : -6 -V -T "artist=%a" -T "title=%t" -T "album=%g" -T "date=%y" -T "tracknumber=%n" -T "genre=%m" -T "comment=EAC 0.99prebeta4 / FLAC 1.2.1 q6" %s


TOC извлечённого CD

Трек | Старт | Длительность | Начальный сектор | Конечный сектор
––––––––––––––––––––––––––––––––––-
1 | 0:00.00 | 3:35.10 | 0 | 16134
2 | 3:35.10 | 3:41.25 | 16135 | 32734
3 | 7:16.35 | 3:56.30 | 32735 | 50464
4 | 11:12.65 | 3:59.10 | 50465 | 68399
5 | 15:12.00 | 3:59.15 | 68400 | 86339
6 | 19:11.15 | 3:41.37 | 86340 | 102951
7 | 22:52.52 | 4:02.12 | 102952 | 121113
8 | 26:54.64 | 3:46.51 | 121114 | 138114
9 | 30:41.40 | 3:51.70 | 138115 | 155509
10 | 34:33.35 | 4:02.56 | 155510 | 173715
11 | 38:36.16 | 4:36.44 | 173716 | 194459
12 | 43:12.60 | 4:13.30 | 194460 | 213464


Характеристики диапазона извлечения и сообщения об ошибках

Выбранный диапазон

Имя файла D:\MY_Create\AC-DC_2000\AC-DC - Stiff Upper Lip (Japanese SICP-1718).wav

Пиковый уровень 100.0 %
Качество диапазона 100.0 %
CRC копии 71CA2125
Копирование… OK

Ошибок не произошло

Конец отчёта

all tracks were accurately ripped / checked on March 2011



_________________________________________________________________________________________

AC/DC - Ultimate Paper Sleeve Collection + (20 CDs, 2007-08) [Japanese Limited Release] -Repost-

AC/DC - Black Ice (Japanese SICP-2055)
FLAC-IMG+CUE+LOG > 462 MB | 55:38 min | Scans > 23 MB | MP3 CBR 320 Kbps > 124 MB

Tracklist:

01. Rock 'N' Roll Train
02. Skies On Fire
03. Big Jack
04. Anything Goes
05. War Machine
06. Smash 'N' Grab
07. Spoilin' For A Fight
08. Wheels
09. Decibel
10. Stormy May Day
11. She Likes Rock 'N' Roll
12. Money Made
13. Rock 'N' Roll Dream
14. Rocking All The Way
15. Black Ice

more info @ Wikipedia

Exact Audio Copy V0.99 prebeta 4 from 23. January 2008

Отчёт EAC об извлечении, выполненном 10. ноября 2008, 14:44

AC-DC / Black Ice (Japanese SICP-2055)

Дисковод: PLEXTOR DVDR PX-716A Adapter: 3 ID: 0

Режим чтения : Достоверность
Использование точного потока : Да
Отключение кэша аудио : Да
Использование указателей C2 : Нет

Коррекция смещения при чтении : 30
Способность читать области Lead-in и Lead-out : Да
Заполнение пропущенных сэмплов тишиной : Да
Удаление блоков с тишиной в начале и конце : Нет
При вычислениях CRC использовались нулевые сэмплы : Нет
Интерфейс : Установленный внешний ASPI-интерфейс

Выходной формат : Пользовательский кодировщик
Выбранный битрейт : 32 kBit/s
Качество : Высокий
Добавление ID3-тэга : Да
Утилита сжатия : C:\Program Files\AUDIO\Exact Audio Copy 099pb4\Flac\flac.exe
Дополнительные параметры : -6 -V -T "artist=%a" -T "title=%t" -T "album=%g" -T "date=%y" -T "tracknumber=%n" -T "genre=%m" -T "comment=EAC 0.99prebeta4 / FLAC 1.2.1 q6" %s


TOC извлечённого CD

Трек | Старт | Длительность | Начальный сектор | Конечный сектор
––––––––––––––––––––––––––––––––––-
1 | 0:00.00 | 4:21.38 | 0 | 19612
2 | 4:21.38 | 3:34.13 | 19613 | 35675
3 | 7:55.51 | 3:57.05 | 35676 | 53455
4 | 11:52.56 | 3:22.12 | 53456 | 68617
5 | 15:14.68 | 3:09.59 | 68618 | 82851
6 | 18:24.52 | 4:06.31 | 82852 | 101332
7 | 22:31.08 | 3:17.06 | 101333 | 116113
8 | 25:48.14 | 3:28.37 | 116114 | 131750
9 | 29:16.51 | 3:33.66 | 131751 | 147791
10 | 32:50.42 | 3:10.16 | 147792 | 162057
11 | 36:00.58 | 3:52.70 | 162058 | 179527
12 | 39:53.53 | 4:15.35 | 179528 | 198687
13 | 44:09.13 | 4:40.68 | 198688 | 219755
14 | 48:50.06 | 3:22.37 | 219756 | 234942
15 | 52:12.43 | 3:25.08 | 234943 | 250325


Характеристики диапазона извлечения и сообщения об ошибках

Выбранный диапазон

Имя файла D:\MY_Create\AC-DC_2008\AC-DC - Black Ice (Japanese SICP-2055).wav

Пиковый уровень 99.9 %
Качество диапазона 100.0 %
CRC копии 96D0EC7A
Копирование… OK

Ошибок не произошло

Конец отчёта

AccurateRip ID: 001e8e48-015946e2-c90d090f found.
Track [ CRC ] Status
01 [0b33bb38] (14/14) Accurately ripped
02 [c70c290b] (13/13) Accurately ripped
03 [362e8490] (12/12) Accurately ripped
04 [d2c3b47e] (14/14) Accurately ripped
05 [d12eb4d0] (14/14) Accurately ripped
06 [dc51e30d] (14/14) Accurately ripped
07 [c64a110b] (14/14) Accurately ripped
08 [45ad2bbb] (14/14) Accurately ripped
09 [032ba370] (14/14) Accurately ripped
10 [367179bd] (14/14) Accurately ripped
11 [fc375982] (14/14) Accurately ripped
12 [90f3bbf5] (14/14) Accurately ripped
13 [d1b5f2a3] (14/14) Accurately ripped
14 [1c17419c] (14/14) Accurately ripped
15 [8bf780bb] (14/14) Accurately ripped

Track Peak [ CRC32 ] [W/O NULL] [ LOG ]
– 99,9 [98962E6C] [96D0EC7A] W/O NULL
01 99,9 [28939EFE] [52140DF7]
02 99,9 [FBF30B4D] [64C0EC18]
03 99,9 [EA9C6FD5] [DC12C6CF]
04 99,9 [03DBA257] [989DAEBE]
05 99,9 [79FE9808] [DE76F6C2]
06 99,9 [8249CC3A] [303D8508]
07 99,9 [451C26A4] [10FAB849]
08 99,9 [2FD77A3A] [BA778A68]
09 99,9 [70F8F7E6] [25B87126]
10 99,9 [20DCCE7D] [5A622D02]
11 99,9 [E5D0CF1B] [72304F4E]
12 99,9 [5A827846] [43116706]
13 99,9 [E5FE861D] [84C4938C]
14 99,9 [8F8B4D42] [FC66274B]
15 99,9 [8629A0D6] [CF317F05]


* SICP-2055 is not part of this mini-LP collection.

all CDs were initially ripped, scanned and shared via eD2k network by Igor191965.


In case you encounter some dead links, please leave the comment here or send me a private message!


DOWNLOAD > AC/DC - Ultimate Paper Sleeve Collection [Japanese Limited Releases]

FILEPOST | FILESONIC

The archives are interchangeable.


* where the album title is his catalogue number,
and "L" is lossless, "M" is MP3, "Sc" is Scans.

___________________________