Subcategories

VA - Vintage Music Volumes 1-10 (5 CD's) (1986)

Posted By: TestTickles
VA - Vintage Music Volumes 1-10 (5 CD's) (1986)

VA - Vintage Music Volumes 1-10 (5 CD's) (1986)
EAC Rip | FLAC with CUE and log | scans | 244mb, 230mb, 286mb, 303mb, 342mb
MP3 CBR 320kbps | RAR | 132mb, 123mb, 132mb, 138mb, 148mb
Genre: rock'n'roll, R&B, doo-wop, soul, blues, rock, classic rock

Vintage Music is a compilation series released by MCA Records in 1986. There were 10 volumes when released on vinyl and cassette but the compact disc versions put together two at a time, so there was a total of five CD's in the series: 1 & 2, 3 & 4, and so on. This series was remastered by Steve Hoffman from the best available master recordings, with a few songs taken from versions that had not been heard before. Notable is the version of Steppenwolf's "Born To Be Wild" used here.


VA - Vintage Music Volumes 1-10 (5 CD's) (1986)

Vintage Music Vols. 1 & 2
EAC Rip | FLAC with CUE and log | scans | 244mb
MP3 CBR 320kbps | RAR | 132mb
Genre: rock'n'roll, R&B, doo-wop

01. Chuck Berry - Maybellene
02. Danny & The Juniors - At The Hop
03. The Monotones - Book Of Love
04. The Moonglows - Ten Commandments Of Love
05. Dale Hawkins - Susie-Q
06. Buddy Holly & The Crickets - That'll Be The Day
07. The Kalin Twins - When
08. The Dell Vikings - Come Go With Me
09. Bo Diddley - Bo Diddley
10. Bill Haley & His Comets - Shake, Rattle And Roll
11. Clarence "Frogman" Henry - Ain't Got No Home
12. Chuck Berry - Roll Over Beethoven
13. Buddy Holly - Peggy Sue
14. Lloyd Price - Stagger Lee
15. The Flamingos - I'll Be Home
16. Danny & The Juniors - Rock And Roll Is Here To Stay
17. The Dell Vikings - Whispering Bells
18. Bobby Helms - My Special Angel
19. The Moonglows - Sincerely
20. Pat Boone - Love Letters In The Sand

EAC extraction logfile from 7. September 2006, 6:55 for CD
Various Artists / Vintage Music Volumes 1 & 2

Used drive : LITE-ON DVDRW SOHW-1633S Adapter: 0 ID: 0
Read mode : Secure with NO C2, accurate stream, disable cache
Read offset correction : 12
Overread into Lead-In and Lead-Out : No

Used output format : Internal WAV Routines
44.100 Hz; 16 Bit; Stereo

Other options :
Fill up missing offset samples with silence : Yes
Delete leading and trailing silent blocks : No
Installed external ASPI interface


Track 1
Filename D:\FLAC\VA - Vintage Music Volumes 1 & 2 (1986) [FLAC] (MCA Steve Hoffman)\01 - Chuck Berry - Maybellene.wav

Pre-gap length 0:00:02.00

Peak level 66.8 %
Track quality 100.0 %
Test CRC 09E18DDB
Copy CRC 09E18DDB
Copy OK

Track 2
Filename D:\FLAC\VA - Vintage Music Volumes 1 & 2 (1986) [FLAC] (MCA Steve Hoffman)\02 - Danny & The Juniors - At The Hop.wav

Pre-gap length 0:00:02.84

Peak level 67.3 %
Track quality 100.0 %
Test CRC FB28B544
Copy CRC FB28B544
Copy OK

Track 3
Filename D:\FLAC\VA - Vintage Music Volumes 1 & 2 (1986) [FLAC] (MCA Steve Hoffman)\03 - The Monotones - Book Of Love.wav

Pre-gap length 0:00:01.46

Peak level 79.1 %
Track quality 100.0 %
Test CRC EA1C5195
Copy CRC EA1C5195
Copy OK

Track 4
Filename D:\FLAC\VA - Vintage Music Volumes 1 & 2 (1986) [FLAC] (MCA Steve Hoffman)\04 - The Moonglows - Ten Commandments Of Love.wav

Pre-gap length 0:00:02.44

Peak level 66.1 %
Track quality 100.0 %
Test CRC 927527D6
Copy CRC 927527D6
Copy OK

Track 5
Filename D:\FLAC\VA - Vintage Music Volumes 1 & 2 (1986) [FLAC] (MCA Steve Hoffman)\05 - Dale Hawkins - Susie-Q.wav

Pre-gap length 0:00:02.60

Peak level 71.6 %
Track quality 100.0 %
Test CRC 6AB7C923
Copy CRC 6AB7C923
Copy OK

Track 6
Filename D:\FLAC\VA - Vintage Music Volumes 1 & 2 (1986) [FLAC] (MCA Steve Hoffman)\06 - Buddy Holly & The Crickets - That'll Be The Day.wav

Pre-gap length 0:00:01.10

Peak level 68.3 %
Track quality 100.0 %
Test CRC 95EE8463
Copy CRC 95EE8463
Copy OK

Track 7
Filename D:\FLAC\VA - Vintage Music Volumes 1 & 2 (1986) [FLAC] (MCA Steve Hoffman)\07 - The Kalin Twins - When.wav

Pre-gap length 0:00:02.66

Peak level 61.7 %
Track quality 100.0 %
Test CRC AC7652E1
Copy CRC AC7652E1
Copy OK

Track 8
Filename D:\FLAC\VA - Vintage Music Volumes 1 & 2 (1986) [FLAC] (MCA Steve Hoffman)\08 - The Dell Vikings - Come Go With Me.wav

Pre-gap length 0:00:03.86

Peak level 79.9 %
Track quality 100.0 %
Test CRC 52809979
Copy CRC 52809979
Copy OK

Track 9
Filename D:\FLAC\VA - Vintage Music Volumes 1 & 2 (1986) [FLAC] (MCA Steve Hoffman)\09 - Bo Diddley - Bo Diddley.wav

Pre-gap length 0:00:03.02

Peak level 51.8 %
Track quality 100.0 %
Test CRC AB3260B3
Copy CRC AB3260B3
Copy OK

Track 10
Filename D:\FLAC\VA - Vintage Music Volumes 1 & 2 (1986) [FLAC] (MCA Steve Hoffman)\10 - Bill Haley & His Comets - Shake, Rattle And Roll.wav

Pre-gap length 0:00:02.49

Peak level 49.8 %
Track quality 100.0 %
Test CRC FC331406
Copy CRC FC331406
Copy OK

Track 11
Filename D:\FLAC\VA - Vintage Music Volumes 1 & 2 (1986) [FLAC] (MCA Steve Hoffman)\11 - Clarence ''Frogman'' Henry - Ain't Got No Home.wav

Pre-gap length 0:00:01.42

Peak level 54.5 %
Track quality 100.0 %
Test CRC E18FD33A
Copy CRC E18FD33A
Copy OK

Track 12
Filename D:\FLAC\VA - Vintage Music Volumes 1 & 2 (1986) [FLAC] (MCA Steve Hoffman)\12 - Chuck Berry - Roll Over Beethoven.wav

Pre-gap length 0:00:02.26

Peak level 48.8 %
Track quality 100.0 %
Test CRC 80CD216F
Copy CRC 80CD216F
Copy OK

Track 13
Filename D:\FLAC\VA - Vintage Music Volumes 1 & 2 (1986) [FLAC] (MCA Steve Hoffman)\13 - Buddy Holly - Peggy Sue.wav

Pre-gap length 0:00:01.90

Peak level 75.9 %
Track quality 100.0 %
Test CRC 83284C78
Copy CRC 83284C78
Copy OK

Track 14
Filename D:\FLAC\VA - Vintage Music Volumes 1 & 2 (1986) [FLAC] (MCA Steve Hoffman)\14 - Lloyd Price - Stagger Lee.wav

Pre-gap length 0:00:02.26

Peak level 68.5 %
Track quality 100.0 %
Test CRC 5789E82A
Copy CRC 5789E82A
Copy OK

Track 15
Filename D:\FLAC\VA - Vintage Music Volumes 1 & 2 (1986) [FLAC] (MCA Steve Hoffman)\15 - The Flamingos - I'll Be Home.wav

Pre-gap length 0:00:02.00

Peak level 51.5 %
Track quality 100.0 %
Test CRC 03D0BE04
Copy CRC 03D0BE04
Copy OK

Track 16
Filename D:\FLAC\VA - Vintage Music Volumes 1 & 2 (1986) [FLAC] (MCA Steve Hoffman)\16 - Danny & The Juniors - Rock And Roll Is Here To Stay.wav

Pre-gap length 0:00:01.66

Peak level 55.9 %
Track quality 100.0 %
Test CRC 01E06DF2
Copy CRC 01E06DF2
Copy OK

Track 17
Filename D:\FLAC\VA - Vintage Music Volumes 1 & 2 (1986) [FLAC] (MCA Steve Hoffman)\17 - The Dell Vikings - Whispering Bells.wav

Pre-gap length 0:00:02.50

Peak level 75.0 %
Track quality 100.0 %
Test CRC 13DEF4C7
Copy CRC 13DEF4C7
Copy OK

Track 18
Filename D:\FLAC\VA - Vintage Music Volumes 1 & 2 (1986) [FLAC] (MCA Steve Hoffman)\18 - Bobby Helms - My Special Angel.wav

Pre-gap length 0:00:02.96

Peak level 58.8 %
Track quality 100.0 %
Test CRC B9E67DBE
Copy CRC B9E67DBE
Copy OK

Track 19
Filename D:\FLAC\VA - Vintage Music Volumes 1 & 2 (1986) [FLAC] (MCA Steve Hoffman)\19 - The Moonglows - Sincerely.wav

Pre-gap length 0:00:02.06

Peak level 50.2 %
Track quality 100.0 %
Test CRC 81FDBDC6
Copy CRC 81FDBDC6
Copy OK

Track 20
Filename D:\FLAC\VA - Vintage Music Volumes 1 & 2 (1986) [FLAC] (MCA Steve Hoffman)\20 - Pat Boone - Love Letters In The Sand.wav

Pre-gap length 0:00:02.40

Peak level 51.8 %
Track quality 100.0 %
Test CRC F0E16F2C
Copy CRC F0E16F2C
Copy OK

No errors occured


End of status report


===================================================================================================
VA - Vintage Music Volumes 1-10 (5 CD's) (1986)

Vintage Music Vols. 3 & 4
EAC Rip | FLAC with CUE and log | scans | 230mb
MP3 CBR 320kbps | RAR | 123mb
Genre: rock'n'roll, R&B, doo-wop, blues

01. Chuck Berry - School Days
02. Buddy Holly & The Crickets - Oh Boy!
03. The Rob Roys - Tell Me Why
04. Nervous Norvus - Transfusion
05. Bo Diddley - I'm A Man
06. Bill Haley And His Comets - (We're Gonna) Rock Around The Clock
07. Johnny Ace - Pledging My Love
08. The Tune Weavers - Happy, Happy Birthday Baby
09. Lee Andrews & The Hearts - Long Lonely Nights
10. The McGuire Sisters - Sugartime
11. Chuck Berry - Johnny B. Goode
12. The Poni Tails - Born Too Late
13. The Students - I'm So Young
14. The Sparkletones - Penny Loafers And Bobby Socks
15. The Royal Teens - Short Shorts
16. Buddy Holly & The Crickets - Maybe Baby
17. Bo Diddley - Hey! Bo Diddley
18. The Fontane Sisters - Hearts Of Stone
19. Lloyd Price - Personality
20. The Pastels - Been So Long

EAC extraction logfile from 7. September 2006, 17:57 for CD
Various / Vintage Music Volumes 3 & 4

Used drive : LITE-ON DVDRW SOHW-1633S Adapter: 0 ID: 0
Read mode : Secure with NO C2, accurate stream, disable cache
Read offset correction : 12
Overread into Lead-In and Lead-Out : No

Used output format : Internal WAV Routines
44.100 Hz; 16 Bit; Stereo

Other options :
Fill up missing offset samples with silence : Yes
Delete leading and trailing silent blocks : No
Installed external ASPI interface


Track 1
Filename D:\FLAC\VA - Vintage Music Volumes 3 & 4 (1986) [FLAC] (MCA Steve Hoffman)\01 - Chuck Berry - School Days.wav

Pre-gap length 0:00:02.00

Peak level 64.0 %
Track quality 100.0 %
Test CRC D30D3893
Copy CRC D30D3893
Copy OK

Track 2
Filename D:\FLAC\VA - Vintage Music Volumes 3 & 4 (1986) [FLAC] (MCA Steve Hoffman)\02 - Buddy Holly & The Crickets - Oh Boy!.wav

Pre-gap length 0:00:02.37

Peak level 68.6 %
Track quality 100.0 %
Test CRC BE377194
Copy CRC BE377194
Copy OK

Track 3
Filename D:\FLAC\VA - Vintage Music Volumes 3 & 4 (1986) [FLAC] (MCA Steve Hoffman)\03 - The Rob Roys - Tell Me Why.wav

Pre-gap length 0:00:02.64

Peak level 49.8 %
Track quality 100.0 %
Test CRC 011AAD2E
Copy CRC 011AAD2E
Copy OK

Track 4
Filename D:\FLAC\VA - Vintage Music Volumes 3 & 4 (1986) [FLAC] (MCA Steve Hoffman)\04 - Nervous Norvus - Transfusion.wav

Pre-gap length 0:00:03.20

Peak level 53.6 %
Track quality 100.0 %
Test CRC AB14DE27
Copy CRC AB14DE27
Copy OK

Track 5
Filename D:\FLAC\VA - Vintage Music Volumes 3 & 4 (1986) [FLAC] (MCA Steve Hoffman)\05 - Bo Diddley - I'm A Man.wav

Pre-gap length 0:00:02.70

Peak level 55.2 %
Track quality 100.0 %
Test CRC 1F51697F
Copy CRC 1F51697F
Copy OK

Track 6
Filename D:\FLAC\VA - Vintage Music Volumes 3 & 4 (1986) [FLAC] (MCA Steve Hoffman)\06 - Bill Haley And His Comets - (We're Gonna) Rock Around The Clock.wav

Pre-gap length 0:00:00.97

Peak level 69.1 %
Track quality 100.0 %
Test CRC C7C2E1E6
Copy CRC C7C2E1E6
Copy OK

Track 7
Filename D:\FLAC\VA - Vintage Music Volumes 3 & 4 (1986) [FLAC] (MCA Steve Hoffman)\07 - Johnny Ace - Pledging My Love.wav

Pre-gap length 0:00:02.53

Peak level 64.2 %
Track quality 100.0 %
Test CRC AEC401C4
Copy CRC AEC401C4
Copy OK

Track 8
Filename D:\FLAC\VA - Vintage Music Volumes 3 & 4 (1986) [FLAC] (MCA Steve Hoffman)\08 - The Tune Weavers - Happy, Happy Birthday Baby.wav

Pre-gap length 0:00:02.16

Peak level 65.7 %
Track quality 100.0 %
Test CRC D4DC3820
Copy CRC D4DC3820
Copy OK

Track 9
Filename D:\FLAC\VA - Vintage Music Volumes 3 & 4 (1986) [FLAC] (MCA Steve Hoffman)\09 - Lee Andrews & The Hearts - Long Lonely Nights.wav

Pre-gap length 0:00:03.24

Peak level 55.0 %
Track quality 100.0 %
Test CRC 819FA08C
Copy CRC 819FA08C
Copy OK

Track 10
Filename D:\FLAC\VA - Vintage Music Volumes 3 & 4 (1986) [FLAC] (MCA Steve Hoffman)\10 - The McGuire Sisters - Sugartime.wav

Pre-gap length 0:00:02.73

Peak level 57.4 %
Track quality 100.0 %
Test CRC A69AD728
Copy CRC A69AD728
Copy OK

Track 11
Filename D:\FLAC\VA - Vintage Music Volumes 3 & 4 (1986) [FLAC] (MCA Steve Hoffman)\11 - Chuck Berry - Johnny B. Goode.wav

Pre-gap length 0:00:01.53

Peak level 60.8 %
Track quality 100.0 %
Test CRC A3B0C337
Copy CRC A3B0C337
Copy OK

Track 12
Filename D:\FLAC\VA - Vintage Music Volumes 3 & 4 (1986) [FLAC] (MCA Steve Hoffman)\12 - The Poni Tails - Born Too Late.wav

Pre-gap length 0:00:02.16

Peak level 67.5 %
Track quality 100.0 %
Test CRC 816DC19F
Copy CRC 816DC19F
Copy OK

Track 13
Filename D:\FLAC\VA - Vintage Music Volumes 3 & 4 (1986) [FLAC] (MCA Steve Hoffman)\13 - The Students - I'm So Young.wav

Pre-gap length 0:00:03.20

Peak level 47.3 %
Track quality 100.0 %
Test CRC FCAE4E19
Copy CRC FCAE4E19
Copy OK

Track 14
Filename D:\FLAC\VA - Vintage Music Volumes 3 & 4 (1986) [FLAC] (MCA Steve Hoffman)\14 - The Sparkletones - Penny Loafers And Bobby Socks.wav

Pre-gap length 0:00:02.33

Peak level 61.3 %
Track quality 100.0 %
Test CRC F1C3218D
Copy CRC F1C3218D
Copy OK

Track 15
Filename D:\FLAC\VA - Vintage Music Volumes 3 & 4 (1986) [FLAC] (MCA Steve Hoffman)\15 - The Royal Teens - Short Shorts.wav

Pre-gap length 0:00:03.20

Peak level 62.4 %
Track quality 100.0 %
Test CRC A104E552
Copy CRC A104E552
Copy OK

Track 16
Filename D:\FLAC\VA - Vintage Music Volumes 3 & 4 (1986) [FLAC] (MCA Steve Hoffman)\16 - Maybe Baby.wav

Pre-gap length 0:00:01.42

Peak level 63.7 %
Track quality 100.0 %
Test CRC 41551709
Copy CRC 41551709
Copy OK

Track 17
Filename D:\FLAC\VA - Vintage Music Volumes 3 & 4 (1986) [FLAC] (MCA Steve Hoffman)\17 - Bo Diddley - Hey! Bo Diddley.wav

Pre-gap length 0:00:02.40

Peak level 63.5 %
Track quality 100.0 %
Test CRC E1B71E4A
Copy CRC E1B71E4A
Copy OK

Track 18
Filename D:\FLAC\VA - Vintage Music Volumes 3 & 4 (1986) [FLAC] (MCA Steve Hoffman)\18 - The Fontane Sisters - Hearts Of Stone.wav

Pre-gap length 0:00:02.60

Peak level 60.7 %
Track quality 100.0 %
Test CRC 6450DAEF
Copy CRC 6450DAEF
Copy OK

Track 19
Filename D:\FLAC\VA - Vintage Music Volumes 3 & 4 (1986) [FLAC] (MCA Steve Hoffman)\19 - Lloyd Price - Personality.wav

Pre-gap length 0:00:01.86

Peak level 60.7 %
Track quality 99.9 %
Test CRC 83EED3A6
Copy CRC 83EED3A6
Copy OK

Track 20
Filename D:\FLAC\VA - Vintage Music Volumes 3 & 4 (1986) [FLAC] (MCA Steve Hoffman)\20 - The Pastels - Been So Long.wav

Pre-gap length 0:00:02.13

Peak level 51.5 %
Track quality 100.0 %
Test CRC 5A83B4CA
Copy CRC 5A83B4CA
Copy OK

No errors occured


End of status report

===================================================================================================
VA - Vintage Music Volumes 1-10 (5 CD's) (1986)

Vintage Music Vols. 5 & 6
EAC Rip | FLAC with CUE and log | scans | 286mb
MP3 CBR 320kbps | RAR | 132mb
Genre: rock'n'roll, R&B, doo-wop, soul, blues

01. Barry Mann - Who Put The Bomp (In The Bomp, Bomp, Bomp)
02. Chuck Berry - Sweet Little Sixteen *
03. The Original Casuals - So Tough *
04. Robin Luke - Susie Darlin' *
05. Johnny Cymbal - Mr. Bass Man
06. Brenda Lee - I'm Sorry
07. The Impressions - It's All Right
08. Brian Hyland - Itsy Bitsy Teenie Weenie Yellow Polkadot Bikini
09. Bobby Bland - Turn On Your Love Light
10. Arthur Alexander - You Better Move On
11. Buddy Holly - Raining In My Heart
12. Chuck Berry - Rock And Roll Music *
13. The Sensations - Let Me In *
14. Brenda Lee - Sweet Nothin's
15. Bo Diddley - Mona *
16. The Impressions - Gypsy Woman
17. Bobby Bland - Yield Not To Temptation
18. Tommy Roe - Sheila
19. Clarence ''Frogman'' Henry - (I Don't Know Why I Love You) But I Do
20. The Jaynetts - Sally, Go 'Round The Roses
* stereo mix used

EAC extraction logfile from 9. September 2006, 5:54 for CD
Various / Vintage Music Volumes 5 & 6

Used drive : LITE-ON DVDRW SOHW-1633S Adapter: 0 ID: 0
Read mode : Secure with NO C2, accurate stream, disable cache
Read offset correction : 12
Overread into Lead-In and Lead-Out : No

Used output format : Internal WAV Routines
44.100 Hz; 16 Bit; Stereo

Other options :
Fill up missing offset samples with silence : Yes
Delete leading and trailing silent blocks : No
Installed external ASPI interface


Track 1
Filename D:\FLAC\VA - Vintage Music Volumes 5 & 6 (1986) [FLAC] (MCA Steve Hoffman)\01 - Barry Mann - Who Put The Bomp (In The Bomp, Bomp, Bomp).wav

Pre-gap length 0:00:02.00

Peak level 48.8 %
Track quality 100.0 %
Test CRC BB644CBC
Copy CRC BB644CBC
Copy OK

Track 2
Filename D:\FLAC\VA - Vintage Music Volumes 5 & 6 (1986) [FLAC] (MCA Steve Hoffman)\02 - Chuck Berry - Sweet Little Sixteen.wav

Pre-gap length 0:00:02.26

Peak level 63.5 %
Track quality 100.0 %
Test CRC 22A42F19
Copy CRC 22A42F19
Copy OK

Track 3
Filename D:\FLAC\VA - Vintage Music Volumes 5 & 6 (1986) [FLAC] (MCA Steve Hoffman)\03 - The Original Casuals - So Tough.wav

Pre-gap length 0:00:02.93

Peak level 59.7 %
Track quality 100.0 %
Test CRC 01E71AA0
Copy CRC 01E71AA0
Copy OK

Track 4
Filename D:\FLAC\VA - Vintage Music Volumes 5 & 6 (1986) [FLAC] (MCA Steve Hoffman)\04 - Robin Luke - Susie Darlin'.wav

Pre-gap length 0:00:02.40

Peak level 54.7 %
Track quality 99.9 %
Test CRC 4EC15AC8
Copy CRC 4EC15AC8
Copy OK

Track 5
Filename D:\FLAC\VA - Vintage Music Volumes 5 & 6 (1986) [FLAC] (MCA Steve Hoffman)\05 - Johnny Cymbal - Mr. Bass Man.wav

Pre-gap length 0:00:02.80

Peak level 54.8 %
Track quality 100.0 %
Test CRC 9E2B91AA
Copy CRC 9E2B91AA
Copy OK

Track 6
Filename D:\FLAC\VA - Vintage Music Volumes 5 & 6 (1986) [FLAC] (MCA Steve Hoffman)\06 - Brenda Lee - I'm Sorry.wav

Pre-gap length 0:00:00.62

Peak level 54.3 %
Track quality 100.0 %
Test CRC 8B0A961F
Copy CRC 8B0A961F
Copy OK

Track 7
Filename D:\FLAC\VA - Vintage Music Volumes 5 & 6 (1986) [FLAC] (MCA Steve Hoffman)\07 - The Impressions - It's All Right.wav

Pre-gap length 0:00:02.53

Peak level 47.7 %
Track quality 100.0 %
Test CRC F2EC2FEF
Copy CRC F2EC2FEF
Copy OK

Track 8
Filename D:\FLAC\VA - Vintage Music Volumes 5 & 6 (1986) [FLAC] (MCA Steve Hoffman)\08 - Brian Hyland - Itsy Bitsy Teenie Weenie Yellow Polkadot Bikini.wav

Pre-gap length 0:00:02.73

Peak level 58.4 %
Track quality 100.0 %
Test CRC A0969344
Copy CRC A0969344
Copy OK

Track 9
Filename D:\FLAC\VA - Vintage Music Volumes 5 & 6 (1986) [FLAC] (MCA Steve Hoffman)\09 - Bobby Bland - Turn On Your Love Light.wav

Pre-gap length 0:00:02.44

Peak level 59.2 %
Track quality 100.0 %
Test CRC B972852E
Copy CRC B972852E
Copy OK

Track 10
Filename D:\FLAC\VA - Vintage Music Volumes 5 & 6 (1986) [FLAC] (MCA Steve Hoffman)\10 - Arthur Alexander - You Better Move On.wav

Pre-gap length 0:00:02.66

Peak level 61.8 %
Track quality 100.0 %
Test CRC BF50D6D4
Copy CRC BF50D6D4
Copy OK

Track 11
Filename D:\FLAC\VA - Vintage Music Volumes 5 & 6 (1986) [FLAC] (MCA Steve Hoffman)\11 - Buddy Holly - Raining In My Heart.wav

Pre-gap length 0:00:01.33

Peak level 62.9 %
Track quality 100.0 %
Test CRC 5AE5B3B7
Copy CRC 5AE5B3B7
Copy OK

Track 12
Filename D:\FLAC\VA - Vintage Music Volumes 5 & 6 (1986) [FLAC] (MCA Steve Hoffman)\12 - Chuck Berry - Rock And Roll Music.wav

Pre-gap length 0:00:02.70

Peak level 84.6 %
Track quality 100.0 %
Test CRC E325E8C1
Copy CRC E325E8C1
Copy OK

Track 13
Filename D:\FLAC\VA - Vintage Music Volumes 5 & 6 (1986) [FLAC] (MCA Steve Hoffman)\13 - The Sensations - Let Me In.wav

Pre-gap length 0:00:02.46

Peak level 62.0 %
Track quality 99.9 %
Test CRC 50C95EE5
Copy CRC 50C95EE5
Copy OK

Track 14
Filename D:\FLAC\VA - Vintage Music Volumes 5 & 6 (1986) [FLAC] (MCA Steve Hoffman)\14 - Brenda Lee - Sweet Nothin's.wav

Pre-gap length 0:00:02.86

Peak level 65.7 %
Track quality 100.0 %
Test CRC CA6CD14D
Copy CRC CA6CD14D
Copy OK

Track 15
Filename D:\FLAC\VA - Vintage Music Volumes 5 & 6 (1986) [FLAC] (MCA Steve Hoffman)\15 - Bo Diddley - Mona.wav

Pre-gap length 0:00:02.80

Peak level 42.3 %
Track quality 100.0 %
Test CRC 1C0A99D8
Copy CRC 1C0A99D8
Copy OK

Track 16
Filename D:\FLAC\VA - Vintage Music Volumes 5 & 6 (1986) [FLAC] (MCA Steve Hoffman)\16 - The Impressions - Gypsy Woman.wav

Pre-gap length 0:00:01.66

Peak level 59.0 %
Track quality 100.0 %
Test CRC 26B154DD
Copy CRC 26B154DD
Copy OK

Track 17
Filename D:\FLAC\VA - Vintage Music Volumes 5 & 6 (1986) [FLAC] (MCA Steve Hoffman)\17 - Bobby Bland - Yield Not To Temptation.wav

Pre-gap length 0:00:02.96

Peak level 62.5 %
Track quality 100.0 %
Test CRC 29275EFE
Copy CRC 29275EFE
Copy OK

Track 18
Filename D:\FLAC\VA - Vintage Music Volumes 5 & 6 (1986) [FLAC] (MCA Steve Hoffman)\18 - Tommy Roe - Sheila.wav

Pre-gap length 0:00:02.82

Peak level 64.1 %
Track quality 100.0 %
Test CRC 3187B24C
Copy CRC 3187B24C
Copy OK

Track 19
Filename D:\FLAC\VA - Vintage Music Volumes 5 & 6 (1986) [FLAC] (MCA Steve Hoffman)\19 - Clarence ''Frogman'' Henry - (I Don't Know Why I Love You) But I Do.wav

Pre-gap length 0:00:02.64

Peak level 99.7 %
Track quality 100.0 %
Test CRC 5DEC6E2B
Copy CRC 5DEC6E2B
Copy OK

Track 20
Filename D:\FLAC\VA - Vintage Music Volumes 5 & 6 (1986) [FLAC] (MCA Steve Hoffman)\20 - The Jaynetts - Sally, Go 'Round The Roses.wav

Pre-gap length 0:00:02.56

Peak level 59.3 %
Track quality 100.0 %
Test CRC 4C678C20
Copy CRC 4C678C20
Copy OK

No errors occured


End of status report

===================================================================================================
VA - Vintage Music Volumes 1-10 (5 CD's) (1986)

Vintage Music Vols. 7 & 8
EAC Rip | FLAC with CUE and log | scans | 303mb
MP3 CBR 320kbps | RAR | 138mb
Genre: rock'n'roll, R&B, doo-wop, soul, blues

01. The American Breed - Bend Me, Shape Me
02. Len Barry - 1-2-3
03. The Chantays - Pipeline
04. Bobby Moore & The Rhythm Aces - Searching For My Love
05. Shirley Ellis - The Name Game
06. Buddy Holly - Rave On
07. Chuck Berry - No Particular Place To Go
08. Tommy Tucker - Hi-Heel Sneakers
09. Roy Head & The Traits - Treat Her Right
10. The Impressions - Amen
11. Etta James - Tell Mama
12. The Surfaris - Wipe Out
13. Pat Boone - Moody River
14. The Radiants - Hold On
15. Billy Stewart - Summertime
16. Shirley Ellis - The Nitty Gritty
17. Chuck Berry - You Never Can Tell
18. Steve Alaimo - Everyday I Have To Cry
19. Jackie Ross - Selfish One
20. Dave "Baby" Cortez - Rinky Dink

EAC extraction logfile from 1. July 2006, 14:04 for CD
Various Artists / Vintage Music Volumes 7 & 8

Used drive : LITE-ON DVDRW SOHW-1633S Adapter: 0 ID: 0
Read mode : Secure with NO C2, accurate stream, disable cache
Read offset correction : 12
Overread into Lead-In and Lead-Out : No

Used output format : Internal WAV Routines
44.100 Hz; 16 Bit; Stereo

Other options :
Fill up missing offset samples with silence : Yes
Delete leading and trailing silent blocks : No
Installed external ASPI interface


Track 1
Filename D:\FLAC\VA - Vintage Music Volumes 7 & 8 (1986) [FLAC] (MCA Steve Hoffman)\01 - The American Breed - Bend Me, Shape Me.wav

Pre-gap length 0:00:02.00

Peak level 86.0 %
Track quality 100.0 %
Test CRC 6E91AB3A
Copy CRC 6E91AB3A
Copy OK

Track 2
Filename D:\FLAC\VA - Vintage Music Volumes 7 & 8 (1986) [FLAC] (MCA Steve Hoffman)\02 - Len Barry - 1-2-3.wav

Pre-gap length 0:00:03.22

Peak level 70.5 %
Track quality 100.0 %
Test CRC E6CC20D3
Copy CRC E6CC20D3
Copy OK

Track 3
Filename D:\FLAC\VA - Vintage Music Volumes 7 & 8 (1986) [FLAC] (MCA Steve Hoffman)\03 - The Chantays - Pipeline.wav

Pre-gap length 0:00:02.33

Peak level 48.6 %
Track quality 100.0 %
Test CRC D6420799
Copy CRC D6420799
Copy OK

Track 4
Filename D:\FLAC\VA - Vintage Music Volumes 7 & 8 (1986) [FLAC] (MCA Steve Hoffman)\04 - Bobby Moore & The Rhythm Aces - Searching For My Love.wav

Pre-gap length 0:00:02.80

Peak level 58.1 %
Track quality 100.0 %
Test CRC 16A693A2
Copy CRC 16A693A2
Copy OK

Track 5
Filename D:\FLAC\VA - Vintage Music Volumes 7 & 8 (1986) [FLAC] (MCA Steve Hoffman)\05 - Shirley Ellis - The Name Game.wav

Pre-gap length 0:00:03.22

Peak level 65.4 %
Track quality 100.0 %
Test CRC F66AA429
Copy CRC F66AA429
Copy OK

Track 6
Filename D:\FLAC\VA - Vintage Music Volumes 7 & 8 (1986) [FLAC] (MCA Steve Hoffman)\06 - Buddy Holly - Rave On.wav

Pre-gap length 0:00:02.10

Peak level 72.1 %
Track quality 100.0 %
Test CRC 4E72F946
Copy CRC 4E72F946
Copy OK

Track 7
Filename D:\FLAC\VA - Vintage Music Volumes 7 & 8 (1986) [FLAC] (MCA Steve Hoffman)\07 - Chuck Berry - No Particular Place To Go.wav

Pre-gap length 0:00:02.97

Peak level 55.9 %
Track quality 100.0 %
Test CRC 4A37D8A2
Copy CRC 4A37D8A2
Copy OK

Track 8
Filename D:\FLAC\VA - Vintage Music Volumes 7 & 8 (1986) [FLAC] (MCA Steve Hoffman)\08 - Tommy Tucker - Hi-Heel Sneakers.wav

Pre-gap length 0:00:03.69

Peak level 57.1 %
Track quality 100.0 %
Test CRC 24117C5C
Copy CRC 24117C5C
Copy OK

Track 9
Filename D:\FLAC\VA - Vintage Music Volumes 7 & 8 (1986) [FLAC] (MCA Steve Hoffman)\09 - Roy Head & The Traits - Treat Her Right.wav

Pre-gap length 0:00:02.84

Peak level 49.8 %
Track quality 100.0 %
Test CRC ED769759
Copy CRC ED769759
Copy OK

Track 10
Filename D:\FLAC\VA - Vintage Music Volumes 7 & 8 (1986) [FLAC] (MCA Steve Hoffman)\10 - The Impressions - Amen.wav

Pre-gap length 0:00:02.53

Peak level 55.0 %
Track quality 100.0 %
Test CRC DB4D82E9
Copy CRC DB4D82E9
Copy OK

Track 11
Filename D:\FLAC\VA - Vintage Music Volumes 7 & 8 (1986) [FLAC] (MCA Steve Hoffman)\11 - Etta James - Tell Mama.wav

Pre-gap length 0:00:02.80

Peak level 74.0 %
Track quality 100.0 %
Test CRC 9268985D
Copy CRC 9268985D
Copy OK

Track 12
Filename D:\FLAC\VA - Vintage Music Volumes 7 & 8 (1986) [FLAC] (MCA Steve Hoffman)\12 - The Surfaris - Wipe Out.wav

Pre-gap length 0:00:02.66

Peak level 69.8 %
Track quality 100.0 %
Test CRC 7F0CA234
Copy CRC 7F0CA234
Copy OK

Track 13
Filename D:\FLAC\VA - Vintage Music Volumes 7 & 8 (1986) [FLAC] (MCA Steve Hoffman)\13 - Pat Boone - Moody River.wav

Pre-gap length 0:00:02.57

Peak level 54.6 %
Track quality 99.9 %
Test CRC ABB90119
Copy CRC ABB90119
Copy OK

Track 14
Filename D:\FLAC\VA - Vintage Music Volumes 7 & 8 (1986) [FLAC] (MCA Steve Hoffman)\14 - The Radiants - Hold On.wav

Pre-gap length 0:00:02.90

Peak level 64.7 %
Track quality 100.0 %
Test CRC 23D1331F
Copy CRC 23D1331F
Copy OK

Track 15
Filename D:\FLAC\VA - Vintage Music Volumes 7 & 8 (1986) [FLAC] (MCA Steve Hoffman)\15 - Billy Stewart - Summertime.wav

Pre-gap length 0:00:03.09

Peak level 67.5 %
Track quality 100.0 %
Test CRC 0932BF12
Copy CRC 0932BF12
Copy OK

Track 16
Filename D:\FLAC\VA - Vintage Music Volumes 7 & 8 (1986) [FLAC] (MCA Steve Hoffman)\16 - Shirley Ellis - The Nitty Gritty.wav

Pre-gap length 0:00:02.73

Peak level 46.7 %
Track quality 99.9 %
Test CRC 4057D39C
Copy CRC 4057D39C
Copy OK

Track 17
Filename D:\FLAC\VA - Vintage Music Volumes 7 & 8 (1986) [FLAC] (MCA Steve Hoffman)\17 - Chuck Berry - You Never Can Tell.wav

Pre-gap length 0:00:02.17

Peak level 71.1 %
Track quality 100.0 %
Test CRC 11FEE558
Copy CRC 11FEE558
Copy OK

Track 18
Filename D:\FLAC\VA - Vintage Music Volumes 7 & 8 (1986) [FLAC] (MCA Steve Hoffman)\18 - Steve Alaimo - Everyday I Have To Cry.wav

Pre-gap length 0:00:02.29

Peak level 55.5 %
Track quality 100.0 %
Test CRC 0F025484
Copy CRC 0F025484
Copy OK

Track 19
Filename D:\FLAC\VA - Vintage Music Volumes 7 & 8 (1986) [FLAC] (MCA Steve Hoffman)\19 - Jackie Ross - Selfish One.wav

Pre-gap length 0:00:02.20

Peak level 75.1 %
Track quality 100.0 %
Test CRC 2ED17A61
Copy CRC 2ED17A61
Copy OK

Track 20
Filename D:\FLAC\VA - Vintage Music Volumes 7 & 8 (1986) [FLAC] (MCA Steve Hoffman)\20 - Dave ''Baby'' Cortez - Rinky Dink.wav

Pre-gap length 0:00:02.30

Peak level 61.8 %
Track quality 99.9 %
Test CRC EF1E86F3
Copy CRC EF1E86F3
Copy OK

No errors occured


End of status report

===================================================================================================
VA - Vintage Music Volumes 1-10 (5 CD's) (1986)

Vintage Music Vols. 9 & 10
EAC Rip | FLAC with CUE and log | scans | 342mb
MP3 CBR 320kbps | RAR | 148mb
Genre: rock'n'roll, R&B, soul, blues, rock, folk rock, protest rock, classic rock

01. The Grass Roots - Midnight Confessions
02. Fontella Bass - Rescue Me
03. Barry McGuire - Eve Of Destruction
04. The Spokesmen - Dawn Of Correction
05. Steppenwolf - Born To Be Wild
06. Strawberry Alarm Clock - Incense And Peppermints
07. The Mamas & The Papas - Monday, Monday
08. The Rainy Daze - That Acapulco Gold
09. Three Dog Night - One
10. Ruby & The Romantics - Our Day Will Come
11. Steppenwolf - Magic Carpet Ride
12. The Mamas & The Papas - California Dreamin'
13. Three Dog Night - Eli's Coming
14. The Tams - What Kind Of Fool (Do You Think I Am)
15. Tommy Roe - Dizzy
16. The Grass Roots - Let's Live For Today
17. The Impressions - Woman's Got Soul
18. Billy Stewart - I Do Love You
19. Brian Hyland - Sealed With A Kiss
20. The Cuff Links - Tracy

EAC extraction logfile from 2. September 2006, 16:49 for CD
Various / Vintage Music Volumes 9 & 10

Used drive : LITE-ON DVDRW SOHW-1633S Adapter: 0 ID: 0
Read mode : Secure with NO C2, accurate stream, disable cache
Read offset correction : 12
Overread into Lead-In and Lead-Out : No

Used output format : Internal WAV Routines
44.100 Hz; 16 Bit; Stereo

Other options :
Fill up missing offset samples with silence : Yes
Delete leading and trailing silent blocks : No
Installed external ASPI interface


Track 1
Filename D:\FLAC\VA - Vintage Music Volumes 9 & 10 (1986) [FLAC] (MCA Steve Hoffman)\01 - The Grass Roots - Midnight Confessions.wav

Pre-gap length 0:00:02.00

Peak level 67.2 %
Track quality 100.0 %
Test CRC C42C71A8
Copy CRC C42C71A8
Copy OK

Track 2
Filename D:\FLAC\VA - Vintage Music Volumes 9 & 10 (1986) [FLAC] (MCA Steve Hoffman)\02 - Fontella Bass - Rescue Me.wav

Pre-gap length 0:00:03.00

Peak level 60.7 %
Track quality 100.0 %
Test CRC 35595D17
Copy CRC 35595D17
Copy OK

Track 3
Filename D:\FLAC\VA - Vintage Music Volumes 9 & 10 (1986) [FLAC] (MCA Steve Hoffman)\03 - Barry McGuire - Eve Of Destruction.wav

Pre-gap length 0:00:02.84

Peak level 48.7 %
Track quality 100.0 %
Test CRC 74246FA1
Copy CRC 74246FA1
Copy OK

Track 4
Filename D:\FLAC\VA - Vintage Music Volumes 9 & 10 (1986) [FLAC] (MCA Steve Hoffman)\04 - The Spokesmen - Dawn Of Correction.wav

Pre-gap length 0:00:03.36

Peak level 45.7 %
Track quality 100.0 %
Test CRC 5E23CC03
Copy CRC 5E23CC03
Copy OK

Track 5
Filename D:\FLAC\VA - Vintage Music Volumes 9 & 10 (1986) [FLAC] (MCA Steve Hoffman)\05 - Steppenwolf - Born To Be Wild.wav

Pre-gap length 0:00:03.04

Peak level 79.7 %
Track quality 100.0 %
Test CRC 7C7D2169
Copy CRC 7C7D2169
Copy OK

Track 6
Filename D:\FLAC\VA - Vintage Music Volumes 9 & 10 (1986) [FLAC] (MCA Steve Hoffman)\06 - Strawberry Alarm Clock - Incense And Peppermints.wav

Pre-gap length 0:00:01.96

Peak level 56.4 %
Track quality 100.0 %
Test CRC FC8DCA22
Copy CRC FC8DCA22
Copy OK

Track 7
Filename D:\FLAC\VA - Vintage Music Volumes 9 & 10 (1986) [FLAC] (MCA Steve Hoffman)\07 - The Mamas & The Papas - Monday, Monday.wav

Pre-gap length 0:00:03.20

Peak level 75.0 %
Track quality 100.0 %
Test CRC 07431725
Copy CRC 07431725
Copy OK

Track 8
Filename D:\FLAC\VA - Vintage Music Volumes 9 & 10 (1986) [FLAC] (MCA Steve Hoffman)\08 - The Rainy Daze - That Acapulco Gold.wav

Pre-gap length 0:00:03.76

Peak level 52.6 %
Track quality 100.0 %
Test CRC E9509784
Copy CRC E9509784
Copy OK

Track 9
Filename D:\FLAC\VA - Vintage Music Volumes 9 & 10 (1986) [FLAC] (MCA Steve Hoffman)\09 - Three Dog Night - One.wav

Pre-gap length 0:00:03.22

Peak level 62.8 %
Track quality 100.0 %
Test CRC 8089A614
Copy CRC 8089A614
Copy OK

Track 10
Filename D:\FLAC\VA - Vintage Music Volumes 9 & 10 (1986) [FLAC] (MCA Steve Hoffman)\10 - Ruby & The Romantics - Our Day Will Come.wav

Pre-gap length 0:00:03.20

Peak level 53.2 %
Track quality 100.0 %
Test CRC 895388BE
Copy CRC 895388BE
Copy OK

Track 11
Filename D:\FLAC\VA - Vintage Music Volumes 9 & 10 (1986) [FLAC] (MCA Steve Hoffman)\11 - Steppenwolf - Magic Carpet Ride.wav

Pre-gap length 0:00:01.86

Peak level 64.4 %
Track quality 100.0 %
Test CRC 4959690C
Copy CRC 4959690C
Copy OK

Track 12
Filename D:\FLAC\VA - Vintage Music Volumes 9 & 10 (1986) [FLAC] (MCA Steve Hoffman)\12 - The Mamas & The Papas - California Dreamin'.wav

Pre-gap length 0:00:02.86

Peak level 63.1 %
Track quality 99.9 %
Test CRC 990E7460
Copy CRC 990E7460
Copy OK

Track 13
Filename D:\FLAC\VA - Vintage Music Volumes 9 & 10 (1986) [FLAC] (MCA Steve Hoffman)\13 - Three Dog Night - Eli's Coming.wav

Pre-gap length 0:00:03.20

Peak level 65.3 %
Track quality 100.0 %
Test CRC 15C7CC4B
Copy CRC 15C7CC4B
Copy OK

Track 14
Filename D:\FLAC\VA - Vintage Music Volumes 9 & 10 (1986) [FLAC] (MCA Steve Hoffman)\14 - The Tams - What Kind Of Fool (Do You Think I Am).wav

Pre-gap length 0:00:03.20

Peak level 57.6 %
Track quality 100.0 %
Test CRC 337A6F1B
Copy CRC 337A6F1B
Copy OK

Track 15
Filename D:\FLAC\VA - Vintage Music Volumes 9 & 10 (1986) [FLAC] (MCA Steve Hoffman)\15 - Tommy Roe - Dizzy.wav

Pre-gap length 0:00:03.20

Peak level 63.8 %
Track quality 100.0 %
Test CRC 33718E7C
Copy CRC 33718E7C
Copy OK

Track 16
Filename D:\FLAC\VA - Vintage Music Volumes 9 & 10 (1986) [FLAC] (MCA Steve Hoffman)\16 - The Grass Roots - Let's Live For Today.wav

Pre-gap length 0:00:02.22

Peak level 87.8 %
Track quality 100.0 %
Test CRC DF50F028
Copy CRC DF50F028
Copy OK

Track 17
Filename D:\FLAC\VA - Vintage Music Volumes 9 & 10 (1986) [FLAC] (MCA Steve Hoffman)\17 - The Impressions - Woman's Got Soul.wav

Pre-gap length 0:00:02.76

Peak level 60.1 %
Track quality 100.0 %
Test CRC 7F79D313
Copy CRC 7F79D313
Copy OK

Track 18
Filename D:\FLAC\VA - Vintage Music Volumes 9 & 10 (1986) [FLAC] (MCA Steve Hoffman)\18 - Billy Stewart - I Do Love You.wav

Pre-gap length 0:00:03.10

Peak level 59.1 %
Track quality 100.0 %
Test CRC 865A73F3
Copy CRC 865A73F3
Copy OK

Track 19
Filename D:\FLAC\VA - Vintage Music Volumes 9 & 10 (1986) [FLAC] (MCA Steve Hoffman)\19 - Brian Hyland - Sealed With A Kiss.wav

Pre-gap length 0:00:02.53

Peak level 47.1 %
Track quality 100.0 %
Test CRC EB0E165E
Copy CRC EB0E165E
Copy OK

Track 20
Filename D:\FLAC\VA - Vintage Music Volumes 9 & 10 (1986) [FLAC] (MCA Steve Hoffman)\20 - The Cuff Links - Tracy.wav

Pre-gap length 0:00:03.02

Peak level 53.1 %
Track quality 100.0 %
Test CRC D3C86ACA
Copy CRC D3C86ACA
Copy OK

No errors occured


End of status report