Subcategories

Various Artists - Like, Wow - Wipeout!: Australian Pop Of The 80's Vol. 5 [2CD] (2014)

Posted By: BlondStyle
Various Artists - Like, Wow - Wipeout!: Australian Pop Of The 80's Vol. 5 [2CD] (2014)

Various Artists - Like, Wow - Wipeout!: Australian Pop Of The 80's Vol. 5 [2CD] (2014)
Pop, Pop/Rock, Soft Rock, Electronic | EAC Rip | FLAC, Tracks+CUE + LOG + Scans-600dpi (JPEG) | 77:35 + 75:29 Min | 1,18 Gb
Label: Sony Music Entertainment Australia Pty Ltd. (AU) | Released: 2014, July, 29
Various Artists - Like, Wow - Wipeout!: Australian Pop Of The 80's Vol. 5 [2CD] (2014)

Australian-only two CD set showcasing the best of Aussie Pop of the '80s. Features original hit versions. mastered from the best possible sources with many titles remastered from the original studio tapes for this release. a showcase of titles requested for this series. and often hard to come by - such as , (with her often overshadowed UK made ) and . The set also features classics from , , , , and and many others.

Various Artists - Like, Wow - Wipeout!: Australian Pop Of The 80's Vol. 5 [2CD] (2014)


Release of this 2CD Set: 2014, July, 29 [CD Sony Music Entertainment Australia Pty Ltd. (AU), Cat.# 88843053142 / EAN: 0888430531420]
This compilation © 2010 Sony Music Entertainment (Australia) Pty Ltd.
Distributed in Australia by Sony Music Entertainment Australia Pty Ltd.

Tracklist:

Disc One:

01. Hoodoo Gurus - Like, Wow - Wipeout!
02. Dragon - Dreams Of Ordinary Men
03. Big Pig - Breakaway
04. Sunnyboys - Happy Man
05. GANGgajang - Gimme Some Lovin'
06. Models - Let's Kiss
07. Wickety Wak - Moonlight Marvel
08. Chantoozies - Wanna Be Up
09. The Venetians - Bitter Tears
10. Men At Work - Everything I Need
11. Koo De Tah - Too Young For Promises
12. Indecent Obsession - Say Goodbye
13. Johnny Diesel & The Injectors - Don't Need Love
14. Jenny Morris - She Has To Be Loved
15. The Angels - Stand Up
16. Girl Overboard - I Can't Believe
17. The Saints - Just Like Fire Would
18. Mi - Sex - Down The Line (Making Love On The Telephone)
19. Little River Band - We Two
20. Painters & Dockers - Die Yuppie Die
21. James Freud And The Radio Stars - Modern Girl

Disc Two:

01. The Sports - How Come
02. Christie Allen - Baby Get Away
03. Rick Springfield - Affair Of The Heart
04. James Reyne - Fall Of Rome
05. Tim Finn - Fraction Too Much Friction
06. QED - Everywhere I Go
07. Machinations - No Say In It
08. Matt Finish - Short Note
09. Big Red - The Traveller
10. Psuedo Echo - Love An Adventure
11. Jimmy Barnes - Ride The Night Away
12. Jo Jo Zep & The Falcons - Taxi Mary
13. Choirboys - Boys Will Be Boys
14. Mondo Rock - No Time
15. The Church - Under The Milky Way
16. Peter Cupples - Fear Of Thunder
17. Mental As Anything - You're So Strong
18. Kids In The Kitchen - Bitter Desire
19. Goanna - Common Ground

Exact Audio Copy V1.0 beta 3 from 29. August 2011

EAC extraction logfile from 4. April 2015, 21:01

Various Artists / Australian Pop Of The 80's Vol 5 Like, Wow Wipeout Disc 1

Used drive : HL-DT-STDVDRAM GH24NS90 Adapter: 1 ID: 0

Read mode : Secure
Utilize accurate stream : Yes
Defeat audio cache : No
Make use of C2 pointers : Yes

Read offset correction : 6
Overread into Lead-In and Lead-Out : No
Fill up missing offset samples with silence : Yes
Delete leading and trailing silent blocks : No
Null samples used in CRC calculations : Yes
Used interface : Native Win32 interface for Win NT & 2000
Gap handling : Appended to previous track

Used output format : User Defined Encoder
Selected bitrate : 1024 kBit/s
Quality : High
Add ID3 tag : No
Command line compressor : C:\Program Files (x86)\FLAC\metaflac.exe
Additional command line options : -8


TOC of the extracted CD

Track | Start | Length | Start sector | End sector
––––––––––––––––––––––––––––-
1 | 0:00.00 | 3:13.19 | 0 | 14493
2 | 3:13.19 | 4:00.51 | 14494 | 32544
3 | 7:13.70 | 3:39.15 | 32545 | 48984
4 | 10:53.10 | 3:01.33 | 48985 | 62592
5 | 13:54.43 | 2:42.33 | 62593 | 74775
6 | 16:37.01 | 3:32.24 | 74776 | 90699
7 | 20:09.25 | 3:51.09 | 90700 | 108033
8 | 24:00.34 | 3:41.09 | 108034 | 124617
9 | 27:41.43 | 4:28.13 | 124618 | 144730
10 | 32:09.56 | 3:37.52 | 144731 | 161057
11 | 35:47.33 | 3:34.58 | 161058 | 177165
12 | 39:22.16 | 4:06.61 | 177166 | 195676
13 | 43:29.02 | 4:11.07 | 195677 | 214508
14 | 47:40.09 | 4:06.65 | 214509 | 233023
15 | 51:46.74 | 3:16.67 | 233024 | 247790
16 | 55:03.66 | 4:16.12 | 247791 | 267002
17 | 59:20.03 | 3:25.36 | 267003 | 282413
18 | 62:45.39 | 3:55.02 | 282414 | 300040
19 | 66:40.41 | 4:34.48 | 300041 | 320638
20 | 71:15.14 | 3:00.22 | 320639 | 334160
21 | 74:15.36 | 3:19.67 | 334161 | 349152


Track 1

Filename C:\Exact Audio Copy\01 Like, Wow Wipeout - Hoodoo Gurus.wav

Pre-gap length 0:00:02.00

Peak level 98.8 %
Extraction speed 3.9 X
Track quality 100.0 %
Test CRC CF425FE0
Copy CRC CF425FE0
Accurately ripped (confidence 1) [A8F9ACA8] (AR v2)
Copy OK

Track 2

Filename C:\Exact Audio Copy\02 Dreams Of Ordinary Men - Dragon.wav

Pre-gap length 0:00:01.68

Peak level 100.0 %
Extraction speed 4.6 X
Track quality 100.0 %
Test CRC C0126D12
Copy CRC C0126D12
Accurately ripped (confidence 1) [0F5F6EDB] (AR v2)
Copy OK

Track 3

Filename C:\Exact Audio Copy\03 Breakaway - Big Pig.wav

Pre-gap length 0:00:01.21

Peak level 100.0 %
Extraction speed 4.7 X
Track quality 100.0 %
Test CRC 9A327B62
Copy CRC 9A327B62
Accurately ripped (confidence 1) [505ECA52] (AR v2)
Copy OK

Track 4

Filename C:\Exact Audio Copy\04 Happy Man - Sunnyboys.wav

Pre-gap length 0:00:01.44

Peak level 100.0 %
Extraction speed 5.3 X
Track quality 100.0 %
Test CRC E52B7BB3
Copy CRC E52B7BB3
Accurately ripped (confidence 1) [89A7EFFA] (AR v2)
Copy OK

Track 5

Filename C:\Exact Audio Copy\05 Gimme Some Lovin' - GANGgajang.wav

Pre-gap length 0:00:01.72

Peak level 100.0 %
Extraction speed 5.2 X
Track quality 100.0 %
Test CRC 042C12F8
Copy CRC 042C12F8
Accurately ripped (confidence 1) [ADC56DFC] (AR v2)
Copy OK

Track 6

Filename C:\Exact Audio Copy\06 Let's Kiss - Models.wav

Pre-gap length 0:00:01.05

Peak level 100.0 %
Extraction speed 5.8 X
Track quality 100.0 %
Test CRC 81891195
Copy CRC 81891195
Accurately ripped (confidence 1) [4DCD8D64] (AR v2)
Copy OK

Track 7

Filename C:\Exact Audio Copy\07 Moonlight Marvel - Wickety Wak.wav

Pre-gap length 0:00:01.50

Peak level 100.0 %
Extraction speed 6.1 X
Track quality 100.0 %
Test CRC 072E971C
Copy CRC 072E971C
Accurately ripped (confidence 1) [B63E917E] (AR v2)
Copy OK

Track 8

Filename C:\Exact Audio Copy\08 Wanna Be Up - Chantoozies.wav

Pre-gap length 0:00:01.55

Peak level 99.7 %
Extraction speed 6.1 X
Track quality 100.0 %
Test CRC BAC13381
Copy CRC BAC13381
Accurately ripped (confidence 1) [AA7763C6] (AR v2)
Copy OK

Track 9

Filename C:\Exact Audio Copy\09 Bitter Tears - The Venetians.wav

Pre-gap length 0:00:01.58

Peak level 100.0 %
Extraction speed 6.4 X
Track quality 100.0 %
Test CRC 95B541B0
Copy CRC 95B541B0
Accurately ripped (confidence 1) [18B43121] (AR v2)
Copy OK

Track 10

Filename C:\Exact Audio Copy\10 Everything I Need - Men At Work.wav

Pre-gap length 0:00:01.62

Peak level 100.0 %
Extraction speed 6.9 X
Track quality 100.0 %
Test CRC CDE4E69A
Copy CRC CDE4E69A
Accurately ripped (confidence 1) [5EBDB4C0] (AR v2)
Copy OK

Track 11

Filename C:\Exact Audio Copy\11 Too Young For Promises - Koo De Tah.wav

Pre-gap length 0:00:01.60

Peak level 100.0 %
Extraction speed 6.8 X
Track quality 99.9 %
Test CRC 2D758FA4
Copy CRC 2D758FA4
Accurately ripped (confidence 1) [F2271748] (AR v2)
Copy OK

Track 12

Filename C:\Exact Audio Copy\12 Say Goodbye - Indecent Obsession.wav

Pre-gap length 0:00:01.53

Peak level 100.0 %
Extraction speed 7.1 X
Track quality 100.0 %
Test CRC 8AA45FD8
Copy CRC 8AA45FD8
Accurately ripped (confidence 1) [9C4A8ADD] (AR v2)
Copy OK

Track 13

Filename C:\Exact Audio Copy\13 Don't Need Love - Johnny Diesel & The Injectors.wav

Pre-gap length 0:00:01.52

Peak level 100.0 %
Extraction speed 7.3 X
Track quality 99.9 %
Test CRC 8B512A19
Copy CRC 8B512A19
Accurately ripped (confidence 1) [560B14E1] (AR v2)
Copy OK

Track 14

Filename C:\Exact Audio Copy\14 She Has To Be Loved - Jenny Morris.wav

Pre-gap length 0:00:01.70

Peak level 99.8 %
Extraction speed 7.5 X
Track quality 100.0 %
Test CRC 7FA99BBB
Copy CRC 7FA99BBB
Accurately ripped (confidence 1) [065CA175] (AR v2)
Copy OK

Track 15

Filename C:\Exact Audio Copy\15 Stand Up - The Angels.wav

Pre-gap length 0:00:01.70

Peak level 98.1 %
Extraction speed 7.7 X
Track quality 100.0 %
Test CRC 60A7CE21
Copy CRC 60A7CE21
Accurately ripped (confidence 1) [0145836A] (AR v2)
Copy OK

Track 16

Filename C:\Exact Audio Copy\16 I Can't Believe - Girl Overboard.wav

Pre-gap length 0:00:02.18

Peak level 100.0 %
Extraction speed 8.0 X
Track quality 100.0 %
Test CRC 03ED9FE9
Copy CRC 03ED9FE9
Accurately ripped (confidence 1) [10D4F89A] (AR v2)
Copy OK

Track 17

Filename C:\Exact Audio Copy\17 Just Like Fire Would - The Saints.wav

Pre-gap length 0:00:01.62

Peak level 100.0 %
Extraction speed 8.0 X
Track quality 100.0 %
Test CRC C7CBAA56
Copy CRC C7CBAA56
Accurately ripped (confidence 1) [E1494DD5] (AR v2)
Copy OK

Track 18

Filename C:\Exact Audio Copy\18 Down The Line (Making Love On The Telephone) - Mi-Sex.wav

Pre-gap length 0:00:01.59

Peak level 100.0 %
Extraction speed 8.4 X
Track quality 100.0 %
Test CRC CFC6A22F
Copy CRC CFC6A22F
Accurately ripped (confidence 1) [86154384] (AR v2)
Copy OK

Track 19

Filename C:\Exact Audio Copy\19 We Two - Little River Band.wav

Pre-gap length 0:00:01.58

Peak level 100.0 %
Extraction speed 8.6 X
Track quality 100.0 %
Test CRC 47C42CA3
Copy CRC 47C42CA3
Accurately ripped (confidence 1) [90364D4D] (AR v2)
Copy OK

Track 20

Filename C:\Exact Audio Copy\20 Die Yuppie Die - Painters & Dockers.wav

Pre-gap length 0:00:02.52

Peak level 100.0 %
Extraction speed 8.5 X
Track quality 100.0 %
Test CRC EB64828A
Copy CRC EB64828A
Accurately ripped (confidence 1) [04C46855] (AR v2)
Copy OK

Track 21

Filename C:\Exact Audio Copy\21 Modern Girl - James Freud & The Radio Stars.wav

Pre-gap length 0:00:01.16

Peak level 100.0 %
Extraction speed 9.3 X
Track quality 100.0 %
Test CRC 6D62CECF
Copy CRC 6D62CECF
Accurately ripped (confidence 2) [F5473F99] (AR v2)
Copy OK


All tracks accurately ripped

No errors occurred

End of status report

==== Log checksum A5B174A65893638138885D7203B091F894EBA5D7CB87FA85CA9B280E659AD3BD ====

Exact Audio Copy V1.0 beta 3 from 29. August 2011

EAC extraction logfile from 4. April 2015, 21:34

Various Artists / Australian Pop Of The 80's Vol 5 Like, Wow Wipeout Disc 2

Used drive : HL-DT-STDVDRAM GH24NS90 Adapter: 1 ID: 0

Read mode : Secure
Utilize accurate stream : Yes
Defeat audio cache : No
Make use of C2 pointers : Yes

Read offset correction : 6
Overread into Lead-In and Lead-Out : No
Fill up missing offset samples with silence : Yes
Delete leading and trailing silent blocks : No
Null samples used in CRC calculations : Yes
Used interface : Native Win32 interface for Win NT & 2000
Gap handling : Appended to previous track

Used output format : User Defined Encoder
Selected bitrate : 1024 kBit/s
Quality : High
Add ID3 tag : No
Command line compressor : C:\Program Files (x86)\FLAC\metaflac.exe
Additional command line options : -8


TOC of the extracted CD

Track | Start | Length | Start sector | End sector
––––––––––––––––––––––––––––-
1 | 0:00.00 | 3:12.69 | 0 | 14468
2 | 3:12.69 | 3:16.50 | 14469 | 29218
3 | 6:29.44 | 3:48.45 | 29219 | 46363
4 | 10:18.14 | 4:59.01 | 46364 | 68789
5 | 15:17.15 | 4:10.30 | 68790 | 87569
6 | 19:27.45 | 3:30.25 | 87570 | 103344
7 | 22:57.70 | 3:18.31 | 103345 | 118225
8 | 26:16.26 | 3:57.19 | 118226 | 136019
9 | 30:13.45 | 4:09.57 | 136020 | 154751
10 | 34:23.27 | 4:17.61 | 154752 | 174087
11 | 38:41.13 | 4:05.70 | 174088 | 192532
12 | 42:47.08 | 4:22.10 | 192533 | 212192
13 | 47:09.18 | 3:23.70 | 212193 | 227487
14 | 50:33.13 | 4:00.24 | 227488 | 245511
15 | 54:33.37 | 4:57.34 | 245512 | 267820
16 | 59:30.71 | 4:07.11 | 267821 | 286356
17 | 63:38.07 | 3:26.55 | 286357 | 301861
18 | 67:04.62 | 3:47.20 | 301862 | 318906
19 | 70:52.07 | 4:37.19 | 318907 | 339700


Track 1

Filename C:\Exact Audio Copy\01 How Come - The Sports.wav

Pre-gap length 0:00:02.00

Peak level 100.0 %
Extraction speed 4.0 X
Track quality 100.0 %
Test CRC A62B2084
Copy CRC A62B2084
Accurately ripped (confidence 1) [4C7CC644] (AR v2)
Copy OK

Track 2

Filename C:\Exact Audio Copy\02 Baby Get Away - Christie Allen.wav

Pre-gap length 0:00:01.63

Peak level 100.0 %
Extraction speed 4.6 X
Track quality 100.0 %
Test CRC 17E2BADD
Copy CRC 17E2BADD
Accurately ripped (confidence 1) [F8DEB1A1] (AR v2)
Copy OK

Track 3

Filename C:\Exact Audio Copy\03 Affair Of The Heart - Rick Springfield.wav

Pre-gap length 0:00:01.71

Peak level 100.0 %
Extraction speed 4.9 X
Track quality 100.0 %
Test CRC BE73ED2F
Copy CRC BE73ED2F
Accurately ripped (confidence 1) [3615598E] (AR v2)
Copy OK

Track 4

Filename C:\Exact Audio Copy\04 Fall Of Rome - James Reyne.wav

Pre-gap length 0:00:01.59

Peak level 100.0 %
Extraction speed 5.3 X
Track quality 100.0 %
Test CRC 00C32FBA
Copy CRC 00C32FBA
Accurately ripped (confidence 1) [8C7B3591] (AR v2)
Copy OK

Track 5

Filename C:\Exact Audio Copy\05 Fraction Too Much Friction - Tim Finn.wav

Pre-gap length 0:00:01.41

Peak level 100.0 %
Extraction speed 5.5 X
Track quality 100.0 %
Test CRC 1270EC64
Copy CRC 1270EC64
Accurately ripped (confidence 1) [011AA715] (AR v2)
Copy OK

Track 6

Filename C:\Exact Audio Copy\06 Everywhere I Go - QED.wav

Pre-gap length 0:00:01.15

Peak level 100.0 %
Extraction speed 5.7 X
Track quality 99.8 %
Test CRC 37434AF1
Copy CRC 37434AF1
Accurately ripped (confidence 1) [392DEEB6] (AR v2)
Copy OK

Track 7

Filename C:\Exact Audio Copy\07 No Say In It - Machinations.wav

Pre-gap length 0:00:01.55

Peak level 99.7 %
Extraction speed 6.0 X
Track quality 100.0 %
Test CRC FE61FB3D
Copy CRC FE61FB3D
Accurately ripped (confidence 1) [2B65D2E4] (AR v2)
Copy OK

Track 8

Filename C:\Exact Audio Copy\08 Short Note - Matt Finish.wav

Pre-gap length 0:00:01.62

Peak level 100.0 %
Extraction speed 6.3 X
Track quality 100.0 %
Test CRC 1B1ABB3B
Copy CRC 1B1ABB3B
Accurately ripped (confidence 1) [04F1B74D] (AR v2)
Copy OK

Track 9

Filename C:\Exact Audio Copy\09 The Traveller - Big Red.wav

Pre-gap length 0:00:01.15

Peak level 100.0 %
Extraction speed 6.5 X
Track quality 100.0 %
Test CRC 5F7E2A12
Copy CRC 5F7E2A12
Accurately ripped (confidence 1) [4CEA2745] (AR v2)
Copy OK

Track 10

Filename C:\Exact Audio Copy\10 Love An Adventure - Pseudo Echo.wav

Pre-gap length 0:00:01.63

Peak level 100.0 %
Extraction speed 6.8 X
Track quality 99.9 %
Test CRC F5F12874
Copy CRC F5F12874
Accurately ripped (confidence 1) [FE3CE33C] (AR v2)
Copy OK

Track 11

Filename C:\Exact Audio Copy\11 Ride The Night Away - Jimmy Barnes.wav

Pre-gap length 0:00:01.49

Peak level 96.3 %
Extraction speed 7.0 X
Track quality 100.0 %
Test CRC 21ADE88A
Copy CRC 21ADE88A
Accurately ripped (confidence 1) [40862C91] (AR v2)
Copy OK

Track 12

Filename C:\Exact Audio Copy\12 Taxi Mary - Jo Jo Zep & The Falcons.wav

Pre-gap length 0:00:01.71

Peak level 100.0 %
Extraction speed 7.3 X
Track quality 100.0 %
Test CRC 4CDC075C
Copy CRC 4CDC075C
Accurately ripped (confidence 1) [FA6C5A28] (AR v2)
Copy OK

Track 13

Filename C:\Exact Audio Copy\13 Boys Will Be Boys - Choirboys.wav

Pre-gap length 0:00:01.73

Peak level 100.0 %
Extraction speed 7.4 X
Track quality 99.8 %
Test CRC 50F4E792
Copy CRC 50F4E792
Accurately ripped (confidence 1) [939DEB7A] (AR v2)
Copy OK

Track 14

Filename C:\Exact Audio Copy\14 No Time - Mondo Rock.wav

Pre-gap length 0:00:01.14

Peak level 93.3 %
Extraction speed 8.1 X
Track quality 100.0 %
Test CRC 5DD2890D
Copy CRC 5DD2890D
Accurately ripped (confidence 1) [0598FDB8] (AR v2)
Copy OK

Track 15

Filename C:\Exact Audio Copy\15 Under The Milky Way - The Church.wav

Pre-gap length 0:00:02.29

Peak level 100.0 %
Extraction speed 8.3 X
Track quality 100.0 %
Test CRC AF8A56C9
Copy CRC AF8A56C9
Accurately ripped (confidence 1) [22715DBC] (AR v2)
Copy OK

Track 16

Filename C:\Exact Audio Copy\16 Fear Of Thunder - Peter Cupples.wav

Pre-gap length 0:00:01.43

Peak level 95.5 %
Extraction speed 8.3 X
Track quality 100.0 %
Test CRC CA47251C
Copy CRC CA47251C
Accurately ripped (confidence 1) [9F6927E2] (AR v2)
Copy OK

Track 17

Filename C:\Exact Audio Copy\17 You're So Strong - Mental As Anything.wav

Pre-gap length 0:00:01.67

Peak level 99.9 %
Extraction speed 8.3 X
Track quality 100.0 %
Test CRC 35D1FFF0
Copy CRC 35D1FFF0
Accurately ripped (confidence 1) [08E7255F] (AR v2)
Copy OK

Track 18

Filename C:\Exact Audio Copy\18 Bitter Desire - Kids In The Kitchen.wav

Pre-gap length 0:00:01.43

Peak level 100.0 %
Extraction speed 8.9 X
Track quality 100.0 %
Test CRC 559B24F2
Copy CRC 559B24F2
Accurately ripped (confidence 1) [A1E8F39F] (AR v2)
Copy OK

Track 19

Filename C:\Exact Audio Copy\19 Common Ground - Goanna.wav

Pre-gap length 0:00:01.47

Peak level 100.0 %
Extraction speed 8.7 X
Track quality 99.9 %
Test CRC 5C68A7DA
Copy CRC 5C68A7DA
Accurately ripped (confidence 2) [5AF7064F] (AR v2)
Copy OK


All tracks accurately ripped

No errors occurred

End of status report

==== Log checksum 6070ECF3BEB2749AE62D5870E72C77C117AA8CE2557E90FDE15902C582BA07D7 ====

foobar2000 1.3.7 / Dynamic Range Meter 1.1.1
log date: 2015-05-21 22:46:06

––––––––––––––––––––––––––––––––––––––––
Analyzed: Various Artists / Australian Pop Of The 80's Vol 5 Like, Wow Wipeout
––––––––––––––––––––––––––––––––––––––––

DR Peak RMS Duration Track
––––––––––––––––––––––––––––––––––––––––
DR6 -0.10 dB -6.90 dB 3:13 01-Hoodoo Gurus
DR12 0.00 dB -13.47 dB 4:01 02-Dragon
DR8 0.00 dB -9.15 dB 3:39 03-Big Pig
DR10 0.00 dB -11.86 dB 3:01 04-Sunnyboys
DR10 0.00 dB -12.12 dB 2:42 05-GANGgajang
DR9 0.00 dB -10.78 dB 3:32 06-Models
DR8 0.00 dB -9.55 dB 3:51 07-Wickety Wak
DR9 -0.02 dB -9.85 dB 3:41 08-Chantoozies
DR9 0.00 dB -11.09 dB 4:28 09-The Venetians
DR7 0.00 dB -8.76 dB 3:38 10-Men At Work
DR11 0.00 dB -12.32 dB 3:35 11-Koo De Tah
DR12 0.00 dB -13.68 dB 4:07 12-Indecent Obsession
DR7 0.00 dB -7.12 dB 4:11 13-Johnny Diesel & The Injectors
DR10 -0.01 dB -11.23 dB 4:07 14-Jenny Morris
DR5 -0.17 dB -6.66 dB 3:17 15-The Angels
DR11 0.00 dB -12.50 dB 4:16 16-Girl Overboard
DR10 0.00 dB -11.50 dB 3:25 17-The Saints
DR9 0.00 dB -11.29 dB 3:55 18-Mi-Sex
DR10 0.00 dB -11.84 dB 4:35 19-Little River Band
DR8 0.00 dB -9.29 dB 3:00 20-Painters & Dockers
DR9 0.00 dB -10.17 dB 3:20 21-James Freud & The Radio Stars
––––––––––––––––––––––––––––––––––––––––

Number of tracks: 21
Official DR value: DR9

Samplerate: 44100 Hz
Channels: 2
Bits per sample: 16
Bitrate: 1012 kbps
Codec: FLAC
================================================================================

foobar2000 1.3.7 / Dynamic Range Meter 1.1.1
log date: 2015-05-21 22:50:27

––––––––––––––––––––––––––––––––––––––––
Analyzed: Various Artists / Australian Pop Of The 80's Vol 5 Like, Wow Wipeout
––––––––––––––––––––––––––––––––––––––––

DR Peak RMS Duration Track
––––––––––––––––––––––––––––––––––––––––
DR8 0.00 dB -10.98 dB 3:13 01-The Sports
DR10 0.00 dB -11.57 dB 3:17 02-Christie Allen
DR6 0.00 dB -9.19 dB 3:49 03-Rick Springfield
DR6 0.00 dB -7.41 dB 4:59 04-James Reyne
DR8 0.00 dB -10.28 dB 4:10 05-Tim Finn
DR12 0.00 dB -14.06 dB 3:30 06-QED
DR11 -0.02 dB -12.79 dB 3:18 07-Machinations
DR13 0.00 dB -16.46 dB 3:57 08-Matt Finish
DR10 0.00 dB -11.36 dB 4:10 09-Big Red
DR9 0.00 dB -10.31 dB 4:18 10-Pseudo Echo
DR7 -0.33 dB -8.33 dB 4:06 11-Jimmy Barnes
DR10 0.00 dB -11.45 dB 4:22 12-Jo Jo Zep & The Falcons
DR10 0.00 dB -12.15 dB 3:24 13-Choirboys
DR7 -0.60 dB -9.29 dB 4:00 14-Mondo Rock
DR7 0.00 dB -8.64 dB 4:57 15-The Church
DR6 -0.40 dB -7.99 dB 4:07 16-Peter Cupples
DR7 -0.01 dB -8.20 dB 3:27 17-Mental As Anything
DR11 0.00 dB -12.97 dB 3:47 18-Kids In The Kitchen
DR7 0.00 dB -9.15 dB 4:37 19-Goanna
––––––––––––––––––––––––––––––––––––––––

Number of tracks: 19
Official DR value: DR9

Samplerate: 44100 Hz
Channels: 2
Bits per sample: 16
Bitrate: 1029 kbps
Codec: FLAC
================================================================================


All thanks are goes to - saintsmon


Nitroflare
Disc One / Disc Two / Artwork
password: BlondStyle

Uploadable
Disc One / Disc Two / Artwork