Various Artists - Erotic Lounge 9: Cool Desires (2010)

Posted By: jclane
Various Artists - Erotic Lounge 9: Cool Desires (2010)

Various Artists - Erotic Lounge 9: Cool Desires (2010)
EAC Rip | 3 CDs | FLAC Image + Cue + Log | 1.42 GB | Scans | 215.86 MB
MP3 CBR @320 kbps (LAME 3.98) | Joint Stereo | 531.48 MB
Label: Sony Music Entertainment Germany Gmbh | Catalog#: 88697 73653 2 | Genre: Chillout, Lounge
RAR 4% Recovery Record

Exclusive Chillout/Lounge compilation featuring 52 tracks from such artists as Lonnie Liston Smith, Pesheya, Sophie Zelmani, Kosmax, Daniel Ray Van Zyl, Unit Blue, DJ Sleeptalker, Anthony Island, Pete Dingon, Lazy Hammock & Zelonka, Brook Sapphire and more.

CD1: Soft & Lazy

1. Vargo - Precious Part One - 4:49
2. Merge Of Equals - Montgolfier - 4:33
3. Tontelas feat. Ski - On My Way - 5:00
4. From P60 feat. Virag - You Take Me - 5:09
5. Hyusfall - Rephlex - 5:02
6. Lonnie Liston Smith - Love Beams - 4:03
7. Marga Sol - Around Me - 3:34
8. The Unkempt - What Do You Want More - 4:32
9. Jens Buchert - Easy Heart - 4:15
10. Living Room - Deep Breath - 4:34
11. Bonobo feat. Andreya Trinana - The Keeper - 4:46
12. Jet Tricks - Essential Love - 3:17
13. Corporal Identity - Deep Dub - 2:40
14. Alien Cafe - Chloe Says… - 3:23
15. Lemongrass feat. Karen Gibson Roc - On The Edge Of Time - 4:45
16. Julienne - Sugar Daddy - 3:29
17. Pesheya - Feel It - 4:36
18. Ohm Guru feat. Vagina Hendrix - Once Again - 3:21
19. Sophie Zelmani- The Years - 2:54

Various Artists - Erotic Lounge 9: Cool Desires (2010)


Exact Audio Copy V1.0 beta 1 from 15. November 2010

EAC extraction logfile from 28. March 2011, 11:42

Various / Erotic Lounge 9 (Cool Desires) - CD1

Used drive : PLEXTOR BDDVDR PX-B320SA Adapter: 0 ID: 0

Read mode : Secure
Utilize accurate stream : Yes
Defeat audio cache : Yes
Make use of C2 pointers : No

Read offset correction : 6
Overread into Lead-In and Lead-Out : No
Fill up missing offset samples with silence : Yes
Delete leading and trailing silent blocks : No
Null samples used in CRC calculations : Yes
Used interface : Native Win32 interface for Win NT & 2000

Used output format : Internal WAV Routines
Sample format : 44.100 Hz; 16 Bit; Stereo


TOC of the extracted CD

Track | Start | Length | Start sector | End sector
––––––––––––––––––––––––––––-
1 | 0:00.00 | 4:49.05 | 0 | 21679
2 | 4:49.05 | 4:32.74 | 21680 | 42153
3 | 9:22.04 | 4:59.52 | 42154 | 64630
4 | 14:21.56 | 5:08.71 | 64631 | 87801
5 | 19:30.52 | 5:02.13 | 87802 | 110464
6 | 24:32.65 | 4:02.48 | 110465 | 128662
7 | 28:35.38 | 3:34.01 | 128663 | 144713
8 | 32:09.39 | 4:32.33 | 144714 | 165146
9 | 36:41.72 | 4:15.34 | 165147 | 184305
10 | 40:57.31 | 4:34.05 | 184306 | 204860
11 | 45:31.36 | 4:45.42 | 204861 | 226277
12 | 50:17.03 | 3:16.54 | 226278 | 241031
13 | 53:33.57 | 2:40.36 | 241032 | 253067
14 | 56:14.18 | 3:23.24 | 253068 | 268316
15 | 59:37.42 | 4:45.36 | 268317 | 289727
16 | 64:23.03 | 3:28.42 | 289728 | 305369
17 | 67:51.45 | 4:36.30 | 305370 | 326099
18 | 72:28.00 | 3:21.00 | 326100 | 341174
19 | 75:49.00 | 2:54.00 | 341175 | 354224


Range status and errors

Selected range

Filename E:\[_EAC_]\Erotic Lounge 9 (Cool Desires) 2010\Various - Erotic Lounge 9 (Cool Desires) - CD1.wav

Peak level 99.6 %
Extraction speed 0.2 X
Range quality 100.0 %
Test CRC 05AF3153
Copy CRC 05AF3153
Copy OK

No errors occurred


AccurateRip summary

Track 1 accurately ripped (confidence 2) [9FC72ADF]
Track 2 accurately ripped (confidence 2) [AF6CBBC4]
Track 3 accurately ripped (confidence 2) [88122CA8]
Track 4 accurately ripped (confidence 2) [31C710EC]
Track 5 accurately ripped (confidence 2) [81F53293]
Track 6 accurately ripped (confidence 2) [BBFC2CCE]
Track 7 accurately ripped (confidence 2) [461CCA81]
Track 8 accurately ripped (confidence 2) [86E5DC6F]
Track 9 accurately ripped (confidence 2) [7EC64D2B]
Track 10 accurately ripped (confidence 2) [EEA340E5]
Track 11 accurately ripped (confidence 2) [0E9A7596]
Track 12 accurately ripped (confidence 2) [11A853C6]
Track 13 accurately ripped (confidence 2) [3CF6D2DC]
Track 14 accurately ripped (confidence 2) [6FF08D80]
Track 15 accurately ripped (confidence 2) [75D7898B]
Track 16 accurately ripped (confidence 2) [3B079B5F]
Track 17 accurately ripped (confidence 2) [382A176E]
Track 18 accurately ripped (confidence 2) [4F43E712]
Track 19 accurately ripped (confidence 2) [971B66CB]

All tracks accurately ripped

End of status report



[CUETools log; Date: 11/4/2011 9:09:10 PM; Version: 2.1.2a]
[CTDB TOCID: d8E2rIfz.1E8rXVIGUSK_LcvALA-] found.
[ CTDBID ] Status
[bc05dee4] (6/6) Accurately ripped
[AccurateRip ID: 00395e64-03173070-14127313] found.
Track [ CRC ] Status
01 [9fc72adf] (4/6) Accurately ripped
02 [af6cbbc4] (4/6) Accurately ripped
03 [88122ca8] (4/6) Accurately ripped
04 [31c710ec] (4/6) Accurately ripped
05 [81f53293] (4/6) Accurately ripped
06 [bbfc2cce] (4/6) Accurately ripped
07 [461cca81] (4/6) Accurately ripped
08 [86e5dc6f] (4/6) Accurately ripped
09 [7ec64d2b] (4/6) Accurately ripped
10 [eea340e5] (4/6) Accurately ripped
11 [0e9a7596] (4/6) Accurately ripped
12 [11a853c6] (4/6) Accurately ripped
13 [3cf6d2dc] (4/6) Accurately ripped
14 [6ff08d80] (4/6) Accurately ripped
15 [75d7898b] (4/6) Accurately ripped
16 [3b079b5f] (4/6) Accurately ripped
17 [382a176e] (4/6) Accurately ripped
18 [4f43e712] (4/6) Accurately ripped
19 [971b66cb] (4/6) Accurately ripped
AccurateRip v2:
01 [0c8889b1] (2/6) Accurately ripped
02 [b8207629] (2/6) Accurately ripped
03 [0d36c98f] (2/6) Accurately ripped
04 [f0c939c3] (2/6) Accurately ripped
05 [7a93ef04] (2/6) Accurately ripped
06 [4bf30223] (2/6) Accurately ripped
07 [f4e8d861] (2/6) Accurately ripped
08 [88da544d] (2/6) Accurately ripped
09 [8c1fd8ff] (2/6) Accurately ripped
10 [a6bbf032] (2/6) Accurately ripped
11 [e1b473ae] (2/6) Accurately ripped
12 [57594fc8] (2/6) Accurately ripped
13 [e4832922] (2/6) Accurately ripped
14 [7d20d08a] (2/6) Accurately ripped
15 [3270f8e0] (2/6) Accurately ripped
16 [f77ef986] (2/6) Accurately ripped
17 [e664d230] (2/6) Accurately ripped
18 [1a27cd2f] (2/6) Accurately ripped
19 [f6c4a815] (2/6) Accurately ripped

Track Peak [ CRC32 ] [W/O NULL] [ LOG ]
– 99.6 [05AF3153] [A9963DEA] CRC32
01 97.8 [C7924B14] [74638B3D]
02 94.2 [4577812D] [73B31145]
03 98.9 [393BB151] [CE256641]
04 99.0 [A6DEBFDA] [572281D6]
05 99.0 [31BE55CC] [582C9E3F]
06 99.0 [A339DD5B] [61D970C5]
07 95.6 [1D35EEAE] [64100F0F]
08 99.0 [C043AD52] [B6CB9A52]
09 97.3 [2AEF6402] [490291EB]
10 99.0 [493C063F] [3468FD7B]
11 99.0 [1C0DC15B] [33D7DB20]
12 99.0 [E3FFB02A] [D19FB50E]
13 99.6 [DD3C682A] [96355FB6]
14 99.0 [F2492B4E] [3B91A7A6]
15 94.8 [D9032E84] [92339CF6]
16 88.6 [D056F9C9] [C91034AB]
17 76.7 [C99E37C7] [B832A8B8]
18 82.9 [A5562204] [DD0B08BE]
19 87.2 [74489922] [6B824DED]



–––––––––––-

DON'T MODIFY THIS FILE

–––––––––––-

PERFORMER: auCDtect Task Manager, ver. 1.5.1RC6 build 1.5.1.7
Copyright © 2008-2010 y-soft. All rights reserved
http://y-soft.org

ANALYZER: auCDtect: CD records authenticity detector, version 0.8.2
Copyright © 2004 Oleg Berngardt. All rights reserved.
Copyright © 2004 Alexander Djourik. All rights reserved.


FILE: Various - Erotic Lounge 9 (Cool Desires) - CD1.flac
Size: 510277285 Hash: D0ECB5F31C2FFC06535E8325567CAFF6 Accuracy: -m0
Conclusion: CDDA 99%
Signature: D110908E0E28EB5E4E6BCBFC619BABFD4BF50B3C



=============================================================


CD2: Quick & Dirty

1. Redlounge Orchestra - Ennophonic - 4:02
2. Air - Love - 2:39
3. Nux - Feel The Vibe - 5:26
4. Mirage Of Deep - Mon Amour De Paris (Lounge Version 2009) - 5:16
5. Glam Sam And His Combo - Give It To Me, Baby - 5:51
6. Kosmax - Jasmine - 4:03
7. Mr. Scruff - Music Takes Me Up - 5:26
8. Coldcut - Walk A Miles In My Shoes - 5:05
9. Synthpathic - Do You? - 4:47
10. Vish Knew Project - Is He? - 4:38
11. Daniel Ray Van Zyl - Lost Time - 6:08
12. Bloomfield - Love Me Please Love Me - 4:00
13. Sip And Pass - Morning - 5:03
14. Boozoo Bajou - YMA (Afterlife Mix) - 5:43
15. Unit Blue - Sunshine Lovers - 3:23
16. Blauw Associates - Fashion Victims (No. 4 Jazzride Mix) - 5:40

Various Artists - Erotic Lounge 9: Cool Desires (2010)


Exact Audio Copy V1.0 beta 1 from 15. November 2010

EAC extraction logfile from 28. March 2011, 12:37

Various / Erotic Lounge 9 (Cool Desires) - CD2

Used drive : PLEXTOR BDDVDR PX-B320SA Adapter: 0 ID: 0

Read mode : Secure
Utilize accurate stream : Yes
Defeat audio cache : Yes
Make use of C2 pointers : No

Read offset correction : 6
Overread into Lead-In and Lead-Out : No
Fill up missing offset samples with silence : Yes
Delete leading and trailing silent blocks : No
Null samples used in CRC calculations : Yes
Used interface : Native Win32 interface for Win NT & 2000

Used output format : Internal WAV Routines
Sample format : 44.100 Hz; 16 Bit; Stereo


TOC of the extracted CD

Track | Start | Length | Start sector | End sector
––––––––––––––––––––––––––––-
1 | 0:00.00 | 4:02.10 | 0 | 18159
2 | 4:02.10 | 2:39.07 | 18160 | 30091
3 | 6:41.17 | 5:26.23 | 30092 | 54564
4 | 12:07.40 | 5:16.10 | 54565 | 78274
5 | 17:23.50 | 5:51.12 | 78275 | 104611
6 | 23:14.62 | 4:03.25 | 104612 | 122861
7 | 27:18.12 | 5:26.24 | 122862 | 147335
8 | 32:44.36 | 5:04.60 | 147336 | 170195
9 | 37:49.21 | 4:47.03 | 170196 | 191723
10 | 42:36.24 | 4:38.32 | 191724 | 212605
11 | 47:14.56 | 6:07.47 | 212606 | 240177
12 | 53:22.28 | 3:59.43 | 240178 | 258145
13 | 57:21.71 | 5:02.58 | 258146 | 280853
14 | 62:24.54 | 5:42.54 | 280854 | 306557
15 | 68:07.33 | 3:23.03 | 306558 | 321785
16 | 71:30.36 | 5:39.41 | 321786 | 347251


Range status and errors

Selected range

Filename E:\[_EAC_]\Erotic Lounge 9 (Cool Desires) 2010\Various - Erotic Lounge 9 (Cool Desires) - CD2.wav

Peak level 99.0 %
Extraction speed 0.2 X
Range quality 100.0 %
Test CRC 2E0D2BC8
Copy CRC 2E0D2BC8
Copy OK

No errors occurred


AccurateRip summary

Track 1 accurately ripped (confidence 2) [E7BBC7DE]
Track 2 accurately ripped (confidence 2) [72DAA886]
Track 3 accurately ripped (confidence 2) [E0C50425]
Track 4 accurately ripped (confidence 2) [4D8FB368]
Track 5 accurately ripped (confidence 2) [0B161A24]
Track 6 accurately ripped (confidence 2) [00048CED]
Track 7 accurately ripped (confidence 2) [ED95C531]
Track 8 accurately ripped (confidence 2) [CB6B80C5]
Track 9 accurately ripped (confidence 2) [4451D841]
Track 10 accurately ripped (confidence 2) [10250AC3]
Track 11 accurately ripped (confidence 2) [A23FAD3F]
Track 12 accurately ripped (confidence 2) [5FE57E2C]
Track 13 accurately ripped (confidence 2) [160A1D6B]
Track 14 accurately ripped (confidence 2) [41291DCF]
Track 15 accurately ripped (confidence 2) [C2423AE6]
Track 16 accurately ripped (confidence 2) [FC4F0D1B]

All tracks accurately ripped

End of status report



[CUETools log; Date: 11/4/2011 8:47:14 PM; Version: 2.1.2a]
[CTDB TOCID: dWBpScHPR12NFVqS110DuPwpBqE-] found.
[ CTDBID ] Status
[42e63273] (6/6) Accurately ripped
[AccurateRip ID: 002c0652-021637d4-e7121610] found.
Track [ CRC ] Status
01 [e7bbc7de] (4/6) Accurately ripped
02 [72daa886] (4/6) Accurately ripped
03 [e0c50425] (4/6) Accurately ripped
04 [4d8fb368] (4/6) Accurately ripped
05 [0b161a24] (4/6) Accurately ripped
06 [00048ced] (4/6) Accurately ripped
07 [ed95c531] (4/6) Accurately ripped
08 [cb6b80c5] (4/6) Accurately ripped
09 [4451d841] (4/6) Accurately ripped
10 [10250ac3] (4/6) Accurately ripped
11 [a23fad3f] (4/6) Accurately ripped
12 [5fe57e2c] (4/6) Accurately ripped
13 [160a1d6b] (4/6) Accurately ripped
14 [41291dcf] (4/6) Accurately ripped
15 [c2423ae6] (4/6) Accurately ripped
16 [fc4f0d1b] (4/6) Accurately ripped
AccurateRip v2:
01 [783c9d54] (2/6) Accurately ripped
02 [7f66a9eb] (2/6) Accurately ripped
03 [feb8d658] (2/6) Accurately ripped
04 [dd3b494c] (2/6) Accurately ripped
05 [20a8df12] (2/6) Accurately ripped
06 [8142548c] (2/6) Accurately ripped
07 [56e3c12e] (2/6) Accurately ripped
08 [f592add4] (2/6) Accurately ripped
09 [87c8da83] (2/6) Accurately ripped
10 [e75ee97a] (2/6) Accurately ripped
11 [098d934b] (2/6) Accurately ripped
12 [ab227f1c] (2/6) Accurately ripped
13 [1d6ab7b7] (2/6) Accurately ripped
14 [92907414] (2/6) Accurately ripped
15 [d14257be] (2/6) Accurately ripped
16 [86703b4b] (2/6) Accurately ripped

Track Peak [ CRC32 ] [W/O NULL] [ LOG ]
– 99.0 [2E0D2BC8] [DC353B44] CRC32
01 82.9 [E248DE9C] [CF2344C1]
02 76.0 [BF72FAF3] [437BEFBA]
03 99.0 [70947D25] [34C24FFC]
04 99.0 [1E652ED5] [5C557274]
05 99.0 [830D9AC9] [08BE4F9C]
06 95.1 [D9947129] [B4CF31B7]
07 99.0 [50005BF9] [A83F8C86]
08 86.0 [94295A97] [FD3AAAFF]
09 99.0 [231A1953] [1947FD2F]
10 99.0 [64AE82A6] [B6E37700]
11 99.0 [1699B134] [9E730092]
12 95.7 [D8EFE026] [E71E8E08]
13 92.3 [CDFCAF42] [CCCE97B7]
14 99.0 [C54CEDE4] [564E1C28]
15 99.0 [0EFF3313] [73D7B458]
16 86.8 [AA7B84F0] [8F73AD92]



–––––––––––-

DON'T MODIFY THIS FILE

–––––––––––-

PERFORMER: auCDtect Task Manager, ver. 1.5.1RC6 build 1.5.1.7
Copyright © 2008-2010 y-soft. All rights reserved
http://y-soft.org

ANALYZER: auCDtect: CD records authenticity detector, version 0.8.2
Copyright © 2004 Oleg Berngardt. All rights reserved.
Copyright © 2004 Alexander Djourik. All rights reserved.


FILE: Various - Erotic Lounge 9 (Cool Desires) - CD2.flac
Size: 493184439 Hash: 953B1AEF7C3250D07547288BE249BEE9 Accuracy: -m0
Conclusion: CDDA 100%
Signature: 209CD3C24106367E4D7E9053F1FD5CC8497E6628



=============================================================


CD3: Tyranno Lounge Special

1. Steve Osaka - Among The Reed - 3:29
2. DJ Sleeptalker - Lounge Experiment (Erotic Lounge Mix) - 3:05
3. Triangle Sun - Diamond - 4:22
4. Setsuna - Beccy's Song - 4:05
5. Fudge X - On The Beach - 2:49
6. Mark Watson - Somewhere Else - 4:38
7. Anthony Island - Promets (Erotic Lounge Mix) - 3:01
8. Mazelo Nostra - Beach Hopper - 6:16
9. Pete Dingon - Erotic In The Air (Erotic Lounge Mix) - 3:29
10. Lazy Hammock & Zelonka - Come Together - 4:16
11. Brook Sapphire - Trust In Love (Erotic Lounge Mix) - 2:40
12. Rhodescreen - When The Night Is Over - 4:20
13. Gold Lounge - Spring Rain - 4:06
14. Velvet Lounge Project - Contigo (Original Mix) - 3:47
15. GXR - To The Lighthouse - 4:07
16. Night Cruzer - Timeless - 3:31
17. Twila.Too vs. Newton & Kroemer - El Pointille - 4:39

Various Artists - Erotic Lounge 9: Cool Desires (2010)


Exact Audio Copy V1.0 beta 1 from 15. November 2010

EAC extraction logfile from 28. March 2011, 13:31

Various / Erotic Lounge 9 (Cool Desires) - CD3

Used drive : PLEXTOR BDDVDR PX-B320SA Adapter: 0 ID: 0

Read mode : Secure
Utilize accurate stream : Yes
Defeat audio cache : Yes
Make use of C2 pointers : No

Read offset correction : 6
Overread into Lead-In and Lead-Out : No
Fill up missing offset samples with silence : Yes
Delete leading and trailing silent blocks : No
Null samples used in CRC calculations : Yes
Used interface : Native Win32 interface for Win NT & 2000

Used output format : Internal WAV Routines
Sample format : 44.100 Hz; 16 Bit; Stereo


TOC of the extracted CD

Track | Start | Length | Start sector | End sector
––––––––––––––––––––––––––––-
1 | 0:00.00 | 3:28.47 | 0 | 15646
2 | 3:28.47 | 3:04.40 | 15647 | 29486
3 | 6:33.12 | 4:22.37 | 29487 | 49173
4 | 10:55.49 | 4:04.69 | 49174 | 67542
5 | 15:00.43 | 2:49.26 | 67543 | 80243
6 | 17:49.69 | 4:38.20 | 80244 | 101113
7 | 22:28.14 | 3:00.49 | 101114 | 114662
8 | 25:28.63 | 6:15.48 | 114663 | 142835
9 | 31:44.36 | 3:28.52 | 142836 | 158487
10 | 35:13.13 | 4:15.63 | 158488 | 177675
11 | 39:29.01 | 2:40.02 | 177676 | 189677
12 | 42:09.03 | 4:19.45 | 189678 | 209147
13 | 46:28.48 | 4:05.39 | 209148 | 227561
14 | 50:34.12 | 3:47.26 | 227562 | 244612
15 | 54:21.38 | 4:06.66 | 244613 | 263128
16 | 58:28.29 | 3:31.06 | 263129 | 278959
17 | 61:59.35 | 4:39.18 | 278960 | 299902


Range status and errors

Selected range

Filename E:\[_EAC_]\Erotic Lounge 9 (Cool Desires) 2010\Various - Erotic Lounge 9 (Cool Desires) - CD3.wav

Peak level 99.0 %
Extraction speed 0.2 X
Range quality 99.9 %
Test CRC A884490F
Copy CRC A884490F
Copy OK

No errors occurred


AccurateRip summary

Track 1 accurately ripped (confidence 2) [FD9CB556]
Track 2 accurately ripped (confidence 2) [5082283F]
Track 3 accurately ripped (confidence 2) [081922AB]
Track 4 accurately ripped (confidence 2) [E0B27458]
Track 5 accurately ripped (confidence 2) [09725AFD]
Track 6 accurately ripped (confidence 2) [6FD73666]
Track 7 accurately ripped (confidence 2) [39FE9B25]
Track 8 accurately ripped (confidence 2) [D68B1606]
Track 9 accurately ripped (confidence 2) [44302D0A]
Track 10 accurately ripped (confidence 2) [740EF200]
Track 11 accurately ripped (confidence 2) [715ACE6B]
Track 12 accurately ripped (confidence 2) [AE668D51]
Track 13 accurately ripped (confidence 2) [075ED39E]
Track 14 accurately ripped (confidence 2) [E6959DF6]
Track 15 accurately ripped (confidence 2) [B46290D3]
Track 16 accurately ripped (confidence 2) [3C007134]
Track 17 accurately ripped (confidence 2) [388D2A1E]

All tracks accurately ripped

End of status report



[CUETools log; Date: 11/4/2011 9:13:52 PM; Version: 2.1.2a]
[CTDB TOCID: OAa0jQ1PYXBRZdaaNae29iKRq7I-] found.
[ CTDBID ] Status
[47a62e46] (6/6) Accurately ripped
[AccurateRip ID: 00286f09-020389de-c10f9e11] found.
Track [ CRC ] Status
01 [fd9cb556] (4/6) Accurately ripped
02 [5082283f] (4/6) Accurately ripped
03 [081922ab] (4/6) Accurately ripped
04 [e0b27458] (4/6) Accurately ripped
05 [09725afd] (4/6) Accurately ripped
06 [6fd73666] (4/6) Accurately ripped
07 [39fe9b25] (4/6) Accurately ripped
08 [d68b1606] (4/6) Accurately ripped
09 [44302d0a] (4/6) Accurately ripped
10 [740ef200] (4/6) Accurately ripped
11 [715ace6b] (4/6) Accurately ripped
12 [ae668d51] (4/6) Accurately ripped
13 [075ed39e] (4/6) Accurately ripped
14 [e6959df6] (4/6) Accurately ripped
15 [b46290d3] (4/6) Accurately ripped
16 [3c007134] (4/6) Accurately ripped
17 [388d2a1e] (4/6) Accurately ripped
AccurateRip v2:
01 [03479dbb] (2/6) Accurately ripped
02 [322ffd5d] (2/6) Accurately ripped
03 [8b40a34c] (2/6) Accurately ripped
04 [e4b38929] (2/6) Accurately ripped
05 [ebcc961d] (2/6) Accurately ripped
06 [f59e7a5d] (2/6) Accurately ripped
07 [8f9f2dfe] (2/6) Accurately ripped
08 [f865fad9] (2/6) Accurately ripped
09 [2109aa8e] (2/6) Accurately ripped
10 [639ecfac] (2/6) Accurately ripped
11 [2ef01d70] (2/6) Accurately ripped
12 [f7a8bc3a] (2/6) Accurately ripped
13 [682a7bf8] (2/6) Accurately ripped
14 [237631a1] (2/6) Accurately ripped
15 [a6560692] (2/6) Accurately ripped
16 [0b085151] (2/6) Accurately ripped
17 [519d4768] (2/6) Accurately ripped

Track Peak [ CRC32 ] [W/O NULL] [ LOG ]
– 99.0 [A884490F] [5DBB44BC] CRC32
01 89.2 [6E829B16] [5F71BA60]
02 99.0 [5B847DF0] [6BC6E0E5]
03 99.0 [2CD034AC] [C9E2C9B9]
04 90.5 [F3DAF218] [083B27BF]
05 98.9 [A233953C] [18CDE8CD]
06 98.9 [5970C9E4] [A0F51400]
07 94.5 [D4F73F46] [BD612770]
08 99.0 [AD2F9ECB] [4B550893]
09 99.0 [A9D4740C] [EF33AC08]
10 99.0 [EBEDBEBF] [2004EAAA]
11 99.0 [14DC48CF] [34D6D270]
12 99.0 [0B5C03ED] [CA4818DB]
13 99.0 [B371D99B] [1800F6B4]
14 99.0 [E6AE6D5D] [B1B84F3A]
15 79.7 [EB8A9758] [F45250C7]
16 99.0 [87B465AB] [0AA373C8]
17 89.2 [4D11C735] [7D577117]



–––––––––––-

DON'T MODIFY THIS FILE

–––––––––––-

PERFORMER: auCDtect Task Manager, ver. 1.5.1RC6 build 1.5.1.7
Copyright © 2008-2010 y-soft. All rights reserved
http://y-soft.org

ANALYZER: auCDtect: CD records authenticity detector, version 0.8.2
Copyright © 2004 Oleg Berngardt. All rights reserved.
Copyright © 2004 Alexander Djourik. All rights reserved.


FILE: Various - Erotic Lounge 9 (Cool Desires) - CD3.flac
Size: 456795892 Hash: 4F8CE36BF3F44085027A74B0A95427FB Accuracy: -m0
Conclusion: CDDA 99%
Signature: 407EA213F19F8A5211F9746BE79FFA5DAE928C55




Credits:

• DJ Mix – DJ Sleeptalker (tracks: 3-1 to 3-17)
• Design – Le Palmier Design
• Photography By – Jaspa Photography

Release Date: 29 Oct 2010
Format: 3 × CD, Compilation
Length: 03:42:31
Made in the EU

–––––––––––––––––––––––––––-


Many thanks to vladspb

The files are interchangeable!

No Mirrors Please!!!


Download