Subcategories

VA - The Specialty Story (Boxset) (1994)

Posted By: hemeling1
VA - The Specialty Story (Boxset) (1994)

VA - The Specialty Story (Boxset) (1994)
EAC Rip | FLAC(tracks) + Cue + Log | Full covers | 5 CDs | 965 MB (RAR 4% Rec.)
Rhythm & Blues | Label: Specialty | Catalog Number: 4412 | Hotfile/Fileserve

Label-owner Art Rupe was a savvy businessman who knew the black jukebox industry and what made it tick when he started his Specialty label in the late-'40s. This sumptuous five-disc box set contains a bevy of highlights from this seminal R&B/rock … Full Description& roll label. Over the years, Rupe recorded a little bit of everything; early big band jump (the Liggins brothers), down-home blues and zydeco (Guitar Slim, Frankie Lee Sims, Clifton Chenier), gospel (early Sam Cooke and the Soul Stirrers), and doo wop (the Pentagons, Jesse Belvin). But with the discovery of the label's biggest star, Little Richard, in 1955, here is where the real story of rock & roll begins. A box set that no lover of the real thing can be without
Tracklisting:

Disc: 1
1. Boogie #1 - The Sepia Tones
2. Voo-It! Voo-It! - The Blues Woman (Marion Abernathy)
3. Milton's Boogie - Roy Milton & His Solid Senders
4. R.M. Blues - Roy Milton & His Solid Senders
5. True Blues - Roy Milton & His Solid Senders
6. Thrill Me - Roy Milton & His Solid Senders
7. Keep A Dollar In Your Pocket - Roy Milton & His Solid Senders
8. Everything I Do Is Wrong - Roy Milton & His Solid Senders
9. Hop Skip Jump - Roy Milton & His Solid Senders
10. Information Blues - Roy Milton & His Solid Senders
11. The Hucklebuck - Roy Milton & His Solid Senders
12. Raint Day Blues - Jump Jackson Band
13. Ice Cream Freezer - The Blues Man (Roosevelt Sykes)
14. Rockin' Boogie - Joe Lutcher & His Society Cats
15. Teardrop Blues - Jimmy Liggins & His Drops Of Joy
16. Cadillac Boogie - Jimmy Liggins & His Drops Of Joy
17. Careful Love - Jimmy Liggins & His Drops Of Joy
18. Don't Put Me Down - Jimmy Liggins & His Drops Of Joy
19. X-Temporaneous Boogie - Camille Howard
20. You Don't Love Me - Camille Howard
21. Fiesta In Old Mexico - Camille Howard
22. Fat Meat - Jim Wynn
23. Big City Blues - Big Maceo
24. I Want A Roller - Smokey Hogg
25. The Honeydripper - Joe Liggins & His Honeydrippers
26. Rag Mop - Joe Liggins & His Honeydrippers

Exact Audio Copy V0.99 prebeta 4 from 23. January 2008

EAC extraction logfile from 20. May 2010, 20:18

Various / The Specialty Story (Disc 1)

Used drive : BENQ DVD DC DW1670 Adapter: 1 ID: 0

Read mode : Secure
Utilize accurate stream : Yes
Defeat audio cache : Yes
Make use of C2 pointers : No

Read offset correction : 102
Overread into Lead-In and Lead-Out : No
Fill up missing offset samples with silence : Yes
Delete leading and trailing silent blocks : No
Null samples used in CRC calculations : Yes
Used interface : Installed external ASPI interface
Gap handling : Appended to previous track

Used output format : User Defined Encoder
Selected bitrate : 256 kBit/s
Quality : High
Add ID3 tag : No
Command line compressor : C:\Program\FLAC\flac.exe
Additional command line options : -8 -V -T "ARTIST=%a" -T "TITLE=%t" -T "ALBUM=%g" -T "DATE=%y" -T "TRACKNUMBER=%n" -T "GENRE=%m" -T "COMMENT=EAC FLAC -8" %s


TOC of the extracted CD

Track | Start | Length | Start sector | End sector
––––––––––––––––––––––––––––-
1 | 0:00.00 | 2:48.65 | 0 | 12664
2 | 2:48.65 | 2:46.13 | 12665 | 25127
3 | 5:35.03 | 2:50.47 | 25128 | 37924
4 | 8:25.50 | 2:58.40 | 37925 | 51314
5 | 11:24.15 | 3:19.35 | 51315 | 66274
6 | 14:43.50 | 2:57.73 | 66275 | 79622
7 | 17:41.48 | 2:49.32 | 79623 | 92329
8 | 20:31.05 | 2:27.03 | 92330 | 103357
9 | 22:58.08 | 2:55.20 | 103358 | 116502
10 | 25:53.28 | 2:57.27 | 116503 | 129804
11 | 28:50.55 | 2:38.08 | 129805 | 141662
12 | 31:28.63 | 2:23.02 | 141663 | 152389
13 | 33:51.65 | 2:05.40 | 152390 | 161804
14 | 35:57.30 | 2:13.43 | 161805 | 171822
15 | 38:10.73 | 2:40.07 | 171823 | 183829
16 | 40:51.05 | 3:00.25 | 183830 | 197354
17 | 43:51.30 | 2:34.48 | 197355 | 208952
18 | 46:26.03 | 2:33.12 | 208953 | 220439
19 | 48:59.15 | 2:32.60 | 220440 | 231899
20 | 51:32.00 | 2:51.45 | 231900 | 244769
21 | 54:23.45 | 2:21.48 | 244770 | 255392
22 | 56:45.18 | 2:27.17 | 255393 | 266434
23 | 59:12.35 | 3:08.48 | 266435 | 280582
24 | 62:21.08 | 2:55.45 | 280583 | 293752
25 | 65:16.53 | 2:43.12 | 293753 | 305989
26 | 67:59.65 | 2:59.45 | 305990 | 319459


Track 1

Filename C:\Documents and Settings\ellroy\Skrivbord\VA - The Specialty Story (1994) [FLAC]\CD1\01 - The Sepia Tones - Boogie #1 .wav

Pre-gap length 0:00:02.00

Peak level 75.3 %
Track quality 100.0 %
Test CRC FD567F18
Copy CRC FD567F18
Track not present in AccurateRip database
Copy OK

Track 2

Filename C:\Documents and Settings\ellroy\Skrivbord\VA - The Specialty Story (1994) [FLAC]\CD1\02 - The Blues Woman (Marion Abernathy) - Voo-It! Voo-It! .wav

Pre-gap length 0:00:01.46

Peak level 91.7 %
Track quality 100.0 %
Test CRC 7B095625
Copy CRC 7B095625
Track not present in AccurateRip database
Copy OK

Track 3

Filename C:\Documents and Settings\ellroy\Skrivbord\VA - The Specialty Story (1994) [FLAC]\CD1\03 - Roy Milton And His Solid Senders - Milton's Boogie .wav

Pre-gap length 0:00:01.57

Peak level 79.0 %
Track quality 100.0 %
Test CRC 96A3B818
Copy CRC 96A3B818
Track not present in AccurateRip database
Copy OK

Track 4

Filename C:\Documents and Settings\ellroy\Skrivbord\VA - The Specialty Story (1994) [FLAC]\CD1\04 - Roy Milton And His Solid Senders - R.M. Blues .wav

Pre-gap length 0:00:02.09

Peak level 75.3 %
Track quality 100.0 %
Test CRC 2695728C
Copy CRC 2695728C
Track not present in AccurateRip database
Copy OK

Track 5

Filename C:\Documents and Settings\ellroy\Skrivbord\VA - The Specialty Story (1994) [FLAC]\CD1\05 - Jump Jackson Band - Rainy Day Blues .wav

Pre-gap length 0:00:01.86

Peak level 77.1 %
Track quality 100.0 %
Test CRC C9518B92
Copy CRC C9518B92
Track not present in AccurateRip database
Copy OK

Track 6

Filename C:\Documents and Settings\ellroy\Skrivbord\VA - The Specialty Story (1994) [FLAC]\CD1\06 - The Blues Man (Roosevelt Sykes) - Ice Cream Freezer .wav

Pre-gap length 0:00:01.82

Peak level 95.1 %
Track quality 99.9 %
Test CRC 1F3AB013
Copy CRC 1F3AB013
Track not present in AccurateRip database
Copy OK

Track 7

Filename C:\Documents and Settings\ellroy\Skrivbord\VA - The Specialty Story (1994) [FLAC]\CD1\07 - Roy Milton And His Solid Senders - True Blues .wav

Pre-gap length 0:00:01.10

Peak level 95.3 %
Track quality 100.0 %
Test CRC 001DF0A8
Copy CRC 001DF0A8
Track not present in AccurateRip database
Copy OK

Track 8

Filename C:\Documents and Settings\ellroy\Skrivbord\VA - The Specialty Story (1994) [FLAC]\CD1\08 - Joe Lutcher And His Society Cats - Rockin' Boogie .wav

Pre-gap length 0:00:02.02

Peak level 77.9 %
Track quality 100.0 %
Test CRC F6360CD7
Copy CRC F6360CD7
Track not present in AccurateRip database
Copy OK

Track 9

Filename C:\Documents and Settings\ellroy\Skrivbord\VA - The Specialty Story (1994) [FLAC]\CD1\09 - Roy Milton And His Solid Senders - Thrill Me .wav

Pre-gap length 0:00:01.66

Peak level 85.4 %
Track quality 100.0 %
Test CRC 10B368CE
Copy CRC 10B368CE
Track not present in AccurateRip database
Copy OK

Track 10

Filename C:\Documents and Settings\ellroy\Skrivbord\VA - The Specialty Story (1994) [FLAC]\CD1\10 - Jimmy Liggins And His Drops Of Joy - Teardrop Blues .wav

Pre-gap length 0:00:01.80

Peak level 84.1 %
Track quality 100.0 %
Test CRC B3B2AAFE
Copy CRC B3B2AAFE
Track not present in AccurateRip database
Copy OK

Track 11

Filename C:\Documents and Settings\ellroy\Skrivbord\VA - The Specialty Story (1994) [FLAC]\CD1\11 - Jimmy Liggins And His Drops Of Joy - Cadillac Boogie .wav

Pre-gap length 0:00:01.82

Peak level 81.8 %
Track quality 100.0 %
Test CRC 03817637
Copy CRC 03817637
Track not present in AccurateRip database
Copy OK

Track 12

Filename C:\Documents and Settings\ellroy\Skrivbord\VA - The Specialty Story (1994) [FLAC]\CD1\12 - Roy Milton And His Solid Senders - Keep A Dollar In Your Pocket .wav

Pre-gap length 0:00:02.00

Peak level 84.2 %
Track quality 100.0 %
Test CRC 0F297EAD
Copy CRC 0F297EAD
Track not present in AccurateRip database
Copy OK

Track 13

Filename C:\Documents and Settings\ellroy\Skrivbord\VA - The Specialty Story (1994) [FLAC]\CD1\13 - Camille Howard - X-Temporaneous Boogie .wav

Pre-gap length 0:00:02.13

Peak level 77.3 %
Track quality 99.9 %
Test CRC E2DF8A05
Copy CRC E2DF8A05
Track not present in AccurateRip database
Copy OK

Track 14

Filename C:\Documents and Settings\ellroy\Skrivbord\VA - The Specialty Story (1994) [FLAC]\CD1\14 - Camille Howard - You Don't Love Me .wav

Pre-gap length 0:00:01.62

Peak level 82.5 %
Track quality 100.0 %
Test CRC 55564F51
Copy CRC 55564F51
Track not present in AccurateRip database
Copy OK

Track 15

Filename C:\Documents and Settings\ellroy\Skrivbord\VA - The Specialty Story (1994) [FLAC]\CD1\15 - Jim Wynn - Fat Meat .wav

Pre-gap length 0:00:02.26

Peak level 66.6 %
Track quality 100.0 %
Test CRC 3CC83595
Copy CRC 3CC83595
Track not present in AccurateRip database
Copy OK

Track 16

Filename C:\Documents and Settings\ellroy\Skrivbord\VA - The Specialty Story (1994) [FLAC]\CD1\16 - Roy Milton And His Solid Senders - Everything I Do Is Wrong .wav

Pre-gap length 0:00:01.60

Peak level 79.4 %
Track quality 99.9 %
Test CRC A8F14236
Copy CRC A8F14236
Track not present in AccurateRip database
Copy OK

Track 17

Filename C:\Documents and Settings\ellroy\Skrivbord\VA - The Specialty Story (1994) [FLAC]\CD1\17 - Roy Milton And His Solid Senders - Hop, Skip, Jump .wav

Pre-gap length 0:00:02.20

Peak level 85.4 %
Track quality 100.0 %
Test CRC C366D7DE
Copy CRC C366D7DE
Track not present in AccurateRip database
Copy OK

Track 18

Filename C:\Documents and Settings\ellroy\Skrivbord\VA - The Specialty Story (1994) [FLAC]\CD1\18 - Jimmy Liggins And His Drops Of Joy - Careful Love .wav

Pre-gap length 0:00:01.90

Peak level 59.0 %
Track quality 100.0 %
Test CRC D5C3B86B
Copy CRC D5C3B86B
Track not present in AccurateRip database
Copy OK

Track 19

Filename C:\Documents and Settings\ellroy\Skrivbord\VA - The Specialty Story (1994) [FLAC]\CD1\19 - Big Maceo - Big City Blues .wav

Pre-gap length 0:00:02.06

Peak level 70.4 %
Track quality 100.0 %
Test CRC CAF37EA3
Copy CRC CAF37EA3
Track not present in AccurateRip database
Copy OK

Track 20

Filename C:\Documents and Settings\ellroy\Skrivbord\VA - The Specialty Story (1994) [FLAC]\CD1\20 - Smokey Hogg - I Want A Roller .wav

Pre-gap length 0:00:02.02

Peak level 54.2 %
Track quality 100.0 %
Test CRC 2E17D949
Copy CRC 2E17D949
Track not present in AccurateRip database
Copy OK

Track 21

Filename C:\Documents and Settings\ellroy\Skrivbord\VA - The Specialty Story (1994) [FLAC]\CD1\21 - Roy Milton And His Solid Senders - The Hucklebuck .wav

Pre-gap length 0:00:02.06

Peak level 67.4 %
Track quality 100.0 %
Test CRC CF42A1FC
Copy CRC CF42A1FC
Track not present in AccurateRip database
Copy OK

Track 22

Filename C:\Documents and Settings\ellroy\Skrivbord\VA - The Specialty Story (1994) [FLAC]\CD1\22 - Camille Howard - Fiesta In Old Mexico .wav

Pre-gap length 0:00:01.17

Peak level 59.4 %
Track quality 100.0 %
Test CRC 2E2EF7AF
Copy CRC 2E2EF7AF
Track not present in AccurateRip database
Copy OK

Track 23

Filename C:\Documents and Settings\ellroy\Skrivbord\VA - The Specialty Story (1994) [FLAC]\CD1\23 - Joe Liggins And His Honeydrippers - The Honeydripper .wav

Pre-gap length 0:00:01.16

Peak level 74.2 %
Track quality 99.9 %
Test CRC 362464A1
Copy CRC 362464A1
Track not present in AccurateRip database
Copy OK

Track 24

Filename C:\Documents and Settings\ellroy\Skrivbord\VA - The Specialty Story (1994) [FLAC]\CD1\24 - Jimmy Liggins And His Drops Of Joy - Don't Put Me Down .wav

Pre-gap length 0:00:01.60

Peak level 79.4 %
Track quality 100.0 %
Test CRC 4EAB3847
Copy CRC 4EAB3847
Track not present in AccurateRip database
Copy OK

Track 25

Filename C:\Documents and Settings\ellroy\Skrivbord\VA - The Specialty Story (1994) [FLAC]\CD1\25 - Roy Milton And His Solid Senders - Information Blues .wav

Pre-gap length 0:00:01.64

Peak level 98.3 %
Track quality 100.0 %
Test CRC E369A422
Copy CRC E369A422
Track not present in AccurateRip database
Copy OK

Track 26

Filename C:\Documents and Settings\ellroy\Skrivbord\VA - The Specialty Story (1994) [FLAC]\CD1\26 - Joe Liggins And His Honeydrippers - Rag Mop .wav

Pre-gap length 0:00:02.06

Peak level 76.4 %
Track quality 99.8 %
Test CRC CCB28D7C
Copy CRC CCB28D7C
Track not present in AccurateRip database
Copy OK


None of the tracks are present in the AccurateRip database

No errors occurred

End of status report


Disc: 2
1. Pink Champagne - Joe Liggins & His Honeydrippers
2. Junior Jives - Roy Milton & His Solid Senders
3. Where There Is No Love - Roy Milton & His Solid Senders
4. Everything's Gonna Be All Right Tonight - King Perry & His Pied Pipers
5. Please Send Me Someone To Love - Percy Mayfield
6. Strange Things Happening - Percy Mayfield
7. Little Joe's Boogie - Joe Liggins & His Honeydrippers
8. Oh Babe! - Roy Milton & His Solid Senders
9. Lost Love - Percy Mayfield
10. Frankie Lee - Joe Liggins & His Honeydrippers
11. What I Fool I Was - Percy Mayfield
12. Money Blues - Camille Howard
13. It's Later Than You Think - Roy Milton & His Solid Senders
14. T-Town Twist - Roy Milton & His Solid Senders
15. I Have New For You - Roy Milton & His Solid Senders
16. Prayin' For Your Return - Percy Mayfield
17. Strange Angel - Amos Easton (Bumble Bee Slim)
18. Best Wishes - Roy Milton & His Solid Senders
19. Cry Baby - Percy Mayfield
20. Love Will Make You A Slave - Lil Greenwood
21. I Can't Loose With The Stuff I Loose - Lester Williams
22. The Wheel Of Fortune - The Four Flames
23. The Big Question - Percy Mayfield
24. Lawdy Miss Clawdy - Lloyd Price
25. So Tired - Roy Milton & His Solid Senders
26. Night And Day (I Miss You So) - Roy Milton & His Solid Senders

Exact Audio Copy V0.99 prebeta 4 from 23. January 2008

EAC extraction logfile from 20. May 2010, 22:04

Various / The Specialty Story (Disc 2)

Used drive : BENQ DVD DC DW1670 Adapter: 1 ID: 0

Read mode : Secure
Utilize accurate stream : Yes
Defeat audio cache : Yes
Make use of C2 pointers : No

Read offset correction : 102
Overread into Lead-In and Lead-Out : No
Fill up missing offset samples with silence : Yes
Delete leading and trailing silent blocks : No
Null samples used in CRC calculations : Yes
Used interface : Installed external ASPI interface
Gap handling : Appended to previous track

Used output format : User Defined Encoder
Selected bitrate : 256 kBit/s
Quality : High
Add ID3 tag : No
Command line compressor : C:\Program\FLAC\flac.exe
Additional command line options : -8 -V -T "ARTIST=%a" -T "TITLE=%t" -T "ALBUM=%g" -T "DATE=%y" -T "TRACKNUMBER=%n" -T "GENRE=%m" -T "COMMENT=EAC FLAC -8" %s


TOC of the extracted CD

Track | Start | Length | Start sector | End sector
––––––––––––––––––––––––––––-
1 | 0:00.00 | 3:01.73 | 0 | 13647
2 | 3:01.73 | 2:37.15 | 13648 | 25437
3 | 5:39.13 | 2:49.55 | 25438 | 38167
4 | 8:28.68 | 2:25.72 | 38168 | 49114
5 | 10:54.65 | 2:54.15 | 49115 | 62179
6 | 13:49.05 | 2:50.05 | 62180 | 74934
7 | 16:39.10 | 2:51.15 | 74935 | 87774
8 | 19:30.25 | 2:30.53 | 87775 | 99077
9 | 22:01.03 | 2:56.25 | 99078 | 112302
10 | 24:57.28 | 2:53.30 | 112303 | 125307
11 | 27:50.58 | 2:47.35 | 125308 | 137867
12 | 30:38.18 | 2:30.32 | 137868 | 149149
13 | 33:08.50 | 2:39.70 | 149150 | 161144
14 | 35:48.45 | 2:48.73 | 161145 | 173817
15 | 38:37.43 | 2:31.25 | 173818 | 185167
16 | 41:08.68 | 2:57.15 | 185168 | 198457
17 | 44:06.08 | 2:39.45 | 198458 | 210427
18 | 46:45.53 | 2:42.15 | 210428 | 222592
19 | 49:27.68 | 2:51.37 | 222593 | 235454
20 | 52:19.30 | 3:30.03 | 235455 | 251207
21 | 55:49.33 | 2:12.25 | 251208 | 261132
22 | 58:01.58 | 2:39.60 | 261133 | 273117
23 | 60:41.43 | 2:52.00 | 273118 | 286017
24 | 63:33.43 | 2:30.10 | 286018 | 297277
25 | 66:03.53 | 3:12.35 | 297278 | 311712
26 | 69:16.13 | 3:01.12 | 311713 | 325299


Track 1

Filename C:\Documents and Settings\ellroy\Skrivbord\VA - The Specialty Story (1994) [FLAC]\CD2\01 - Joe Liggins & His Honeydrippers - Pink Champagne .wav

Pre-gap length 0:00:02.00

Peak level 95.4 %
Track quality 99.9 %
Test CRC 20AB402C
Copy CRC 20AB402C
Track not present in AccurateRip database
Copy OK

Track 2

Filename C:\Documents and Settings\ellroy\Skrivbord\VA - The Specialty Story (1994) [FLAC]\CD2\02 - Roy Milton & His Solid Senders - Junior Jives .wav

Pre-gap length 0:00:01.97

Peak level 90.9 %
Track quality 100.0 %
Test CRC 19CD0691
Copy CRC 19CD0691
Track not present in AccurateRip database
Copy OK

Track 3

Filename C:\Documents and Settings\ellroy\Skrivbord\VA - The Specialty Story (1994) [FLAC]\CD2\03 - Roy Milton And His Solid Senders - Where There Is No Love .wav

Pre-gap length 0:00:01.66

Peak level 83.3 %
Track quality 100.0 %
Test CRC 65B00F43
Copy CRC 65B00F43
Track not present in AccurateRip database
Copy OK

Track 4

Filename C:\Documents and Settings\ellroy\Skrivbord\VA - The Specialty Story (1994) [FLAC]\CD2\04 - King Perry & His Pied Pipers - Everything's Gonna Be Allright Tonight .wav

Pre-gap length 0:00:02.10

Peak level 95.6 %
Track quality 100.0 %
Test CRC BDC23E94
Copy CRC BDC23E94
Track not present in AccurateRip database
Copy OK

Track 5

Filename C:\Documents and Settings\ellroy\Skrivbord\VA - The Specialty Story (1994) [FLAC]\CD2\05 - Percy Mayfield - Please Send Me Someone To Love .wav

Pre-gap length 0:00:01.76

Peak level 91.6 %
Track quality 100.0 %
Test CRC 086951F9
Copy CRC 086951F9
Track not present in AccurateRip database
Copy OK

Track 6

Filename C:\Documents and Settings\ellroy\Skrivbord\VA - The Specialty Story (1994) [FLAC]\CD2\06 - Percy Mayfield - Strange Things Happening .wav

Pre-gap length 0:00:01.76

Peak level 97.1 %
Track quality 100.0 %
Test CRC 802018E8
Copy CRC 802018E8
Track not present in AccurateRip database
Copy OK

Track 7

Filename C:\Documents and Settings\ellroy\Skrivbord\VA - The Specialty Story (1994) [FLAC]\CD2\07 - Joe Liggins & His Honeydrippers - Little Joe's Boogie .wav

Pre-gap length 0:00:02.42

Peak level 90.5 %
Track quality 100.0 %
Test CRC C6D4F53A
Copy CRC C6D4F53A
Track not present in AccurateRip database
Copy OK

Track 8

Filename C:\Documents and Settings\ellroy\Skrivbord\VA - The Specialty Story (1994) [FLAC]\CD2\08 - Roy Milton And His Solid Senders - Oh Babe! .wav

Pre-gap length 0:00:01.69

Peak level 92.0 %
Track quality 100.0 %
Test CRC 8D74D7EB
Copy CRC 8D74D7EB
Track not present in AccurateRip database
Copy OK

Track 9

Filename C:\Documents and Settings\ellroy\Skrivbord\VA - The Specialty Story (1994) [FLAC]\CD2\09 - Percy Mayfield - Lost Love .wav

Pre-gap length 0:00:02.10

Peak level 93.3 %
Track quality 99.9 %
Test CRC 25E278DD
Copy CRC 25E278DD
Track not present in AccurateRip database
Copy OK

Track 10

Filename C:\Documents and Settings\ellroy\Skrivbord\VA - The Specialty Story (1994) [FLAC]\CD2\10 - Joe Liggins & His Honeydrippers - Frankie Lee .wav

Pre-gap length 0:00:02.06

Peak level 97.1 %
Track quality 100.0 %
Test CRC 290AD0B3
Copy CRC 290AD0B3
Track not present in AccurateRip database
Copy OK

Track 11

Filename C:\Documents and Settings\ellroy\Skrivbord\VA - The Specialty Story (1994) [FLAC]\CD2\11 - Percy Mayfield - What A Fool I Was .wav

Pre-gap length 0:00:01.44

Peak level 88.4 %
Track quality 100.0 %
Test CRC 0BB6219E
Copy CRC 0BB6219E
Track not present in AccurateRip database
Copy OK

Track 12

Filename C:\Documents and Settings\ellroy\Skrivbord\VA - The Specialty Story (1994) [FLAC]\CD2\12 - Camille Howard - Money Blues .wav

Pre-gap length 0:00:02.10

Peak level 90.2 %
Track quality 99.9 %
Test CRC FF450FC2
Copy CRC FF450FC2
Track not present in AccurateRip database
Copy OK

Track 13

Filename C:\Documents and Settings\ellroy\Skrivbord\VA - The Specialty Story (1994) [FLAC]\CD2\13 - Roy Milton And His Solid Senders - It's Later Than You Think .wav

Pre-gap length 0:00:01.73

Peak level 100.0 %
Track quality 100.0 %
Test CRC 17157498
Copy CRC 17157498
Track not present in AccurateRip database
Copy OK

Track 14

Filename C:\Documents and Settings\ellroy\Skrivbord\VA - The Specialty Story (1994) [FLAC]\CD2\14 - Roy Milton And His Solid Senders - T-Town Twist .wav

Pre-gap length 0:00:01.62

Peak level 100.0 %
Track quality 100.0 %
Test CRC 1B915AA4
Copy CRC 1B915AA4
Track not present in AccurateRip database
Copy OK

Track 15

Filename C:\Documents and Settings\ellroy\Skrivbord\VA - The Specialty Story (1994) [FLAC]\CD2\15 - Roy Milton And His Solid Senders - I Have News For You .wav

Pre-gap length 0:00:02.26

Peak level 77.4 %
Track quality 100.0 %
Test CRC 630EF4D4
Copy CRC 630EF4D4
Track not present in AccurateRip database
Copy OK

Track 16

Filename C:\Documents and Settings\ellroy\Skrivbord\VA - The Specialty Story (1994) [FLAC]\CD2\16 - Percy Mayfield - Prayin' For Your Return .wav

Pre-gap length 0:00:02.00

Peak level 100.0 %
Track quality 100.0 %
Test CRC CC756CE4
Copy CRC CC756CE4
Track not present in AccurateRip database
Copy OK

Track 17

Filename C:\Documents and Settings\ellroy\Skrivbord\VA - The Specialty Story (1994) [FLAC]\CD2\17 - Amos Easton (Bumble Bee Slim) - Strange Angel .wav

Pre-gap length 0:00:02.13

Peak level 78.9 %
Track quality 100.0 %
Test CRC 3A845D86
Copy CRC 3A845D86
Track not present in AccurateRip database
Copy OK

Track 18

Filename C:\Documents and Settings\ellroy\Skrivbord\VA - The Specialty Story (1994) [FLAC]\CD2\18 - Roy Milton And His Solid Senders - Best Wishes .wav

Pre-gap length 0:00:02.30

Peak level 96.6 %
Track quality 100.0 %
Test CRC 3690122B
Copy CRC 3690122B
Track not present in AccurateRip database
Copy OK

Track 19

Filename C:\Documents and Settings\ellroy\Skrivbord\VA - The Specialty Story (1994) [FLAC]\CD2\19 - Percy Mayfield - Cry Baby .wav

Pre-gap length 0:00:01.50

Peak level 96.2 %
Track quality 100.0 %
Test CRC 394E1456
Copy CRC 394E1456
Track not present in AccurateRip database
Copy OK

Track 20

Filename C:\Documents and Settings\ellroy\Skrivbord\VA - The Specialty Story (1994) [FLAC]\CD2\20 - Lil Greenwood - Love Will Make You A Slave .wav

Pre-gap length 0:00:02.82

Peak level 79.8 %
Track quality 100.0 %
Test CRC A2EB13C0
Copy CRC A2EB13C0
Track not present in AccurateRip database
Copy OK

Track 21

Filename C:\Documents and Settings\ellroy\Skrivbord\VA - The Specialty Story (1994) [FLAC]\CD2\21 - Lester Williams - I Can't Lose With The Stuff I Use .wav

Pre-gap length 0:00:01.33

Peak level 100.0 %
Track quality 99.9 %
Test CRC 4C7A760A
Copy CRC 4C7A760A
Track not present in AccurateRip database
Copy OK

Track 22

Filename C:\Documents and Settings\ellroy\Skrivbord\VA - The Specialty Story (1994) [FLAC]\CD2\22 - The Four Flames - Wheel Of Fortune .wav

Pre-gap length 0:00:01.26

Peak level 63.7 %
Track quality 99.8 %
Test CRC 8ECB468C
Copy CRC 8ECB468C
Track not present in AccurateRip database
Copy OK

Track 23

Filename C:\Documents and Settings\ellroy\Skrivbord\VA - The Specialty Story (1994) [FLAC]\CD2\23 - Percy Mayfield - The Big Question .wav

Pre-gap length 0:00:01.93

Peak level 89.9 %
Track quality 99.9 %
Test CRC FFF833B3
Copy CRC FFF833B3
Track not present in AccurateRip database
Copy OK

Track 24

Filename C:\Documents and Settings\ellroy\Skrivbord\VA - The Specialty Story (1994) [FLAC]\CD2\24 - Lloyd Price - Lawdy Miss Clawdy .wav

Pre-gap length 0:00:02.84

Peak level 100.0 %
Track quality 99.6 %
Test CRC 1F7E8AF6
Copy CRC 1F7E8AF6
Track not present in AccurateRip database
Copy OK

Track 25

Filename C:\Documents and Settings\ellroy\Skrivbord\VA - The Specialty Story (1994) [FLAC]\CD2\25 - Roy Milton And His Solid Senders - So Tired .wav

Pre-gap length 0:00:02.10

Peak level 69.7 %
Track quality 99.8 %
Test CRC 5B1C6272
Copy CRC 5B1C6272
Track not present in AccurateRip database
Copy OK

Track 26

Filename C:\Documents and Settings\ellroy\Skrivbord\VA - The Specialty Story (1994) [FLAC]\CD2\26 - Roy Milton And His Solid Senders - Night And Day (I Miss You So) .wav

Pre-gap length 0:00:01.90

Peak level 98.7 %
Track quality 99.7 %
Test CRC 45143A66
Copy CRC 45143A66
Track not present in AccurateRip database
Copy OK


None of the tracks are present in the AccurateRip database

No errors occurred

End of status report


Disc: 3
1. Oooh Oooh Oooh - Lloyd Price
2. Restless Heart - Lloyd Price
3. Dream Girl - Jesse & Marvin
4. Tell Me Pretty Baby - Lloyd Price
5. Ain't It A Shame? - Lloyd Price
6. Frantic - Frank Motley & His Crew
7. Too Close To Heaven - Alex Bradford
8. I'm Coming Home - The Swan Silvertones
9. I've Got A New Home - The Pilgrim Travelers
10. One Room Country Shack - Mercy Dee Walton
11. Lucy Mae Blues - Frankie Lee Sims
12. Early In The Morning - Roy Milton & His Solid Senders
13. She's Been Gone - H-Bomb Ferguson
14. Hard Living Alone - Floyd Dixon
15. Drunk - Jimmy Liggins & His 3-D Music
16. I Ate The Wrong Part - Little Temple & His 88
17. Blood Stains On The Wall - Honey Boy
18. Baby Doll - Marvin & Johnny
19. The Things That I Used To Do - Guitar Slim
20. I'm Your Best Bet Baby - Earl King
21. No Room In The Hotel - The Chosen Gospel Singers feat. Lou Rawls
22. I'm Mad - John Lee Hooker
23. Something's Going On In My Room - Daddy Cleanhead
24. Zindy Lou - The Chimes
25. One More River - The Soul Stirrers feat. Sam Cooke
26. Where's My Girl - Jesse Belvin

Exact Audio Copy V0.99 prebeta 4 from 23. January 2008

EAC extraction logfile from 21. May 2010, 18:24

Various / The Specialty Story (Disc 3)

Used drive : BENQ DVD DC DW1670 Adapter: 1 ID: 0

Read mode : Secure
Utilize accurate stream : Yes
Defeat audio cache : Yes
Make use of C2 pointers : No

Read offset correction : 102
Overread into Lead-In and Lead-Out : No
Fill up missing offset samples with silence : Yes
Delete leading and trailing silent blocks : No
Null samples used in CRC calculations : Yes
Used interface : Installed external ASPI interface
Gap handling : Appended to previous track

Used output format : User Defined Encoder
Selected bitrate : 256 kBit/s
Quality : High
Add ID3 tag : No
Command line compressor : C:\Program\FLAC\flac.exe
Additional command line options : -8 -V -T "ARTIST=%a" -T "TITLE=%t" -T "ALBUM=%g" -T "DATE=%y" -T "TRACKNUMBER=%n" -T "GENRE=%m" -T "COMMENT=EAC FLAC -8" %s


TOC of the extracted CD

Track | Start | Length | Start sector | End sector
––––––––––––––––––––––––––––-
1 | 0:00.00 | 2:38.28 | 0 | 11877
2 | 2:38.28 | 2:35.60 | 11878 | 23562
3 | 5:14.13 | 3:13.05 | 23563 | 38042
4 | 8:27.18 | 2:17.25 | 38043 | 48342
5 | 10:44.43 | 2:42.22 | 48343 | 60514
6 | 13:26.65 | 2:41.25 | 60515 | 72614
7 | 16:08.15 | 3:02.68 | 72615 | 86332
8 | 19:11.08 | 3:02.17 | 86333 | 99999
9 | 22:13.25 | 2:29.48 | 100000 | 111222
10 | 24:42.73 | 2:49.62 | 111223 | 123959
11 | 27:32.60 | 2:32.33 | 123960 | 135392
12 | 30:05.18 | 2:41.12 | 135393 | 147479
13 | 32:46.30 | 2:24.48 | 147480 | 158327
14 | 35:11.03 | 3:04.57 | 158328 | 172184
15 | 38:15.60 | 2:32.53 | 172185 | 183637
16 | 40:48.38 | 1:56.37 | 183638 | 192374
17 | 42:45.00 | 2:58.70 | 192375 | 205794
18 | 45:43.70 | 2:23.00 | 205795 | 216519
19 | 48:06.70 | 3:02.10 | 216520 | 230179
20 | 51:09.05 | 2:20.70 | 230180 | 240749
21 | 53:30.00 | 2:22.13 | 240750 | 251412
22 | 55:52.13 | 2:47.02 | 251413 | 263939
23 | 58:39.15 | 2:13.28 | 263940 | 273942
24 | 60:52.43 | 3:10.07 | 273943 | 288199
25 | 64:02.50 | 3:12.48 | 288200 | 302647
26 | 67:15.23 | 2:17.70 | 302648 | 312992


Track 1

Filename C:\Documents and Settings\ellroy\Skrivbord\VA - The Specialty Story (1994) [FLAC]\CD3\01 - Lloyd Price - Oooh Oooh Oooh .wav

Pre-gap length 0:00:02.00

Peak level 71.6 %
Track quality 99.9 %
Test CRC B78AAF8E
Copy CRC B78AAF8E
Track not present in AccurateRip database
Copy OK

Track 2

Filename C:\Documents and Settings\ellroy\Skrivbord\VA - The Specialty Story (1994) [FLAC]\CD3\02 - Lloyd Price - Restless Heart .wav

Pre-gap length 0:00:01.46

Peak level 91.0 %
Track quality 100.0 %
Test CRC 9B628AB9
Copy CRC 9B628AB9
Track not present in AccurateRip database
Copy OK

Track 3

Filename C:\Documents and Settings\ellroy\Skrivbord\VA - The Specialty Story (1994) [FLAC]\CD3\03 - Jesse & Marvin - Dream Girl .wav

Pre-gap length 0:00:01.24

Peak level 67.5 %
Track quality 100.0 %
Test CRC BFF2B42D
Copy CRC BFF2B42D
Track not present in AccurateRip database
Copy OK

Track 4

Filename C:\Documents and Settings\ellroy\Skrivbord\VA - The Specialty Story (1994) [FLAC]\CD3\04 - Lloyd Price - Tell Me Pretty Baby .wav

Pre-gap length 0:00:01.06

Peak level 95.0 %
Track quality 100.0 %
Test CRC AA8280EF
Copy CRC AA8280EF
Track not present in AccurateRip database
Copy OK

Track 5

Filename C:\Documents and Settings\ellroy\Skrivbord\VA - The Specialty Story (1994) [FLAC]\CD3\05 - Lloyd Price - Ain't It A Shame .wav

Pre-gap length 0:00:00.93

Peak level 91.1 %
Track quality 100.0 %
Test CRC 056F5150
Copy CRC 056F5150
Track not present in AccurateRip database
Copy OK

Track 6

Filename C:\Documents and Settings\ellroy\Skrivbord\VA - The Specialty Story (1994) [FLAC]\CD3\06 - Frank Motley & His Crew - Frantic .wav

Pre-gap length 0:00:00.76

Peak level 94.2 %
Track quality 100.0 %
Test CRC 2FBF90EE
Copy CRC 2FBF90EE
Track not present in AccurateRip database
Copy OK

Track 7

Filename C:\Documents and Settings\ellroy\Skrivbord\VA - The Specialty Story (1994) [FLAC]\CD3\07 - Alex Bradford - Too Close To Heaven .wav

Pre-gap length 0:00:01.66

Peak level 93.4 %
Track quality 100.0 %
Test CRC A44EE1E6
Copy CRC A44EE1E6
Track not present in AccurateRip database
Copy OK

Track 8

Filename C:\Documents and Settings\ellroy\Skrivbord\VA - The Specialty Story (1994) [FLAC]\CD3\08 - The Swan Silvertones - I'm Coming Home .wav

Pre-gap length 0:00:01.17

Peak level 62.1 %
Track quality 100.0 %
Test CRC A2E5B681
Copy CRC A2E5B681
Track not present in AccurateRip database
Copy OK

Track 9

Filename C:\Documents and Settings\ellroy\Skrivbord\VA - The Specialty Story (1994) [FLAC]\CD3\09 - The Pilgram Travelers - I've Got A New Home .wav

Pre-gap length 0:00:01.82

Peak level 66.8 %
Track quality 100.0 %
Test CRC 4FCCBB60
Copy CRC 4FCCBB60
Track not present in AccurateRip database
Copy OK

Track 10

Filename C:\Documents and Settings\ellroy\Skrivbord\VA - The Specialty Story (1994) [FLAC]\CD3\10 - Mercy Dee Walton - One Room Country Shack .wav

Pre-gap length 0:00:01.30

Peak level 44.2 %
Track quality 100.0 %
Test CRC 47E3C52D
Copy CRC 47E3C52D
Track not present in AccurateRip database
Copy OK

Track 11

Filename C:\Documents and Settings\ellroy\Skrivbord\VA - The Specialty Story (1994) [FLAC]\CD3\11 - Frankie Lee Sims - Lucy Mae Blues .wav

Pre-gap length 0:00:00.42

Peak level 66.6 %
Track quality 99.9 %
Test CRC E0A6A07A
Copy CRC E0A6A07A
Track not present in AccurateRip database
Copy OK

Track 12

Filename C:\Documents and Settings\ellroy\Skrivbord\VA - The Specialty Story (1994) [FLAC]\CD3\12 - Roy Milton & His Solid Senders - Early In The Morning .wav

Pre-gap length 0:00:01.04

Peak level 92.7 %
Track quality 100.0 %
Test CRC CC32BF62
Copy CRC CC32BF62
Track not present in AccurateRip database
Copy OK

Track 13

Filename C:\Documents and Settings\ellroy\Skrivbord\VA - The Specialty Story (1994) [FLAC]\CD3\13 - H-Bomb Ferguson - She's Been Gone .wav

Pre-gap length 0:00:02.62

Peak level 66.6 %
Track quality 100.0 %
Test CRC 823C8669
Copy CRC 823C8669
Track not present in AccurateRip database
Copy OK

Track 14

Filename C:\Documents and Settings\ellroy\Skrivbord\VA - The Specialty Story (1994) [FLAC]\CD3\14 - Floyd Dixon - Hard Living Alone .wav

Pre-gap length 0:00:01.13

Peak level 78.5 %
Track quality 100.0 %
Test CRC D21E5865
Copy CRC D21E5865
Track not present in AccurateRip database
Copy OK

Track 15

Filename C:\Documents and Settings\ellroy\Skrivbord\VA - The Specialty Story (1994) [FLAC]\CD3\15 - Jimmy Liggins & His 3-D Music - Drunk .wav

Pre-gap length 0:00:02.33

Peak level 67.7 %
Track quality 100.0 %
Test CRC ABA9C766
Copy CRC ABA9C766
Track not present in AccurateRip database
Copy OK

Track 16

Filename C:\Documents and Settings\ellroy\Skrivbord\VA - The Specialty Story (1994) [FLAC]\CD3\16 - Little Temple & His 88 - I Ate The Wrong Part .wav

Pre-gap length 0:00:01.93

Peak level 88.6 %
Track quality 100.0 %
Test CRC 59039F0A
Copy CRC 59039F0A
Track not present in AccurateRip database
Copy OK

Track 17

Filename C:\Documents and Settings\ellroy\Skrivbord\VA - The Specialty Story (1994) [FLAC]\CD3\17 - Honeyboy - Bloodstains On The Wall .wav

Pre-gap length 0:00:02.29

Peak level 80.1 %
Track quality 100.0 %
Test CRC 7C424EA9
Copy CRC 7C424EA9
Track not present in AccurateRip database
Copy OK

Track 18

Filename C:\Documents and Settings\ellroy\Skrivbord\VA - The Specialty Story (1994) [FLAC]\CD3\18 - Marvin & Johnny - Baby Doll .wav

Pre-gap length 0:00:00.42

Peak level 65.8 %
Track quality 100.0 %
Test CRC 422DA1C5
Copy CRC 422DA1C5
Track not present in AccurateRip database
Copy OK

Track 19

Filename C:\Documents and Settings\ellroy\Skrivbord\VA - The Specialty Story (1994) [FLAC]\CD3\19 - Guitar Slim - The Things That I Used To Do .wav

Pre-gap length 0:00:00.42

Peak level 93.9 %
Track quality 100.0 %
Test CRC 10802BB3
Copy CRC 10802BB3
Track not present in AccurateRip database
Copy OK

Track 20

Filename C:\Documents and Settings\ellroy\Skrivbord\VA - The Specialty Story (1994) [FLAC]\CD3\20 - Earl King - I'm Your Best Bet Baby .wav

Pre-gap length 0:00:02.29

Peak level 63.1 %
Track quality 100.0 %
Test CRC D6BF2343
Copy CRC D6BF2343
Track not present in AccurateRip database
Copy OK

Track 21

Filename C:\Documents and Settings\ellroy\Skrivbord\VA - The Specialty Story (1994) [FLAC]\CD3\21 - The Chosen Gospel Singer feat. Lou Rawls - No Room In The Hotel .wav

Pre-gap length 0:00:02.49

Peak level 62.6 %
Track quality 100.0 %
Test CRC 64F2E4B9
Copy CRC 64F2E4B9
Track not present in AccurateRip database
Copy OK

Track 22

Filename C:\Documents and Settings\ellroy\Skrivbord\VA - The Specialty Story (1994) [FLAC]\CD3\22 - John Lee Hooker - I'm Mad .wav

Pre-gap length 0:00:01.80

Peak level 74.1 %
Track quality 99.9 %
Test CRC D611B37E
Copy CRC D611B37E
Track not present in AccurateRip database
Copy OK

Track 23

Filename C:\Documents and Settings\ellroy\Skrivbord\VA - The Specialty Story (1994) [FLAC]\CD3\23 - Daddy Cleanhead - Something's Going On In My Room .wav

Pre-gap length 0:00:02.02

Peak level 76.2 %
Track quality 100.0 %
Test CRC C6874A3F
Copy CRC C6874A3F
Track not present in AccurateRip database
Copy OK

Track 24

Filename C:\Documents and Settings\ellroy\Skrivbord\VA - The Specialty Story (1994) [FLAC]\CD3\24 - The Chimes - Zindy Lou .wav

Pre-gap length 0:00:01.86

Peak level 59.6 %
Track quality 100.0 %
Test CRC 7F4E6F34
Copy CRC 7F4E6F34
Track not present in AccurateRip database
Copy OK

Track 25

Filename C:\Documents and Settings\ellroy\Skrivbord\VA - The Specialty Story (1994) [FLAC]\CD3\25 - The Soul Stirrers feat. Sam Cooke - One More River .wav

Pre-gap length 0:00:00.89

Peak level 96.2 %
Track quality 100.0 %
Test CRC 60F2AEB9
Copy CRC 60F2AEB9
Track not present in AccurateRip database
Copy OK

Track 26

Filename C:\Documents and Settings\ellroy\Skrivbord\VA - The Specialty Story (1994) [FLAC]\CD3\26 - Jesse Belvin - Where's My Girl .wav

Pre-gap length 0:00:01.70

Peak level 78.5 %
Track quality 100.0 %
Test CRC F752E02A
Copy CRC F752E02A
Track not present in AccurateRip database
Copy OK


None of the tracks are present in the AccurateRip database

No errors occurred

End of status report


Disc: 4
1. Nite Owl - Tony Allen & The Champs
2. Tutti Frutti - Little Richard
3. Eternity - Ernest Kador
4. Rich Woman - Li'l Millet & His Creoles
5. Squeeze Box Boogie - Clifton Chenier
6. Touch The Hem Of His Garment - The Soul Stirrers feat. Sam Cooke
7. Long Tall Sally - Little Richard
8. Slippin' & Slidin' (Peepin' & Hidin' ) - Little Richard
9. Oh-Rooba-Lee - Arthur Lee Maye & The Crowns
10. Gloria - Arthur Lee Maye & The Crowns
11. Cherokee Dance - Bob Landers with Willie Joe & His Unitar
12. Rip It Up - Little Richard
13. Ready Teddy - Little Richard
14. Sweet Breeze - Vernon Green & The Phantoms
15. (Every Time I Hear That) Mellow Saxophone - Roy Montrell
16. She's Got It - Little Richard
17. Heeby-Jeebies - Little Richard
18. Should I Ever Love Again? - Wynona Carr
19. Just To Hold My Hand - Big Boy Myles & The Sha-Weez
20. The Girl Can't Help It - Little Richard
21. All Around The World - Little Richard
22. Oooh-Whee Baby - Art Neville
23. Just Because - Larry Williams
24. Lucille - Little Richard
25. Send Me Some Lovin' - Little Richard
26. Open Up Your Heart - Eugene Church

Exact Audio Copy V0.99 prebeta 4 from 23. January 2008

EAC extraction logfile from 21. May 2010, 19:31

Various / The Specialty Story (Disc 4)

Used drive : BENQ DVD DC DW1670 Adapter: 1 ID: 0

Read mode : Secure
Utilize accurate stream : Yes
Defeat audio cache : Yes
Make use of C2 pointers : No

Read offset correction : 102
Overread into Lead-In and Lead-Out : No
Fill up missing offset samples with silence : Yes
Delete leading and trailing silent blocks : No
Null samples used in CRC calculations : Yes
Used interface : Installed external ASPI interface
Gap handling : Appended to previous track

Used output format : User Defined Encoder
Selected bitrate : 256 kBit/s
Quality : High
Add ID3 tag : No
Command line compressor : C:\Program\FLAC\flac.exe
Additional command line options : -8 -V -T "ARTIST=%a" -T "TITLE=%t" -T "ALBUM=%g" -T "DATE=%y" -T "TRACKNUMBER=%n" -T "GENRE=%m" -T "COMMENT=EAC FLAC -8" %s


TOC of the extracted CD

Track | Start | Length | Start sector | End sector
––––––––––––––––––––––––––––-
1 | 0:00.00 | 2:45.10 | 0 | 12384
2 | 2:45.10 | 2:24.63 | 12385 | 23247
3 | 5:09.73 | 2:13.15 | 23248 | 33237
4 | 7:23.13 | 2:37.35 | 33238 | 45047
5 | 10:00.48 | 1:58.37 | 45048 | 53934
6 | 11:59.10 | 2:04.05 | 53935 | 63239
7 | 14:03.15 | 2:09.23 | 63240 | 72937
8 | 16:12.38 | 2:42.40 | 72938 | 85127
9 | 18:55.03 | 2:05.42 | 85128 | 94544
10 | 21:00.45 | 2:39.35 | 94545 | 106504
11 | 23:40.05 | 2:33.63 | 106505 | 118042
12 | 26:13.68 | 2:23.45 | 118043 | 128812
13 | 28:37.38 | 2:09.32 | 128813 | 138519
14 | 30:46.70 | 2:04.00 | 138520 | 147819
15 | 32:50.70 | 2:25.08 | 147820 | 158702
16 | 35:16.03 | 2:26.40 | 158703 | 169692
17 | 37:42.43 | 2:17.00 | 169693 | 179967
18 | 39:59.43 | 2:39.32 | 179968 | 191924
19 | 42:39.00 | 2:11.50 | 191925 | 201799
20 | 44:50.50 | 2:31.40 | 201800 | 213164
21 | 47:22.15 | 2:27.23 | 213165 | 224212
22 | 49:49.38 | 2:11.35 | 224213 | 234072
23 | 52:00.73 | 2:48.12 | 234073 | 246684
24 | 54:49.10 | 2:25.63 | 246685 | 257622
25 | 57:14.73 | 2:20.25 | 257623 | 268147
26 | 59:35.23 | 2:38.72 | 268148 | 280069


Track 1

Filename C:\Documents and Settings\ellroy\Skrivbord\VA - The Specialty Story (1994) [FLAC]\CD4\01 - Tony Allen & The Champs - Nite Owl .wav

Pre-gap length 0:00:02.00

Peak level 70.5 %
Track quality 100.0 %
Test CRC 4965AF8C
Copy CRC 4965AF8C
Track not present in AccurateRip database
Copy OK

Track 2

Filename C:\Documents and Settings\ellroy\Skrivbord\VA - The Specialty Story (1994) [FLAC]\CD4\02 - Little Richard - Tutti Frutti .wav

Pre-gap length 0:00:00.89

Peak level 81.8 %
Track quality 100.0 %
Test CRC B1F6A2CD
Copy CRC B1F6A2CD
Track not present in AccurateRip database
Copy OK

Track 3

Filename C:\Documents and Settings\ellroy\Skrivbord\VA - The Specialty Story (1994) [FLAC]\CD4\03 - Ernest Kador - Eternity .wav

Pre-gap length 0:00:00.73

Peak level 71.0 %
Track quality 100.0 %
Test CRC 1825C53C
Copy CRC 1825C53C
Track not present in AccurateRip database
Copy OK

Track 4

Filename C:\Documents and Settings\ellroy\Skrivbord\VA - The Specialty Story (1994) [FLAC]\CD4\04 - Li'l Millet & His Creoles - Rich Woman .wav

Pre-gap length 0:00:01.44

Peak level 84.3 %
Track quality 100.0 %
Test CRC DC5AD922
Copy CRC DC5AD922
Track not present in AccurateRip database
Copy OK

Track 5

Filename C:\Documents and Settings\ellroy\Skrivbord\VA - The Specialty Story (1994) [FLAC]\CD4\05 - Clifton Chenier - Squeeze Box Boogie .wav

Pre-gap length 0:00:00.66

Peak level 88.0 %
Track quality 100.0 %
Test CRC 3FA2B7E6
Copy CRC 3FA2B7E6
Track not present in AccurateRip database
Copy OK

Track 6

Filename C:\Documents and Settings\ellroy\Skrivbord\VA - The Specialty Story (1994) [FLAC]\CD4\06 - The Soul Stirrers feat. Sam Cooke - Touch The Hem Of His Garment .wav

Pre-gap length 0:00:00.96

Peak level 77.2 %
Track quality 100.0 %
Test CRC 12173C0C
Copy CRC 12173C0C
Track not present in AccurateRip database
Copy OK

Track 7

Filename C:\Documents and Settings\ellroy\Skrivbord\VA - The Specialty Story (1994) [FLAC]\CD4\07 - Little Richard - Long Tall Sally .wav

Pre-gap length 0:00:01.69

Peak level 75.7 %
Track quality 100.0 %
Test CRC C7CEFDA1
Copy CRC C7CEFDA1
Track not present in AccurateRip database
Copy OK

Track 8

Filename C:\Documents and Settings\ellroy\Skrivbord\VA - The Specialty Story (1994) [FLAC]\CD4\08 - Little Richard - Slippin' And Slidin' (Peepin' And Hidin') .wav

Pre-gap length 0:00:00.40

Peak level 87.5 %
Track quality 100.0 %
Test CRC E84906BB
Copy CRC E84906BB
Track not present in AccurateRip database
Copy OK

Track 9

Filename C:\Documents and Settings\ellroy\Skrivbord\VA - The Specialty Story (1994) [FLAC]\CD4\09 - Arthur Lee Maye & The Crowns - Oh-Rooba-Lee .wav

Pre-gap length 0:00:00.70

Peak level 77.0 %
Track quality 100.0 %
Test CRC 452F628F
Copy CRC 452F628F
Track not present in AccurateRip database
Copy OK

Track 10

Filename C:\Documents and Settings\ellroy\Skrivbord\VA - The Specialty Story (1994) [FLAC]\CD4\10 - Arthur Lee Maye & The Crowns - Gloria .wav

Pre-gap length 0:00:01.80

Peak level 83.7 %
Track quality 100.0 %
Test CRC AC4A1A3A
Copy CRC AC4A1A3A
Track not present in AccurateRip database
Copy OK

Track 11

Filename C:\Documents and Settings\ellroy\Skrivbord\VA - The Specialty Story (1994) [FLAC]\CD4\11 - Bob Landers with Willie Joe And His Unitar - Cherokee Dance .wav

Pre-gap length 0:00:01.93

Peak level 80.8 %
Track quality 100.0 %
Test CRC 43AF6305
Copy CRC 43AF6305
Track not present in AccurateRip database
Copy OK

Track 12

Filename C:\Documents and Settings\ellroy\Skrivbord\VA - The Specialty Story (1994) [FLAC]\CD4\12 - Little Richard - Rip It Up .wav

Pre-gap length 0:00:01.06

Peak level 69.7 %
Track quality 100.0 %
Test CRC 4F40B7E5
Copy CRC 4F40B7E5
Track not present in AccurateRip database
Copy OK

Track 13

Filename C:\Documents and Settings\ellroy\Skrivbord\VA - The Specialty Story (1994) [FLAC]\CD4\13 - Little Richard - Ready Teddy .wav

Pre-gap length 0:00:01.44

Peak level 83.3 %
Track quality 100.0 %
Test CRC 0CBB828A
Copy CRC 0CBB828A
Track not present in AccurateRip database
Copy OK

Track 14

Filename C:\Documents and Settings\ellroy\Skrivbord\VA - The Specialty Story (1994) [FLAC]\CD4\14 - Vernon Green & The Phantoms - Sweet Breeze .wav

Pre-gap length 0:00:01.02

Peak level 69.9 %
Track quality 100.0 %
Test CRC 151FC103
Copy CRC 151FC103
Track not present in AccurateRip database
Copy OK

Track 15

Filename C:\Documents and Settings\ellroy\Skrivbord\VA - The Specialty Story (1994) [FLAC]\CD4\15 - Roy Montrell - (Every Time I Hear That) Mellow Saxaphone .wav

Pre-gap length 0:00:00.93

Peak level 94.0 %
Track quality 99.9 %
Test CRC C4AD6597
Copy CRC C4AD6597
Track not present in AccurateRip database
Copy OK

Track 16

Filename C:\Documents and Settings\ellroy\Skrivbord\VA - The Specialty Story (1994) [FLAC]\CD4\16 - Little Richard - She's Got It .wav

Pre-gap length 0:00:01.20

Peak level 89.6 %
Track quality 100.0 %
Test CRC DC2AFD28
Copy CRC DC2AFD28
Track not present in AccurateRip database
Copy OK

Track 17

Filename C:\Documents and Settings\ellroy\Skrivbord\VA - The Specialty Story (1994) [FLAC]\CD4\17 - Little Richard - Heeby Jeebies .wav

Pre-gap length 0:00:01.04

Peak level 82.4 %
Track quality 100.0 %
Test CRC A3FB28E8
Copy CRC A3FB28E8
Track not present in AccurateRip database
Copy OK

Track 18

Filename C:\Documents and Settings\ellroy\Skrivbord\VA - The Specialty Story (1994) [FLAC]\CD4\18 - Wynona Carr - Should I Ever Love Again .wav

Pre-gap length 0:00:01.17

Peak level 64.6 %
Track quality 100.0 %
Test CRC DF563E02
Copy CRC DF563E02
Track not present in AccurateRip database
Copy OK

Track 19

Filename C:\Documents and Settings\ellroy\Skrivbord\VA - The Specialty Story (1994) [FLAC]\CD4\19 - Big Boy Myles & The Shaw-Wees - Just To Hold My Hand .wav

Pre-gap length 0:00:01.53

Peak level 74.3 %
Track quality 100.0 %
Test CRC EB0259DF
Copy CRC EB0259DF
Track not present in AccurateRip database
Copy OK

Track 20

Filename C:\Documents and Settings\ellroy\Skrivbord\VA - The Specialty Story (1994) [FLAC]\CD4\20 - Little Richard - The Girl Can't Help It .wav

Pre-gap length 0:00:01.56

Peak level 80.0 %
Track quality 100.0 %
Test CRC 81CC0D93
Copy CRC 81CC0D93
Track not present in AccurateRip database
Copy OK

Track 21

Filename C:\Documents and Settings\ellroy\Skrivbord\VA - The Specialty Story (1994) [FLAC]\CD4\21 - Little Richard - All Around The World .wav

Pre-gap length 0:00:00.60

Peak level 72.5 %
Track quality 100.0 %
Test CRC A414370A
Copy CRC A414370A
Track not present in AccurateRip database
Copy OK

Track 22

Filename C:\Documents and Settings\ellroy\Skrivbord\VA - The Specialty Story (1994) [FLAC]\CD4\22 - Art Neville - Oooh-Whee Baby .wav

Pre-gap length 0:00:00.64

Peak level 62.2 %
Track quality 100.0 %
Test CRC C41F3F86
Copy CRC C41F3F86
Track not present in AccurateRip database
Copy OK

Track 23

Filename C:\Documents and Settings\ellroy\Skrivbord\VA - The Specialty Story (1994) [FLAC]\CD4\23 - Larry Williams - Just Because .wav

Pre-gap length 0:00:01.06

Peak level 63.3 %
Track quality 100.0 %
Test CRC F0097678
Copy CRC F0097678
Track not present in AccurateRip database
Copy OK

Track 24

Filename C:\Documents and Settings\ellroy\Skrivbord\VA - The Specialty Story (1994) [FLAC]\CD4\24 - Little Richard - Lucille .wav

Pre-gap length 0:00:00.42

Peak level 71.6 %
Track quality 100.0 %
Test CRC C219EC10
Copy CRC C219EC10
Track not present in AccurateRip database
Copy OK

Track 25

Filename C:\Documents and Settings\ellroy\Skrivbord\VA - The Specialty Story (1994) [FLAC]\CD4\25 - Little Richard - Send Me Some Lovin' .wav

Pre-gap length 0:00:01.26

Peak level 83.9 %
Track quality 100.0 %
Test CRC FE279FAE
Copy CRC FE279FAE
Track not present in AccurateRip database
Copy OK

Track 26

Filename C:\Documents and Settings\ellroy\Skrivbord\VA - The Specialty Story (1994) [FLAC]\CD4\26 - Eugene Church - Open Up Your Heart .wav

Pre-gap length 0:00:01.26

Peak level 75.7 %
Track quality 100.0 %
Test CRC 5884D66D
Copy CRC 5884D66D
Track not present in AccurateRip database
Copy OK


None of the tracks are present in the AccurateRip database

No errors occurred

End of status report


Disc: 5
1. Our Romance - Clydie King
2. Jenny Jenny - Little Richard
3. Miss Ann - Little Richard
4. Short Fat Fannie - Larry Williams
5. Leavin' It All Up To You - Don & Dewey
6. Keep A-Knockin' - Little Richard
7. Bony Maronie - Larry Williams
8. Twitchy - Rene Hall's Orchestra feat. Willie Joe
9. I'll Come Running Back To You - Sam Cooke
10. Good Golly, Miss Molly - Little Richard
11. Slow Down - Larry Williams
12. Dizzy, Miss Lizzy - Larry Williams
13. Justine - Don & Dewey
14. True Fine Mama - Little Richard
15. Ooh! My Soul - Little Richard
16. Lights Out - Jerry Byrne
17. The Love Of God - The Soul Stirrers feat. Johnnie Taylor
18. Koko Joe - Don & Dewey
19. Baby Face - Little Richard
20. There's A Moose On The Loose - Roddy Jackson
21. Haunted House - Johnny Fuller
22. She Said, "Yeah" - Larry Williams
23. Bad Boy - Larry Williams
24. Farmer John - Don & Dewey
25. Big Boy Pete - Don & Dewey
26. Bama Lama Bama Loo - Little Richard

Exact Audio Copy V0.99 prebeta 4 from 23. January 2008

EAC extraction logfile from 21. May 2010, 21:49

Various / The Specialty Story (Disc 5)

Used drive : BENQ DVD DC DW1670 Adapter: 1 ID: 0

Read mode : Secure
Utilize accurate stream : Yes
Defeat audio cache : Yes
Make use of C2 pointers : No

Read offset correction : 102
Overread into Lead-In and Lead-Out : No
Fill up missing offset samples with silence : Yes
Delete leading and trailing silent blocks : No
Null samples used in CRC calculations : Yes
Used interface : Installed external ASPI interface
Gap handling : Appended to previous track

Used output format : User Defined Encoder
Selected bitrate : 256 kBit/s
Quality : High
Add ID3 tag : No
Command line compressor : C:\Program\FLAC\flac.exe
Additional command line options : -8 -V -T "ARTIST=%a" -T "TITLE=%t" -T "ALBUM=%g" -T "DATE=%y" -T "TRACKNUMBER=%n" -T "GENRE=%m" -T "COMMENT=EAC FLAC -8" %s


TOC of the extracted CD

Track | Start | Length | Start sector | End sector
––––––––––––––––––––––––––––-
1 | 0:00.00 | 2:45.30 | 0 | 12404
2 | 2:45.30 | 2:04.60 | 12405 | 21764
3 | 4:50.15 | 2:16.65 | 21765 | 32029
4 | 7:07.05 | 2:25.08 | 32030 | 42912
5 | 9:32.13 | 2:10.17 | 42913 | 52679
6 | 11:42.30 | 2:17.28 | 52680 | 62982
7 | 13:59.58 | 3:07.70 | 62983 | 77077
8 | 17:07.53 | 2:25.52 | 77078 | 88004
9 | 19:33.30 | 2:13.20 | 88005 | 97999
10 | 21:46.50 | 2:11.25 | 98000 | 107849
11 | 23:58.00 | 2:44.60 | 107850 | 120209
12 | 26:42.60 | 2:13.10 | 120210 | 130194
13 | 28:55.70 | 2:06.50 | 130195 | 139694
14 | 31:02.45 | 2:43.38 | 139695 | 151957
15 | 33:46.08 | 1:54.22 | 151958 | 160529
16 | 35:40.30 | 1:53.18 | 160530 | 169022
17 | 37:33.48 | 2:11.50 | 169023 | 178897
18 | 39:45.23 | 2:13.12 | 178898 | 188884
19 | 41:58.35 | 2:16.33 | 188885 | 199117
20 | 44:14.68 | 2:11.12 | 199118 | 208954
21 | 46:26.05 | 2:32.08 | 208955 | 220362
22 | 48:58.13 | 1:51.47 | 220363 | 228734
23 | 50:49.60 | 2:18.48 | 228735 | 239132
24 | 53:08.33 | 2:30.57 | 239133 | 250439
25 | 55:39.15 | 2:21.35 | 250440 | 261049
26 | 58:00.50 | 2:13.33 | 261050 | 271057


Track 1

Filename C:\Documents and Settings\ellroy\Skrivbord\VA - The Specialty Story (1994) [FLAC]\CD5\01 - Clydie King - Our Romance .wav

Pre-gap length 0:00:02.00

Peak level 63.8 %
Track quality 100.0 %
Test CRC 0F0F0AD0
Copy CRC 0F0F0AD0
Track not present in AccurateRip database
Copy OK

Track 2

Filename C:\Documents and Settings\ellroy\Skrivbord\VA - The Specialty Story (1994) [FLAC]\CD5\02 - Little Richard - Jenny Jenny .wav

Pre-gap length 0:00:01.56

Peak level 64.5 %
Track quality 100.0 %
Test CRC 922534E1
Copy CRC 922534E1
Track not present in AccurateRip database
Copy OK

Track 3

Filename C:\Documents and Settings\ellroy\Skrivbord\VA - The Specialty Story (1994) [FLAC]\CD5\03 - Little Richard - Miss Ann .wav

Pre-gap length 0:00:01.86

Peak level 71.2 %
Track quality 100.0 %
Test CRC A96DBA69
Copy CRC A96DBA69
Track not present in AccurateRip database
Copy OK

Track 4

Filename C:\Documents and Settings\ellroy\Skrivbord\VA - The Specialty Story (1994) [FLAC]\CD5\04 - Larry Williams - Short Fat Fannie .wav

Pre-gap length 0:00:00.73

Peak level 75.2 %
Track quality 99.9 %
Test CRC 706A5674
Copy CRC 706A5674
Track not present in AccurateRip database
Copy OK

Track 5

Filename C:\Documents and Settings\ellroy\Skrivbord\VA - The Specialty Story (1994) [FLAC]\CD5\05 - Don & Dewey - Leavin' It All Up To You .wav

Pre-gap length 0:00:01.84

Peak level 71.0 %
Track quality 100.0 %
Test CRC 41D42302
Copy CRC 41D42302
Track not present in AccurateRip database
Copy OK

Track 6

Filename C:\Documents and Settings\ellroy\Skrivbord\VA - The Specialty Story (1994) [FLAC]\CD5\06 - Little Richard - Keep A-Knockin' .wav

Pre-gap length 0:00:02.26

Peak level 63.8 %
Track quality 100.0 %
Test CRC CADEFFD9
Copy CRC CADEFFD9
Track not present in AccurateRip database
Copy OK

Track 7

Filename C:\Documents and Settings\ellroy\Skrivbord\VA - The Specialty Story (1994) [FLAC]\CD5\07 - Larry Williams - Bony Moronie .wav

Pre-gap length 0:00:00.37

Peak level 73.3 %
Track quality 99.9 %
Test CRC BEA60284
Copy CRC BEA60284
Track not present in AccurateRip database
Copy OK

Track 8

Filename C:\Documents and Settings\ellroy\Skrivbord\VA - The Specialty Story (1994) [FLAC]\CD5\08 - Rene Hall's Orchestra feat. Willie Joe - Twitchy .wav

Pre-gap length 0:00:00.86

Peak level 62.4 %
Track quality 100.0 %
Test CRC 92818842
Copy CRC 92818842
Track not present in AccurateRip database
Copy OK

Track 9

Filename C:\Documents and Settings\ellroy\Skrivbord\VA - The Specialty Story (1994) [FLAC]\CD5\09 - Sam Cooke - I'll Come Running Back To You .wav

Pre-gap length 0:00:02.40

Peak level 72.9 %
Track quality 100.0 %
Test CRC AD0A2491
Copy CRC AD0A2491
Track not present in AccurateRip database
Copy OK

Track 10

Filename C:\Documents and Settings\ellroy\Skrivbord\VA - The Specialty Story (1994) [FLAC]\CD5\10 - Little Richard - Good Golly, Miss Molly .wav

Pre-gap length 0:00:01.69

Peak level 62.1 %
Track quality 100.0 %
Test CRC 905B5071
Copy CRC 905B5071
Track not present in AccurateRip database
Copy OK

Track 11

Filename C:\Documents and Settings\ellroy\Skrivbord\VA - The Specialty Story (1994) [FLAC]\CD5\11 - Larry Williams - Slow Down .wav

Pre-gap length 0:00:01.33

Peak level 72.3 %
Track quality 100.0 %
Test CRC C3A2B9CF
Copy CRC C3A2B9CF
Track not present in AccurateRip database
Copy OK

Track 12

Filename C:\Documents and Settings\ellroy\Skrivbord\VA - The Specialty Story (1994) [FLAC]\CD5\12 - Larry Williams - Dizzy, Miss Lizzy .wav

Pre-gap length 0:00:01.20

Peak level 63.4 %
Track quality 99.9 %
Test CRC 71C78B5D
Copy CRC 71C78B5D
Track not present in AccurateRip database
Copy OK

Track 13

Filename C:\Documents and Settings\ellroy\Skrivbord\VA - The Specialty Story (1994) [FLAC]\CD5\13 - Don & Dewey - Justine .wav

Pre-gap length 0:00:02.06

Peak level 76.4 %
Track quality 100.0 %
Test CRC 6DCA7662
Copy CRC 6DCA7662
Track not present in AccurateRip database
Copy OK

Track 14

Filename C:\Documents and Settings\ellroy\Skrivbord\VA - The Specialty Story (1994) [FLAC]\CD5\14 - Little Richard - True Fine Mama .wav

Pre-gap length 0:00:01.56

Peak level 83.1 %
Track quality 100.0 %
Test CRC B014A854
Copy CRC B014A854
Track not present in AccurateRip database
Copy OK

Track 15

Filename C:\Documents and Settings\ellroy\Skrivbord\VA - The Specialty Story (1994) [FLAC]\CD5\15 - Little Richard - Ooh! My Soul .wav

Pre-gap length 0:00:01.24

Peak level 60.2 %
Track quality 100.0 %
Test CRC 07B19AD6
Copy CRC 07B19AD6
Track not present in AccurateRip database
Copy OK

Track 16

Filename C:\Documents and Settings\ellroy\Skrivbord\VA - The Specialty Story (1994) [FLAC]\CD5\16 - Jerry Byrne - Lights Out .wav

Pre-gap length 0:00:01.66

Peak level 83.3 %
Track quality 99.9 %
Test CRC FC93663B
Copy CRC FC93663B
Track not present in AccurateRip database
Copy OK

Track 17

Filename C:\Documents and Settings\ellroy\Skrivbord\VA - The Specialty Story (1994) [FLAC]\CD5\17 - The Soul Stirrers feat. Johnnie Taylor - The Love Of God .wav

Pre-gap length 0:00:01.30

Peak level 67.5 %
Track quality 100.0 %
Test CRC 6C6C84EA
Copy CRC 6C6C84EA
Track not present in AccurateRip database
Copy OK

Track 18

Filename C:\Documents and Settings\ellroy\Skrivbord\VA - The Specialty Story (1994) [FLAC]\CD5\18 - Don & Dewey - Koko Joe .wav

Pre-gap length 0:00:01.40

Peak level 74.0 %
Track quality 99.9 %
Test CRC 0DFD5C51
Copy CRC 0DFD5C51
Track not present in AccurateRip database
Copy OK

Track 19

Filename C:\Documents and Settings\ellroy\Skrivbord\VA - The Specialty Story (1994) [FLAC]\CD5\19 - Little Richard - Baby Face .wav

Pre-gap length 0:00:01.60

Peak level 58.1 %
Track quality 100.0 %
Test CRC A2413B7B
Copy CRC A2413B7B
Track not present in AccurateRip database
Copy OK

Track 20

Filename C:\Documents and Settings\ellroy\Skrivbord\VA - The Specialty Story (1994) [FLAC]\CD5\20 - Roddy Jackson - There's A Moose On The Loose .wav

Pre-gap length 0:00:01.86

Peak level 91.6 %
Track quality 99.9 %
Test CRC C4616E7F
Copy CRC C4616E7F
Track not present in AccurateRip database
Copy OK

Track 21

Filename C:\Documents and Settings\ellroy\Skrivbord\VA - The Specialty Story (1994) [FLAC]\CD5\21 - Johnny Fuller - Haunted House .wav

Pre-gap length 0:00:01.89

Peak level 70.5 %
Track quality 99.9 %
Test CRC D6F28409
Copy CRC D6F28409
Track not present in AccurateRip database
Copy OK

Track 22

Filename C:\Documents and Settings\ellroy\Skrivbord\VA - The Specialty Story (1994) [FLAC]\CD5\22 - Larry Williams - She Said Yeah .wav

Pre-gap length 0:00:01.84

Peak level 71.1 %
Track quality 100.0 %
Test CRC 3A85719A
Copy CRC 3A85719A
Track not present in AccurateRip database
Copy OK

Track 23

Filename C:\Documents and Settings\ellroy\Skrivbord\VA - The Specialty Story (1994) [FLAC]\CD5\23 - Larry Williams - Bad Boy .wav

Pre-gap length 0:00:01.49

Peak level 92.9 %
Track quality 100.0 %
Test CRC 64AD3D4D
Copy CRC 64AD3D4D
Track not present in AccurateRip database
Copy OK

Track 24

Filename C:\Documents and Settings\ellroy\Skrivbord\VA - The Specialty Story (1994) [FLAC]\CD5\24 - Don & Dewey - Farmer John .wav

Pre-gap length 0:00:02.00

Peak level 71.9 %
Track quality 99.9 %
Test CRC 8A18FAAE
Copy CRC 8A18FAAE
Track not present in AccurateRip database
Copy OK

Track 25

Filename C:\Documents and Settings\ellroy\Skrivbord\VA - The Specialty Story (1994) [FLAC]\CD5\25 - Don & Dewey - Big Boy Pete .wav

Pre-gap length 0:00:00.53

Peak level 85.7 %
Track quality 99.9 %
Test CRC FE79BA47
Copy CRC FE79BA47
Track not present in AccurateRip database
Copy OK

Track 26

Filename C:\Documents and Settings\ellroy\Skrivbord\VA - The Specialty Story (1994) [FLAC]\CD5\26 - Little Richard - Bama Lama Bama Loo .wav

Pre-gap length 0:00:01.53

Peak level 68.8 %
Track quality 100.0 %
Test CRC 6A81C8EB
Copy CRC 6A81C8EB
Track not present in AccurateRip database
Copy OK


None of the tracks are present in the AccurateRip database

No errors occurred

End of status report