Subcategories

VA - The Road To Robert Johnson And Beyond (2007)

Posted By: jclane
VA - The Road To Robert Johnson And Beyond (2007)

VA - The Road To Robert Johnson And Beyond (2007)
EAC Rip | 4CDs | FLAC Tracks + Cue + Log - 712 MB | MP3 CBR @320 kbps - 728 MB | Full scans - 54.2 MB
Label: JSP Records | Catalog.#: JSP7795 | Genre: Blues, Pre-War Blues

During the last quarter of the 20th century, and thanks largely to Eric Clapton's remarkable devotion to his memory, Robert Leroy Johnson posthumously became the most celebrated Delta blues musician of the pre-WWII era. Among numerous editions of his complete works and various anthologies that combine his recordings with those of his contemporaries and followers, J.S.P.'s The Road to Robert Johnson and Beyond combines many of his essential performances with those by dozens of other blues artists from Blind Lemon Jefferson and Henry Thomas to Muddy Waters and Elmore James. 105 tracks fill four CDs with several decades' worth of strongly steeped blues that trace the African American migration from the deep south on up into Chicago. This is a fine way to savor the recorded evidence, as primary examples from Blind Blake, Charley Patton, Son House, Charlie McCoy, Walter Vincson, Skip James, Ma Rainey, Tampa Red, Kokomo Arnold, Scrapper Blackwell, Leroy Carr, Lonnie Johnson, and Peetie Wheatstraw lead directly to early modern masters like Big Joe Williams, Sonny Boy Williamson, Big Bill Broonzy, Johnny Temple, Leroy Foster, Johnny Shines, Homesick James Williamson, Robert Jr. Lockwood, Snooky Pryor, Little Walter, and David Honeyboy Edwards, among many others. This collection would be greatly enhanced by Edward Komara's The Road to Robert Johnson: The Genesis and Evolution of Blues in the Delta from the Late 1800s Through 1938, a highly regarded work of musicological scholarship published at the same time as J.S.P. released their similarly titled box set in 2007. Careful remastering and affordable pricing make this hefty stash of classic blues an excellent option for anyone who cares at all about where the music came from and how it evolved.
CD1 - Disc A

01. Son House - Walkin' Blues - 2:57
02. Leroy Carr - Mean Mistreater Mama - 2:56
03. Johnny Temple - Lead Pencil Blues - 3:06
04. Skip James - Devil Got My Woman - 3:00
05. Blind Blake - Georgia Bound - 3:23
06. Lonnie Johnson - Blue Ghost Blues - 3:11
07. Carl Rafferty - Mr. Carl's Blues - 3:06
08. Blind Lemon Jefferson - Change My Luck Blues - 2:24
09. Tampa Red - Things 'Bout Coming My Way - 3:15
10. Peetie Wheatstraw - Police Station Blues - 3:04
11. Kokomo Arnold - Old Original Kokomo Blues - 2:53
12. Hambone Willie Newbern - Roll And Tumble Blues - 3:02
13. Ramblin' Thomas - No Job Blues - 3:11
14. Bid Bill Broonzy - Shelby County Blues - 3:19
15. Ma Rainey - Booze And Blues - 3:10
16. Charley Patton - You're Gonna Need Somebody When You Die - 2:51
17. Skip James - 20-20 Blues - 2:50
18. Kokomo Arnold - Milk Cow Blues - 3:09
19. Son House - Preachin' The Blues (Pt. 1) - 3:04
20. Lonnie Johnson - Life Saver Blues - 3:05
21. Johnny Temple - The Evil Devil Blues - 3:12
22. Leroy Carr - When The Sun Goes Down - 2:57
23. Henry Thomas - Red River Blues - 3:07
24. Blind Lemon Jefferson - Dry Southern Blues - 2:51
25. Mississippi Sheiks - Show Me What You Got - 3:10


Exact Audio Copy V1.0 beta 1 from 15. November 2010

EAC extraction logfile from 19. March 2011, 2:18

Various Artists / The Road To Robert Johnson And Beyond - Disc A

Used drive : LITE-ON CD-RW SOHR-5238S Adapter: 6 ID: 3

Read mode : Secure
Utilize accurate stream : Yes
Defeat audio cache : Yes
Make use of C2 pointers : No

Read offset correction : 6
Overread into Lead-In and Lead-Out : No
Fill up missing offset samples with silence : Yes
Delete leading and trailing silent blocks : No
Null samples used in CRC calculations : Yes
Used interface : Installed external ASPI interface
Gap handling : Appended to previous track

Used output format : Internal WAV Routines
Sample format : 44.100 Hz; 16 Bit; Stereo


TOC of the extracted CD

Track | Start | Length | Start sector | End sector
––––––––––––––––––––––––––––-
1 | 0:00.00 | 2:57.21 | 0 | 13295
2 | 2:57.21 | 2:56.13 | 13296 | 26508
3 | 5:53.34 | 3:06.73 | 26509 | 40531
4 | 9:00.32 | 3:00.07 | 40532 | 54038
5 | 12:00.39 | 3:23.02 | 54039 | 69265
6 | 15:23.41 | 3:11.28 | 69266 | 83618
7 | 18:34.69 | 3:06.14 | 83619 | 97582
8 | 21:41.08 | 2:24.35 | 97583 | 108417
9 | 24:05.43 | 3:15.25 | 108418 | 123067
10 | 27:20.68 | 3:04.44 | 123068 | 136911
11 | 30:25.37 | 2:53.60 | 136912 | 149946
12 | 33:19.22 | 3:02.54 | 149947 | 163650
13 | 36:22.01 | 3:11.62 | 163651 | 178037
14 | 39:33.63 | 3:19.45 | 178038 | 193007
15 | 42:53.33 | 3:10.31 | 193008 | 207288
16 | 46:03.64 | 2:51.05 | 207289 | 220118
17 | 48:54.69 | 2:50.54 | 220119 | 232922
18 | 51:45.48 | 3:09.00 | 232923 | 247097
19 | 54:54.48 | 3:04.51 | 247098 | 260948
20 | 57:59.24 | 3:05.20 | 260949 | 274843
21 | 61:04.44 | 3:12.64 | 274844 | 289307
22 | 64:17.33 | 2:57.32 | 289308 | 302614
23 | 67:14.65 | 3:07.45 | 302615 | 316684
24 | 70:22.35 | 2:51.22 | 316685 | 329531
25 | 73:13.57 | 3:10.13 | 329532 | 343794


Track 1

Filename F:\eac\VA - The Road to Robert Johnson and Beyond\Disc A\01 - Son House - Walkin' Blues.wav

Pre-gap length 0:00:02.00

Peak level 94.3 %
Extraction speed 5.7 X
Track quality 100.0 %
Test CRC E7E1CC40
Copy CRC E7E1CC40
Accurately ripped (confidence 1) [C19CF46B]
Copy OK

Track 2

Filename F:\eac\VA - The Road to Robert Johnson and Beyond\Disc A\02 - Leroy Carr - Mean Mistreater Mama.wav

Pre-gap length 0:00:02.41

Peak level 94.2 %
Extraction speed 6.0 X
Track quality 100.0 %
Test CRC 6596EFEC
Copy CRC 6596EFEC
Accurately ripped (confidence 1) [1746D858]
Copy OK

Track 3

Filename F:\eac\VA - The Road to Robert Johnson and Beyond\Disc A\03 - Johnny Temple - Lead Pencil Blues.wav

Pre-gap length 0:00:02.41

Peak level 94.3 %
Extraction speed 5.6 X
Track quality 99.9 %
Test CRC 581A7D1E
Copy CRC 581A7D1E
Accurately ripped (confidence 1) [CD021C51]
Copy OK

Track 4

Filename F:\eac\VA - The Road to Robert Johnson and Beyond\Disc A\04 - Skip James - Devil Got My Woman.wav

Pre-gap length 0:00:02.41

Peak level 89.0 %
Extraction speed 6.9 X
Track quality 100.0 %
Test CRC F53A8510
Copy CRC F53A8510
Accurately ripped (confidence 1) [AABC347D]
Copy OK

Track 5

Filename F:\eac\VA - The Road to Robert Johnson and Beyond\Disc A\05 - Blind Blake - Georgia Bound.wav

Pre-gap length 0:00:02.41

Peak level 94.2 %
Extraction speed 7.3 X
Track quality 100.0 %
Test CRC 22B2ED9B
Copy CRC 22B2ED9B
Accurately ripped (confidence 1) [2D58DF15]
Copy OK

Track 6

Filename F:\eac\VA - The Road to Robert Johnson and Beyond\Disc A\06 - Lonnie Johnson - Blue Ghost Blues.wav

Pre-gap length 0:00:02.41

Peak level 84.0 %
Extraction speed 7.7 X
Track quality 100.0 %
Test CRC A8E9D0B0
Copy CRC A8E9D0B0
Accurately ripped (confidence 1) [BDFCC39F]
Copy OK

Track 7

Filename F:\eac\VA - The Road to Robert Johnson and Beyond\Disc A\07 - Carl Rafferty - Mr. Carl's Blues.wav

Pre-gap length 0:00:02.41

Peak level 94.2 %
Extraction speed 8.0 X
Track quality 100.0 %
Test CRC CF9CA516
Copy CRC CF9CA516
Accurately ripped (confidence 1) [7BBD596E]
Copy OK

Track 8

Filename F:\eac\VA - The Road to Robert Johnson and Beyond\Disc A\08 - Blind Lemon Jefferson - Change My Luck Blues.wav

Pre-gap length 0:00:02.41

Peak level 94.3 %
Extraction speed 6.5 X
Track quality 99.9 %
Test CRC CE454086
Copy CRC CE454086
Accurately ripped (confidence 1) [BFEF4029]
Copy OK

Track 9

Filename F:\eac\VA - The Road to Robert Johnson and Beyond\Disc A\09 - Tampa Red - Things 'Bout Coming My Way.wav

Pre-gap length 0:00:02.41

Peak level 89.0 %
Extraction speed 8.6 X
Track quality 100.0 %
Test CRC 5AFFFCD6
Copy CRC 5AFFFCD6
Accurately ripped (confidence 1) [8400C169]
Copy OK

Track 10

Filename F:\eac\VA - The Road to Robert Johnson and Beyond\Disc A\10 - Peetie Wheatstraw - Police Station Blues.wav

Pre-gap length 0:00:02.41

Peak level 94.2 %
Extraction speed 8.8 X
Track quality 100.0 %
Test CRC 374A3A29
Copy CRC 374A3A29
Accurately ripped (confidence 1) [7A2B8B3D]
Copy OK

Track 11

Filename F:\eac\VA - The Road to Robert Johnson and Beyond\Disc A\11 - Kokomo Arnold - Old Original Kokomo Blues.wav

Pre-gap length 0:00:02.41

Peak level 94.3 %
Extraction speed 8.9 X
Track quality 100.0 %
Test CRC 21ECC269
Copy CRC 21ECC269
Accurately ripped (confidence 1) [8D50D899]
Copy OK

Track 12

Filename F:\eac\VA - The Road to Robert Johnson and Beyond\Disc A\12 - Hambone Willie Newbern - Roll And Tumble Blues.wav

Pre-gap length 0:00:02.41

Peak level 74.9 %
Extraction speed 9.2 X
Track quality 100.0 %
Test CRC D8E09072
Copy CRC D8E09072
Accurately ripped (confidence 1) [F6B4656A]
Copy OK

Track 13

Filename F:\eac\VA - The Road to Robert Johnson and Beyond\Disc A\13 - Ramblin' Thomas - No Job Blues.wav

Pre-gap length 0:00:02.41

Peak level 94.2 %
Extraction speed 9.6 X
Track quality 100.0 %
Test CRC 485FF74C
Copy CRC 485FF74C
Accurately ripped (confidence 1) [BE6B0B4D]
Copy OK

Track 14

Filename F:\eac\VA - The Road to Robert Johnson and Beyond\Disc A\14 - Bid Bill Broonzy - Shelby County Blues.wav

Pre-gap length 0:00:02.41

Peak level 94.2 %
Extraction speed 9.9 X
Track quality 100.0 %
Test CRC B7484EAA
Copy CRC B7484EAA
Accurately ripped (confidence 1) [53DECBD3]
Copy OK

Track 15

Filename F:\eac\VA - The Road to Robert Johnson and Beyond\Disc A\15 - Ma Rainey - Booze And Blues.wav

Pre-gap length 0:00:02.41

Peak level 74.9 %
Extraction speed 10.0 X
Track quality 100.0 %
Test CRC D25CE2B4
Copy CRC D25CE2B4
Accurately ripped (confidence 1) [18900873]
Copy OK

Track 16

Filename F:\eac\VA - The Road to Robert Johnson and Beyond\Disc A\16 - Charley Patton - You're Gonna Need Somebody When You Die.wav

Pre-gap length 0:00:02.41

Peak level 94.3 %
Extraction speed 10.1 X
Track quality 100.0 %
Test CRC FF9BC715
Copy CRC FF9BC715
Accurately ripped (confidence 1) [B3DEEEB3]
Copy OK

Track 17

Filename F:\eac\VA - The Road to Robert Johnson and Beyond\Disc A\17 - Skip James - 20-20 Blues.wav

Pre-gap length 0:00:02.41

Peak level 94.3 %
Extraction speed 10.3 X
Track quality 100.0 %
Test CRC EE6DEF57
Copy CRC EE6DEF57
Accurately ripped (confidence 1) [4DBED9BC]
Copy OK

Track 18

Filename F:\eac\VA - The Road to Robert Johnson and Beyond\Disc A\18 - Kokomo Arnold - Milk Cow Blues.wav

Pre-gap length 0:00:02.41

Peak level 88.9 %
Extraction speed 10.4 X
Track quality 100.0 %
Test CRC 0368D5E2
Copy CRC 0368D5E2
Accurately ripped (confidence 1) [5A18B976]
Copy OK

Track 19

Filename F:\eac\VA - The Road to Robert Johnson and Beyond\Disc A\19 - Son House - Preachin' The Blues (Pt. 1).wav

Pre-gap length 0:00:02.41

Peak level 89.0 %
Extraction speed 10.8 X
Track quality 100.0 %
Test CRC 7FDFC4F1
Copy CRC 7FDFC4F1
Accurately ripped (confidence 1) [EB6A0A78]
Copy OK

Track 20

Filename F:\eac\VA - The Road to Robert Johnson and Beyond\Disc A\20 - Lonnie Johnson - Life Saver Blues.wav

Pre-gap length 0:00:02.41

Peak level 89.0 %
Extraction speed 9.4 X
Track quality 99.9 %
Test CRC 64F634BA
Copy CRC 64F634BA
Accurately ripped (confidence 1) [48F27DDF]
Copy OK

Track 21

Filename F:\eac\VA - The Road to Robert Johnson and Beyond\Disc A\21 - Johnny Temple - The Evil Devil Blues.wav

Pre-gap length 0:00:02.41

Peak level 94.3 %
Extraction speed 11.3 X
Track quality 100.0 %
Test CRC 19AF6B9C
Copy CRC 19AF6B9C
Accurately ripped (confidence 1) [BD2B8148]
Copy OK

Track 22

Filename F:\eac\VA - The Road to Robert Johnson and Beyond\Disc A\22 - Leroy Carr - When The Sun Goes Down.wav

Pre-gap length 0:00:02.41

Peak level 94.3 %
Extraction speed 11.3 X
Track quality 100.0 %
Test CRC 73B1220C
Copy CRC 73B1220C
Accurately ripped (confidence 1) [EB500570]
Copy OK

Track 23

Filename F:\eac\VA - The Road to Robert Johnson and Beyond\Disc A\23 - Henry Thomas - Red River Blues.wav

Pre-gap length 0:00:02.41

Peak level 84.0 %
Extraction speed 9.9 X
Track quality 99.9 %
Test CRC ACBF2164
Copy CRC ACBF2164
Accurately ripped (confidence 1) [D7C57C15]
Copy OK

Track 24

Filename F:\eac\VA - The Road to Robert Johnson and Beyond\Disc A\24 - Blind Lemon Jefferson - Dry Southern Blues.wav

Pre-gap length 0:00:02.41

Peak level 94.3 %
Extraction speed 11.5 X
Track quality 100.0 %
Test CRC BDF86664
Copy CRC BDF86664
Accurately ripped (confidence 1) [DD74157E]
Copy OK

Track 25

Filename F:\eac\VA - The Road to Robert Johnson and Beyond\Disc A\25 - Mississippi Sheiks - Show Me What You Got.wav

Pre-gap length 0:00:02.41

Peak level 89.0 %
Extraction speed 11.7 X
Track quality 100.0 %
Test CRC 4440F838
Copy CRC 4440F838
Accurately ripped (confidence 1) [AD1DD926]
Copy OK


All tracks accurately ripped

No errors occurred

End of status report

==== Log checksum FD2C2601A52EEA708355C3EC12D821B712C83AE76C5533C99478F224CFA0C7FF ====


[CUETools log; Date: 5/4/2014 5:48:12 PM; Version: 2.1.4]
[CTDB TOCID: g.QkeLkUd4kntUQGARGZpmbMn74-] found.
Track | CTDB Status
1 | (4/4) Accurately ripped
2 | (4/4) Accurately ripped
3 | (4/4) Accurately ripped
4 | (4/4) Accurately ripped
5 | (4/4) Accurately ripped
6 | (4/4) Accurately ripped
7 | (4/4) Accurately ripped
8 | (4/4) Accurately ripped
9 | (4/4) Accurately ripped
10 | (4/4) Accurately ripped
11 | (4/4) Accurately ripped
12 | (4/4) Accurately ripped
13 | (4/4) Accurately ripped
14 | (4/4) Accurately ripped
15 | (4/4) Accurately ripped
16 | (4/4) Accurately ripped
17 | (4/4) Accurately ripped
18 | (4/4) Accurately ripped
19 | (4/4) Accurately ripped
20 | (4/4) Accurately ripped
21 | (4/4) Accurately ripped
22 | (4/4) Accurately ripped
23 | (3/4) Accurately ripped, or (1/4) differs in 6154 samples @00:38:21,00:38:63,00:39:09-00:39:10,00:39:30-00:39:31,00:39:51-00:39:52,00:39:72-00:39:73,00:40:18-00:40:19,00:40:39,00:40:60-00:40:61,00:41:06-00:41:07,00:43:03-00:43:04,00:43:25,00:43:46,00:43:67,00:44:13-00:44:14,00:44:34,00:44:55-00:44:56,00:45:01-00:45:02,00:45:22-00:45:23,00:45:43-00:45:44,00:45:64-00:45:65,00:46:10-00:46:11,00:46:31-00:46:32,00:46:52-00:46:53,00:46:73-00:46:74,00:47:19-00:47:20,00:47:40-00:47:41,00:47:61-00:47:62,00:48:08-00:48:09,00:48:29-00:48:30,00:48:50-00:48:51,00:48:71-00:48:72,00:49:17-00:49:18,00:49:38-00:49:39,00:49:59-00:49:60,00:50:05-00:50:06,00:50:26-00:50:27,00:50:47-00:50:48,00:50:68-00:50:69,00:51:14-00:51:15,00:51:36,00:51:57,00:52:67
24 | (4/4) Accurately ripped
25 | (4/4) Accurately ripped
[AccurateRip ID: 004419c3-04ca9863-6f11e719] found.
Track [ CRC | V2 ] Status
01 [c19cf46b|c2104e64] (1+0/1) Accurately ripped
02 [1746d858|0fd6aca1] (1+0/1) Accurately ripped
03 [cd021c51|36ed33d4] (1+0/1) Accurately ripped
04 [aabc347d|c3ea1352] (1+0/1) Accurately ripped
05 [2d58df15|93d72c50] (1+0/1) Accurately ripped
06 [bdfcc39f|7824f15e] (1+0/1) Accurately ripped
07 [7bbd596e|e49a272b] (1+0/1) Accurately ripped
08 [bfef4029|01975720] (1+0/1) Accurately ripped
09 [8400c169|57e18cb7] (1+0/1) Accurately ripped
10 [7a2b8b3d|ee84cd84] (1+0/1) Accurately ripped
11 [8d50d899|90c9fe2b] (1+0/1) Accurately ripped
12 [f6b4656a|cd4d3f5f] (1+0/1) Accurately ripped
13 [be6b0b4d|39a09a32] (1+0/1) Accurately ripped
14 [53decbd3|f915bc0e] (1+0/1) Accurately ripped
15 [18900873|b0f18df5] (1+0/1) Accurately ripped
16 [b3deeeb3|3d529812] (1+0/1) Accurately ripped
17 [4dbed9bc|99db15bf] (1+0/1) Accurately ripped
18 [5a18b976|f919495c] (1+0/1) Accurately ripped
19 [eb6a0a78|530c1578] (1+0/1) Accurately ripped
20 [48f27ddf|9e653da1] (1+0/1) Accurately ripped
21 [bd2b8148|e3b1e248] (1+0/1) Accurately ripped
22 [eb500570|262b60ee] (1+0/1) Accurately ripped
23 [d7c57c15|857b48f9] (1+0/1) Accurately ripped
24 [dd74157e|c0dd043f] (1+0/1) Accurately ripped
25 [ad1dd926|a633643e] (1+0/1) Accurately ripped

Track Peak [ CRC32 ] [W/O NULL] [ LOG ]
– 94.3 [48F25E4E] [C4C67A15]
01 94.3 [E7E1CC40] [58C54D39] CRC32
02 94.2 [6596EFEC] [DCD4AC4C] CRC32
03 94.3 [581A7D1E] [AF20471C] CRC32
04 89.0 [F53A8510] [8C38448E] CRC32
05 94.2 [22B2ED9B] [AE5F67A6] CRC32
06 84.0 [A8E9D0B0] [FB8ABEB8] CRC32
07 94.2 [CF9CA516] [90C67446] CRC32
08 94.3 [CE454086] [9516F578] CRC32
09 89.0 [5AFFFCD6] [003041B7] CRC32
10 94.2 [374A3A29] [59520CA7] CRC32
11 94.3 [21ECC269] [148944FD] CRC32
12 74.9 [D8E09072] [6555BBEE] CRC32
13 94.2 [485FF74C] [102248D7] CRC32
14 94.2 [B7484EAA] [F021E4B7] CRC32
15 74.9 [D25CE2B4] [8AE7016C] CRC32
16 94.3 [FF9BC715] [88462FB4] CRC32
17 94.3 [EE6DEF57] [6665A29F] CRC32
18 88.9 [0368D5E2] [2C4EF1A3] CRC32
19 89.0 [7FDFC4F1] [3121F8EB] CRC32
20 89.0 [64F634BA] [9CF9C097] CRC32
21 94.3 [19AF6B9C] [4AE0BFA6] CRC32
22 94.3 [73B1220C] [78FCDDE3] CRC32
23 84.0 [ACBF2164] [ECB2A039] CRC32
24 94.3 [BDF86664] [6FE24488] CRC32
25 89.0 [4440F838] [D29564E6] CRC32


CD2 - Disc B

01. Robert Johnson - Kind Hearted Woman Blues - 2:53
02. Robert Johnson - I Believe I'll Dust My Broom - 2:59
03. Robert Johnson - Sweet Home Chicago - 2:59
04. Robert Johnson - Ramblin' On My Mind - 2:52
05. Robert Johnson - When You Got A Good Friend - 2:52
06. Robert Johnson - Come On In My Kitchen - 2:45
07. Robert Johnson - Terraplane Blues - 3:01
08. Robert Johnson - Phonograph Blues - 2:40
09. Robert Johnson - 32-20 Blues - 2:50
10. Robert Johnson - They're Red Hot - 2:59
11. Robert Johnson - Dead Shrimp Blues - 2:32
12. Robert Johnson - Cross Road Blues - 2:40
13. Robert Johnson - Walkin' Blues - 2:30
14. Robert Johnson - Last Fair Deal Gone Down - 2:39
15. Robert Johnson - Preachin' Blues - 2:51
16. Robert Johnson - If I Had Possession Over Judgement Day - 2:36
17. Robert Johnson - Stones In My Passway - 2:28
18. Robert Johnson - I'm A Steady Rollin' Man - 2:37
19. Robert Johnson - From Four Until Late - 2:25
20. Robert Johnson - Hell Hound On My Trail - 2:37
21. Robert Johnson - Little Queen Of Spades - 2:19
22. Robert Johnson - Malted Milk - 2:22
23. Robert Johnson - Drunken Hearted Man - 2:28
24. Robert Johnson - Me And The Devil Blues - 2:35
25. Robert Johnson - Stop Breakin' Down Blues - 2:23
26. Robert Johnson - Travelin' Riverside Blues - 2:46
27. Robert Johnson - Honeymoon Blues - 2:18
28. Robert Johnson - Love In Vain - 2:18
29. Robert Johnson - Milkcow's Calf Blues - 2:22


Exact Audio Copy V1.0 beta 1 from 15. November 2010

EAC extraction logfile from 19. March 2011, 3:39

Various / The Road To Robert Johnson And Beyond - Disc B

Used drive : LITE-ON CD-RW SOHR-5238S Adapter: 6 ID: 3

Read mode : Secure
Utilize accurate stream : Yes
Defeat audio cache : Yes
Make use of C2 pointers : No

Read offset correction : 6
Overread into Lead-In and Lead-Out : No
Fill up missing offset samples with silence : Yes
Delete leading and trailing silent blocks : No
Null samples used in CRC calculations : Yes
Used interface : Installed external ASPI interface
Gap handling : Appended to previous track

Used output format : Internal WAV Routines
Sample format : 44.100 Hz; 16 Bit; Stereo


TOC of the extracted CD

Track | Start | Length | Start sector | End sector
––––––––––––––––––––––––––––-
1 | 0:00.00 | 2:53.07 | 0 | 12981
2 | 2:53.07 | 2:59.70 | 12982 | 26476
3 | 5:53.02 | 2:59.19 | 26477 | 39920
4 | 8:52.21 | 2:52.68 | 39921 | 52888
5 | 11:45.14 | 2:52.72 | 52889 | 65860
6 | 14:38.11 | 2:45.23 | 65861 | 78258
7 | 17:23.34 | 3:01.30 | 78259 | 91863
8 | 20:24.64 | 2:40.34 | 91864 | 103897
9 | 23:05.23 | 2:50.11 | 103898 | 116658
10 | 25:55.34 | 2:59.02 | 116659 | 130085
11 | 28:54.36 | 2:32.02 | 130086 | 141487
12 | 31:26.38 | 2:40.44 | 141488 | 153531
13 | 34:07.07 | 2:30.38 | 153532 | 164819
14 | 36:37.45 | 2:39.46 | 164820 | 176790
15 | 39:17.16 | 2:51.24 | 176791 | 189639
16 | 42:08.40 | 2:36.00 | 189640 | 201339
17 | 44:44.40 | 2:28.70 | 201340 | 212509
18 | 47:13.35 | 2:37.32 | 212510 | 224316
19 | 49:50.67 | 2:25.22 | 224317 | 235213
20 | 52:16.14 | 2:37.01 | 235214 | 246989
21 | 54:53.15 | 2:19.05 | 246990 | 257419
22 | 57:12.20 | 2:22.59 | 257420 | 268128
23 | 59:35.04 | 2:28.12 | 268129 | 279240
24 | 62:03.16 | 2:35.33 | 279241 | 290898
25 | 64:38.49 | 2:23.50 | 290899 | 301673
26 | 67:02.24 | 2:46.44 | 301674 | 314167
27 | 69:48.68 | 2:18.42 | 314168 | 324559
28 | 72:07.35 | 2:18.17 | 324560 | 334926
29 | 74:25.52 | 2:22.02 | 334927 | 345578


Track 1

Filename F:\eac\VA - The Road to Robert Johnson and Beyond\Disc B\01 - Robert Johnson - Kind Hearted Woman Blues.wav

Pre-gap length 0:00:02.00

Peak level 89.0 %
Extraction speed 5.7 X
Track quality 100.0 %
Test CRC 64C4239E
Copy CRC 64C4239E
Accurately ripped (confidence 1) [DB9589D3]
Copy OK

Track 2

Filename F:\eac\VA - The Road to Robert Johnson and Beyond\Disc B\02 - Robert Johnson - I Believe I'll Dust My Broom.wav

Pre-gap length 0:00:02.41

Peak level 94.3 %
Extraction speed 6.1 X
Track quality 100.0 %
Test CRC 88FBB744
Copy CRC 88FBB744
Accurately ripped (confidence 1) [0A822983]
Copy OK

Track 3

Filename F:\eac\VA - The Road to Robert Johnson and Beyond\Disc B\03 - Robert Johnson - Sweet Home Chicago.wav

Pre-gap length 0:00:02.41

Peak level 86.6 %
Extraction speed 6.5 X
Track quality 100.0 %
Test CRC B8D98118
Copy CRC B8D98118
Accurately ripped (confidence 1) [F1B41AA7]
Copy OK

Track 4

Filename F:\eac\VA - The Road to Robert Johnson and Beyond\Disc B\04 - Robert Johnson - Ramblin' On My Mind.wav

Pre-gap length 0:00:02.41

Peak level 94.3 %
Extraction speed 6.8 X
Track quality 100.0 %
Test CRC 552C02DC
Copy CRC 552C02DC
Accurately ripped (confidence 1) [B67F3EFF]
Copy OK

Track 5

Filename F:\eac\VA - The Road to Robert Johnson and Beyond\Disc B\05 - Robert Johnson - When You Got A Good Friend.wav

Pre-gap length 0:00:02.41

Peak level 88.9 %
Extraction speed 7.1 X
Track quality 100.0 %
Test CRC D46CFEDE
Copy CRC D46CFEDE
Accurately ripped (confidence 1) [B99C935D]
Copy OK

Track 6

Filename F:\eac\VA - The Road to Robert Johnson and Beyond\Disc B\06 - Robert Johnson - Come On In My Kitchen.wav

Pre-gap length 0:00:02.41

Peak level 84.0 %
Extraction speed 7.5 X
Track quality 100.0 %
Test CRC AD54A5E0
Copy CRC AD54A5E0
Accurately ripped (confidence 1) [A48A8C1F]
Copy OK

Track 7

Filename F:\eac\VA - The Road to Robert Johnson and Beyond\Disc B\07 - Robert Johnson - Terraplane Blues.wav

Pre-gap length 0:00:02.41

Peak level 84.0 %
Extraction speed 7.8 X
Track quality 100.0 %
Test CRC 270DAE88
Copy CRC 270DAE88
Accurately ripped (confidence 1) [8DA76A5F]
Copy OK

Track 8

Filename F:\eac\VA - The Road to Robert Johnson and Beyond\Disc B\08 - Robert Johnson - Phonograph Blues.wav

Pre-gap length 0:00:02.40

Peak level 89.0 %
Extraction speed 7.9 X
Track quality 100.0 %
Test CRC 9E3653E5
Copy CRC 9E3653E5
Accurately ripped (confidence 1) [9060A82F]
Copy OK

Track 9

Filename F:\eac\VA - The Road to Robert Johnson and Beyond\Disc B\09 - Robert Johnson - 32-20 Blues.wav

Pre-gap length 0:00:02.41

Peak level 94.3 %
Extraction speed 8.3 X
Track quality 100.0 %
Test CRC 36CA4959
Copy CRC 36CA4959
Accurately ripped (confidence 1) [62155327]
Copy OK

Track 10

Filename F:\eac\VA - The Road to Robert Johnson and Beyond\Disc B\10 - Robert Johnson - They're Red Hot.wav

Pre-gap length 0:00:02.41

Peak level 94.2 %
Extraction speed 8.7 X
Track quality 100.0 %
Test CRC E13BDAF5
Copy CRC E13BDAF5
Accurately ripped (confidence 1) [6320B369]
Copy OK

Track 11

Filename F:\eac\VA - The Road to Robert Johnson and Beyond\Disc B\11 - Robert Johnson - Dead Shrimp Blues.wav

Pre-gap length 0:00:02.41

Peak level 89.0 %
Extraction speed 8.5 X
Track quality 100.0 %
Test CRC F3DAB5ED
Copy CRC F3DAB5ED
Accurately ripped (confidence 1) [BFA7C79E]
Copy OK

Track 12

Filename F:\eac\VA - The Road to Robert Johnson and Beyond\Disc B\12 - Robert Johnson - Cross Road Blues.wav

Pre-gap length 0:00:02.41

Peak level 94.3 %
Extraction speed 8.9 X
Track quality 100.0 %
Test CRC B8B69E5F
Copy CRC B8B69E5F
Accurately ripped (confidence 1) [77246FC0]
Copy OK

Track 13

Filename F:\eac\VA - The Road to Robert Johnson and Beyond\Disc B\13 - Robert Johnson - Walkin' Blues.wav

Pre-gap length 0:00:02.41

Peak level 88.9 %
Extraction speed 9.0 X
Track quality 100.0 %
Test CRC 630E4AAA
Copy CRC 630E4AAA
Accurately ripped (confidence 1) [6D49C505]
Copy OK

Track 14

Filename F:\eac\VA - The Road to Robert Johnson and Beyond\Disc B\14 - Robert Johnson - Last Fair Deal Gone Down.wav

Pre-gap length 0:00:02.41

Peak level 84.0 %
Extraction speed 9.3 X
Track quality 100.0 %
Test CRC BE0ECA33
Copy CRC BE0ECA33
Accurately ripped (confidence 1) [DF86C018]
Copy OK

Track 15

Filename F:\eac\VA - The Road to Robert Johnson and Beyond\Disc B\15 - Robert Johnson - Preachin' Blues.wav

Pre-gap length 0:00:02.41

Peak level 94.2 %
Extraction speed 8.2 X
Track quality 99.9 %
Test CRC DAF172E5
Copy CRC DAF172E5
Accurately ripped (confidence 1) [B6343B2F]
Copy OK

Track 16

Filename F:\eac\VA - The Road to Robert Johnson and Beyond\Disc B\16 - Robert Johnson - If I Had Possession Over Judgement Day.wav

Pre-gap length 0:00:02.41

Peak level 88.9 %
Extraction speed 9.5 X
Track quality 100.0 %
Test CRC D83107ED
Copy CRC D83107ED
Accurately ripped (confidence 1) [F0C65F81]
Copy OK

Track 17

Filename F:\eac\VA - The Road to Robert Johnson and Beyond\Disc B\17 - Robert Johnson - Stones In My Passway.wav

Pre-gap length 0:00:02.41

Peak level 84.0 %
Extraction speed 9.7 X
Track quality 100.0 %
Test CRC 02559226
Copy CRC 02559226
Accurately ripped (confidence 1) [0CBE3E35]
Copy OK

Track 18

Filename F:\eac\VA - The Road to Robert Johnson and Beyond\Disc B\18 - Robert Johnson - I'm A Steady Rollin' Man.wav

Pre-gap length 0:00:02.41

Peak level 84.0 %
Extraction speed 9.9 X
Track quality 100.0 %
Test CRC BB9050A8
Copy CRC BB9050A8
Accurately ripped (confidence 1) [22C19E82]
Copy OK

Track 19

Filename F:\eac\VA - The Road to Robert Johnson and Beyond\Disc B\19 - Robert Johnson - From Four Until Late.wav

Pre-gap length 0:00:02.41

Peak level 89.0 %
Extraction speed 9.9 X
Track quality 100.0 %
Test CRC DC161D26
Copy CRC DC161D26
Accurately ripped (confidence 1) [A7E28DC0]
Copy OK

Track 20

Filename F:\eac\VA - The Road to Robert Johnson and Beyond\Disc B\20 - Robert Johnson - Hell Hound On My Trail.wav

Pre-gap length 0:00:02.41

Peak level 79.3 %
Extraction speed 10.2 X
Track quality 100.0 %
Test CRC 73197B4D
Copy CRC 73197B4D
Accurately ripped (confidence 1) [481F95A3]
Copy OK

Track 21

Filename F:\eac\VA - The Road to Robert Johnson and Beyond\Disc B\21 - Robert Johnson - Little Queen Of Spades.wav

Pre-gap length 0:00:02.41

Peak level 94.3 %
Extraction speed 10.1 X
Track quality 100.0 %
Test CRC 710235E7
Copy CRC 710235E7
Accurately ripped (confidence 1) [82867C93]
Copy OK

Track 22

Filename F:\eac\VA - The Road to Robert Johnson and Beyond\Disc B\22 - Robert Johnson - Malted Milk.wav

Pre-gap length 0:00:02.41

Peak level 94.2 %
Extraction speed 8.6 X
Track quality 99.9 %
Test CRC 7466D58D
Copy CRC 7466D58D
Accurately ripped (confidence 1) [2B28E21A]
Copy OK

Track 23

Filename F:\eac\VA - The Road to Robert Johnson and Beyond\Disc B\23 - Robert Johnson - Drunken Hearted Man.wav

Pre-gap length 0:00:02.41

Peak level 94.3 %
Extraction speed 10.5 X
Track quality 100.0 %
Test CRC 1DCCFBD8
Copy CRC 1DCCFBD8
Accurately ripped (confidence 1) [FBF780D4]
Copy OK

Track 24

Filename F:\eac\VA - The Road to Robert Johnson and Beyond\Disc B\24 - Robert Johnson - Me And The Devil Blues.wav

Pre-gap length 0:00:02.41

Peak level 89.0 %
Extraction speed 10.7 X
Track quality 100.0 %
Test CRC 55D12FB7
Copy CRC 55D12FB7
Accurately ripped (confidence 1) [979900F3]
Copy OK

Track 25

Filename F:\eac\VA - The Road to Robert Johnson and Beyond\Disc B\25 - Robert Johnson - Stop Breakin' Down Blues.wav

Pre-gap length 0:00:02.41

Peak level 89.0 %
Extraction speed 10.9 X
Track quality 100.0 %
Test CRC 6CE9BC95
Copy CRC 6CE9BC95
Accurately ripped (confidence 1) [E79B25AF]
Copy OK

Track 26

Filename F:\eac\VA - The Road to Robert Johnson and Beyond\Disc B\26 - Robert Johnson - Travelin' Riverside Blues.wav

Pre-gap length 0:00:02.40

Peak level 89.0 %
Extraction speed 11.3 X
Track quality 100.0 %
Test CRC EEA032E1
Copy CRC EEA032E1
Accurately ripped (confidence 1) [E97A1E59]
Copy OK

Track 27

Filename F:\eac\VA - The Road to Robert Johnson and Beyond\Disc B\27 - Robert Johnson - Honeymoon Blues.wav

Pre-gap length 0:00:02.41

Peak level 89.0 %
Extraction speed 10.9 X
Track quality 100.0 %
Test CRC CF9BF000
Copy CRC CF9BF000
Accurately ripped (confidence 1) [B39C8EF5]
Copy OK

Track 28

Filename F:\eac\VA - The Road to Robert Johnson and Beyond\Disc B\28 - Robert Johnson - Love In Vain.wav

Pre-gap length 0:00:02.41

Peak level 88.9 %
Extraction speed 11.1 X
Track quality 100.0 %
Test CRC 3D00CF72
Copy CRC 3D00CF72
Accurately ripped (confidence 1) [1A55A89F]
Copy OK

Track 29

Filename F:\eac\VA - The Road to Robert Johnson and Beyond\Disc B\29 - Robert Johnson - Milkcow's Calf Blues.wav

Pre-gap length 0:00:02.41

Peak level 94.3 %
Extraction speed 11.0 X
Track quality 100.0 %
Test CRC 677426D1
Copy CRC 677426D1
Accurately ripped (confidence 1) [02F10F2F]
Copy OK


All tracks accurately ripped

No errors occurred

End of status report

==== Log checksum 64BE1C3977585EB4540D7656FC0F65190EF7D270CD598C0F68A74E105B99A674 ====


[CUETools log; Date: 5/4/2014 5:50:22 PM; Version: 2.1.4]
[CTDB TOCID: kKaBwkT7e9ZsyO4Q5jJE3bXWkTw-] found.
Track | CTDB Status
1 | (1/1) Accurately ripped
2 | (1/1) Accurately ripped
3 | (1/1) Accurately ripped
4 | (1/1) Accurately ripped
5 | (1/1) Accurately ripped
6 | (1/1) Accurately ripped
7 | (1/1) Accurately ripped
8 | (1/1) Accurately ripped
9 | (1/1) Accurately ripped
10 | (1/1) Accurately ripped
11 | (1/1) Accurately ripped
12 | (1/1) Accurately ripped
13 | (1/1) Accurately ripped
14 | (1/1) Accurately ripped
15 | (1/1) Accurately ripped
16 | (1/1) Accurately ripped
17 | (1/1) Accurately ripped
18 | (1/1) Accurately ripped
19 | (1/1) Accurately ripped
20 | (1/1) Accurately ripped
21 | (1/1) Accurately ripped
22 | (1/1) Accurately ripped
23 | (1/1) Accurately ripped
24 | (1/1) Accurately ripped
25 | (1/1) Accurately ripped
26 | (1/1) Accurately ripped
27 | (1/1) Accurately ripped
28 | (1/1) Accurately ripped
29 | (1/1) Accurately ripped
[AccurateRip ID: 00521ff7-06906737-d311ff1d] found.
Track [ CRC | V2 ] Status
01 [db9589d3|342a3811] (1+0/1) Accurately ripped
02 [0a822983|9d27f7d5] (1+0/1) Accurately ripped
03 [f1b41aa7|4d76e4d6] (1+0/1) Accurately ripped
04 [b67f3eff|a5ae6a1c] (1+0/1) Accurately ripped
05 [b99c935d|931b49ff] (1+0/1) Accurately ripped
06 [a48a8c1f|b5d90e04] (1+0/1) Accurately ripped
07 [8da76a5f|58a33577] (1+0/1) Accurately ripped
08 [9060a82f|3a4b2bde] (1+0/1) Accurately ripped
09 [62155327|5bf606e3] (1+0/1) Accurately ripped
10 [6320b369|645e1207] (1+0/1) Accurately ripped
11 [bfa7c79e|d3cd9580] (1+0/1) Accurately ripped
12 [77246fc0|f2afd7ed] (1+0/1) Accurately ripped
13 [6d49c505|c85d128e] (1+0/1) Accurately ripped
14 [df86c018|625195fe] (1+0/1) Accurately ripped
15 [b6343b2f|7d6cc4ed] (1+0/1) Accurately ripped
16 [f0c65f81|237396eb] (1+0/1) Accurately ripped
17 [0cbe3e35|a0d378a8] (1+0/1) Accurately ripped
18 [22c19e82|25af198b] (1+0/1) Accurately ripped
19 [a7e28dc0|b1bcc111] (1+0/1) Accurately ripped
20 [481f95a3|2eb84173] (1+0/1) Accurately ripped
21 [82867c93|58438668] (1+0/1) Accurately ripped
22 [2b28e21a|b41ca203] (1+0/1) Accurately ripped
23 [fbf780d4|5c7e70b9] (1+0/1) Accurately ripped
24 [979900f3|eea194c6] (1+0/1) Accurately ripped
25 [e79b25af|c96a6565] (1+0/1) Accurately ripped
26 [e97a1e59|60da45eb] (1+0/1) Accurately ripped
27 [b39c8ef5|7138c724] (1+0/1) Accurately ripped
28 [1a55a89f|48e3bd84] (1+0/1) Accurately ripped
29 [02f10f2f|0251f821] (1+0/1) Accurately ripped

Track Peak [ CRC32 ] [W/O NULL] [ LOG ]
– 94.3 [107104EE] [CB197252]
01 89.0 [64C4239E] [809BBDDB] CRC32
02 94.3 [88FBB744] [50E88A0E] CRC32
03 86.6 [B8D98118] [A6F5CFA8] CRC32
04 94.3 [552C02DC] [F9C378A3] CRC32
05 88.9 [D46CFEDE] [FBC53990] CRC32
06 84.0 [AD54A5E0] [1AA7FCB6] CRC32
07 84.0 [270DAE88] [4005C48E] CRC32
08 89.0 [9E3653E5] [72EC131A] CRC32
09 94.3 [36CA4959] [3BE8E0D5] CRC32
10 94.2 [E13BDAF5] [A1665D5E] CRC32
11 89.0 [F3DAB5ED] [708A40AB] CRC32
12 94.3 [B8B69E5F] [1D6A7FB1] CRC32
13 88.9 [630E4AAA] [4CCDAC3B] CRC32
14 84.0 [BE0ECA33] [2D9A4153] CRC32
15 94.2 [DAF172E5] [049CEDDF] CRC32
16 88.9 [D83107ED] [CBCCB7D4] CRC32
17 84.0 [02559226] [189FA433] CRC32
18 84.0 [BB9050A8] [3E4BA1AA] CRC32
19 89.0 [DC161D26] [2162A20B] CRC32
20 79.3 [73197B4D] [F95EAAF3] CRC32
21 94.3 [710235E7] [EAF2353B] CRC32
22 94.2 [7466D58D] [8D469591] CRC32
23 94.3 [1DCCFBD8] [0148DD2C] CRC32
24 89.0 [55D12FB7] [A3E6846C] CRC32
25 89.0 [6CE9BC95] [A006CC3A] CRC32
26 89.0 [EEA032E1] [61A4FFD1] CRC32
27 89.0 [CF9BF000] [3B85DF77] CRC32
28 88.9 [3D00CF72] [2E30A4D0] CRC32
29 94.3 [677426D1] [6E164A00] CRC32


CD3 - Disc C

01. Muddy Waters - Country Blues (No.1) - 3:26
02. Muddy Waters - I Be's Troubled - 3:05
03. Muddy Waters - Burr Clover Farm Blues - 2:55
04. Muddy Waters - Ramblin' Kid Blues - 3:18
05. Muddy Waters - Rosalie - 3:03
06. Muddy Waters - Take A Walk With Me - 3:02
07. Muddy Waters - Burr Clover Blues - 3:13
08. Muddy Waters - I Be Bound To Write To You (No.1) - 3:23
09. Muddy Waters - I Be Bound To Write To You (No.2) - 2:53
10. Muddy Waters - You're Gonna Miss Me When I'm Gone (No.1) - 3:23
11. Muddy Waters - You Got To Take Sick And Die Some Of These Days - 2:09
12. Muddy Waters - Why Don't You Live So God Can Use You - 2:09
13. Muddy Waters - Country Blues (No.2) - 3:35
14. Muddy Waters - You're Gonna Miss Me When I'm Gone (No.2) - 3:41
15. Muddy Waters - 32-20 Blues - 3:23
16. Robert Lockwood - Little Boy Blue - 3:05
17. Calvin Frazier - She's A Double-Crossin' Woman - 2:50
18. Robert Lee McCoy - Friar's Point Blues - 2:50
19. Big Joe Williams - I'm A Highway Man - 2:53
20. Johnny Shines - Evil Hearted Woman Blues - 2:48
21. Calvin Frazier - Lilly Mae (No.1) - 4:00
22. Johnny Shines - Ramblin' - 2:32
23. Honeyboy Edwards - Sweet Home Chicago - 3:00
24. Johnny Shines - Fishtail - 2:29
25. Little Walters - Muskadine Blues - 3:12


Exact Audio Copy V1.0 beta 1 from 15. November 2010

EAC extraction logfile from 19. March 2011, 4:29

Various / The Road To Robert Johnson And Beyond - Disc C

Used drive : LITE-ON CD-RW SOHR-5238S Adapter: 6 ID: 3

Read mode : Secure
Utilize accurate stream : Yes
Defeat audio cache : Yes
Make use of C2 pointers : No

Read offset correction : 6
Overread into Lead-In and Lead-Out : No
Fill up missing offset samples with silence : Yes
Delete leading and trailing silent blocks : No
Null samples used in CRC calculations : Yes
Used interface : Installed external ASPI interface
Gap handling : Appended to previous track

Used output format : Internal WAV Routines
Sample format : 44.100 Hz; 16 Bit; Stereo


TOC of the extracted CD

Track | Start | Length | Start sector | End sector
––––––––––––––––––––––––––––-
1 | 0:00.00 | 3:26.71 | 0 | 15520
2 | 3:26.71 | 3:05.69 | 15521 | 29464
3 | 6:32.65 | 2:55.64 | 29465 | 42653
4 | 9:28.54 | 3:18.39 | 42654 | 57542
5 | 12:47.18 | 3:03.62 | 57543 | 71329
6 | 15:51.05 | 3:02.38 | 71330 | 85017
7 | 18:53.43 | 3:13.03 | 85018 | 99495
8 | 22:06.46 | 3:23.39 | 99496 | 114759
9 | 25:30.10 | 2:53.65 | 114760 | 127799
10 | 28:24.00 | 3:23.23 | 127800 | 143047
11 | 31:47.23 | 2:09.03 | 143048 | 152725
12 | 33:56.26 | 2:09.11 | 152726 | 162411
13 | 36:05.37 | 3:35.69 | 162412 | 178605
14 | 39:41.31 | 3:41.33 | 178606 | 195213
15 | 43:22.64 | 3:23.58 | 195214 | 210496
16 | 46:46.47 | 3:05.34 | 210497 | 224405
17 | 49:52.06 | 2:50.30 | 224406 | 237185
18 | 52:42.36 | 2:50.68 | 237186 | 250003
19 | 55:33.29 | 2:53.09 | 250004 | 262987
20 | 58:26.38 | 2:48.74 | 262988 | 275661
21 | 61:15.37 | 4:00.00 | 275662 | 293661
22 | 65:15.37 | 2:32.00 | 293662 | 305061
23 | 67:47.37 | 3:00.29 | 305062 | 318590
24 | 70:47.66 | 2:29.59 | 318591 | 329824
25 | 73:17.50 | 3:12.16 | 329825 | 344240


Track 1

Filename F:\eac\VA - The Road to Robert Johnson and Beyond\Disc C\01 - Muddy Waters - Country Blues (No.1).wav

Pre-gap length 0:00:02.00

Peak level 94.3 %
Extraction speed 3.9 X
Track quality 100.0 %
Test CRC 76CAB551
Copy CRC 76CAB551
Accurately ripped (confidence 1) [E5D82D36]
Copy OK

Track 2

Filename F:\eac\VA - The Road to Robert Johnson and Beyond\Disc C\02 - Muddy Waters - I Be's Troubled.wav

Pre-gap length 0:00:02.41

Peak level 94.3 %
Extraction speed 4.1 X
Track quality 100.0 %
Test CRC 6952F195
Copy CRC 6952F195
Accurately ripped (confidence 1) [D2DAF0B2]
Copy OK

Track 3

Filename F:\eac\VA - The Road to Robert Johnson and Beyond\Disc C\03 - Muddy Waters - Burr Clover Farm Blues.wav

Pre-gap length 0:00:02.41

Peak level 91.3 %
Extraction speed 4.3 X
Track quality 100.0 %
Test CRC 2EA2863B
Copy CRC 2EA2863B
Accurately ripped (confidence 1) [4DFF1FD5]
Copy OK

Track 4

Filename F:\eac\VA - The Road to Robert Johnson and Beyond\Disc C\04 - Muddy Waters - Ramblin' Kid Blues.wav

Pre-gap length 0:00:02.41

Peak level 84.0 %
Extraction speed 4.7 X
Track quality 100.0 %
Test CRC 0EC29A4B
Copy CRC 0EC29A4B
Accurately ripped (confidence 1) [FD402E0F]
Copy OK

Track 5

Filename F:\eac\VA - The Road to Robert Johnson and Beyond\Disc C\05 - Muddy Waters - Rosalie.wav

Pre-gap length 0:00:02.41

Peak level 94.3 %
Extraction speed 4.8 X
Track quality 100.0 %
Test CRC C5F0A139
Copy CRC C5F0A139
Accurately ripped (confidence 1) [B1BE7E11]
Copy OK

Track 6

Filename F:\eac\VA - The Road to Robert Johnson and Beyond\Disc C\06 - Muddy Waters - Take A Walk With Me.wav

Pre-gap length 0:00:02.40

Peak level 89.0 %
Extraction speed 5.0 X
Track quality 100.0 %
Test CRC 18D4B429
Copy CRC 18D4B429
Accurately ripped (confidence 1) [F69CE302]
Copy OK

Track 7

Filename F:\eac\VA - The Road to Robert Johnson and Beyond\Disc C\07 - Muddy Waters - Burr Clover Blues.wav

Pre-gap length 0:00:02.41

Peak level 94.3 %
Extraction speed 5.3 X
Track quality 100.0 %
Test CRC E6DF5DCC
Copy CRC E6DF5DCC
Accurately ripped (confidence 1) [695ED778]
Copy OK

Track 8

Filename F:\eac\VA - The Road to Robert Johnson and Beyond\Disc C\08 - Muddy Waters - I Be Bound To Write To You (No.1).wav

Pre-gap length 0:00:02.41

Peak level 89.0 %
Extraction speed 4.8 X
Track quality 99.9 %
Test CRC 3857B6BA
Copy CRC 3857B6BA
Accurately ripped (confidence 1) [B2BD62D1]
Copy OK

Track 9

Filename F:\eac\VA - The Road to Robert Johnson and Beyond\Disc C\09 - Muddy Waters - I Be Bound To Write To You (No.2).wav

Pre-gap length 0:00:02.41

Peak level 94.3 %
Extraction speed 5.6 X
Track quality 100.0 %
Test CRC 8BD3AD5D
Copy CRC 8BD3AD5D
Accurately ripped (confidence 1) [11693348]
Copy OK

Track 10

Filename F:\eac\VA - The Road to Robert Johnson and Beyond\Disc C\10 - Muddy Waters - You're Gonna Miss Me When I'm Gone (No.1).wav

Pre-gap length 0:00:02.41

Peak level 94.3 %
Extraction speed 5.9 X
Track quality 100.0 %
Test CRC A3A68820
Copy CRC A3A68820
Accurately ripped (confidence 1) [F78D89E7]
Copy OK

Track 11

Filename F:\eac\VA - The Road to Robert Johnson and Beyond\Disc C\11 - Muddy Waters - You Got To Take Sick And Die Some Of These Days.wav

Pre-gap length 0:00:02.41

Peak level 94.3 %
Extraction speed 5.6 X
Track quality 100.0 %
Test CRC DA52423A
Copy CRC DA52423A
Accurately ripped (confidence 1) [999627D3]
Copy OK

Track 12

Filename F:\eac\VA - The Road to Robert Johnson and Beyond\Disc C\12 - Muddy Waters - Why Don't You Live So God Can Use You.wav

Pre-gap length 0:00:02.41

Peak level 89.0 %
Extraction speed 4.7 X
Track quality 99.9 %
Test CRC 78C35BEF
Copy CRC 78C35BEF
Accurately ripped (confidence 1) [B9BEFEA9]
Copy OK

Track 13

Filename F:\eac\VA - The Road to Robert Johnson and Beyond\Disc C\13 - Muddy Waters - Country Blues (No.2).wav

Pre-gap length 0:00:02.41

Peak level 94.3 %
Extraction speed 6.5 X
Track quality 100.0 %
Test CRC D6B6A340
Copy CRC D6B6A340
Accurately ripped (confidence 1) [7016EAB4]
Copy OK

Track 14

Filename F:\eac\VA - The Road to Robert Johnson and Beyond\Disc C\14 - Muddy Waters - You're Gonna Miss Me When I'm Gone (No.2).wav

Pre-gap length 0:00:02.41

Peak level 94.2 %
Extraction speed 6.8 X
Track quality 100.0 %
Test CRC 7F97E4A2
Copy CRC 7F97E4A2
Accurately ripped (confidence 1) [6B45D605]
Copy OK

Track 15

Filename F:\eac\VA - The Road to Robert Johnson and Beyond\Disc C\15 - Muddy Waters - 32-20 Blues.wav

Pre-gap length 0:00:02.41

Peak level 89.0 %
Extraction speed 6.7 X
Track quality 100.0 %
Test CRC 611B9CE4
Copy CRC 611B9CE4
Accurately ripped (confidence 1) [10A30374]
Copy OK

Track 16

Filename F:\eac\VA - The Road to Robert Johnson and Beyond\Disc C\16 - Robert Lockwood - Little Boy Blue.wav

Pre-gap length 0:00:02.41

Peak level 66.7 %
Extraction speed 6.9 X
Track quality 100.0 %
Test CRC 3482975E
Copy CRC 3482975E
Accurately ripped (confidence 1) [2A433CE0]
Copy OK

Track 17

Filename F:\eac\VA - The Road to Robert Johnson and Beyond\Disc C\17 - Calvin Frazier - She's A Double-Crossin' Woman.wav

Pre-gap length 0:00:02.41

Peak level 94.3 %
Extraction speed 6.9 X
Track quality 100.0 %
Test CRC 791A9F64
Copy CRC 791A9F64
Accurately ripped (confidence 1) [DEC6AAA7]
Copy OK

Track 18

Filename F:\eac\VA - The Road to Robert Johnson and Beyond\Disc C\18 - Robert Lee McCoy - Friar's Point Blues.wav

Pre-gap length 0:00:02.41

Peak level 66.7 %
Extraction speed 7.0 X
Track quality 100.0 %
Test CRC 292C45E4
Copy CRC 292C45E4
Accurately ripped (confidence 1) [4A2A4990]
Copy OK

Track 19

Filename F:\eac\VA - The Road to Robert Johnson and Beyond\Disc C\19 - Big Joe Williams - I'm A Highway Man.wav

Pre-gap length 0:00:02.41

Peak level 79.3 %
Extraction speed 7.2 X
Track quality 100.0 %
Test CRC DFA1B2AA
Copy CRC DFA1B2AA
Accurately ripped (confidence 1) [1EC40C04]
Copy OK

Track 20

Filename F:\eac\VA - The Road to Robert Johnson and Beyond\Disc C\20 - Johnny Shines - Evil Hearted Woman Blues.wav

Pre-gap length 0:00:02.41

Peak level 89.0 %
Extraction speed 6.1 X
Track quality 99.9 %
Test CRC 59F918FE
Copy CRC 59F918FE
Accurately ripped (confidence 1) [D15043FC]
Copy OK

Track 21

Filename F:\eac\VA - The Road to Robert Johnson and Beyond\Disc C\21 - Calvin Frazier - Lilly Mae (No.1).wav

Pre-gap length 0:00:02.41

Peak level 94.3 %
Extraction speed 7.9 X
Track quality 100.0 %
Test CRC 6D8E5E4A
Copy CRC 6D8E5E4A
Accurately ripped (confidence 1) [68FDC829]
Copy OK

Track 22

Filename F:\eac\VA - The Road to Robert Johnson and Beyond\Disc C\22 - Johnny Shines - Ramblin'.wav

Pre-gap length 0:00:02.41

Peak level 74.9 %
Extraction speed 7.4 X
Track quality 100.0 %
Test CRC D140C846
Copy CRC D140C846
Accurately ripped (confidence 1) [A4E8CB60]
Copy OK

Track 23

Filename F:\eac\VA - The Road to Robert Johnson and Beyond\Disc C\23 - Honeyboy Edwards - Sweet Home Chicago.wav

Pre-gap length 0:00:02.41

Peak level 84.0 %
Extraction speed 7.7 X
Track quality 100.0 %
Test CRC 0478190E
Copy CRC 0478190E
Accurately ripped (confidence 1) [A0E6E789]
Copy OK

Track 24

Filename F:\eac\VA - The Road to Robert Johnson and Beyond\Disc C\24 - Johnny Shines - Fishtail.wav

Pre-gap length 0:00:02.41

Peak level 94.2 %
Extraction speed 7.5 X
Track quality 100.0 %
Test CRC 04318C13
Copy CRC 04318C13
Accurately ripped (confidence 1) [EF55B360]
Copy OK

Track 25

Filename F:\eac\VA - The Road to Robert Johnson and Beyond\Disc C\25 - Little Walters - Muskadine Blues.wav

Pre-gap length 0:00:02.41

Peak level 89.0 %
Extraction speed 8.1 X
Track quality 100.0 %
Test CRC 209EC3C3
Copy CRC 209EC3C3
Accurately ripped (confidence 1) [C188F23D]
Copy OK


All tracks accurately ripped

No errors occurred

End of status report

==== Log checksum 92A01F965661C6AA5D27AFB1A675803599F066920C8241D66B0A2CF286600DAD ====


[CUETools log; Date: 5/4/2014 5:56:17 PM; Version: 2.1.4]
[CTDB TOCID: lN0LEvTwDCpl0uj6aZkB9fqOii0-] found.
Track | CTDB Status
1 | (3/3) Accurately ripped
2 | (3/3) Accurately ripped
3 | (3/3) Accurately ripped
4 | (3/3) Accurately ripped
5 | (3/3) Accurately ripped
6 | (3/3) Accurately ripped
7 | (3/3) Accurately ripped
8 | (3/3) Accurately ripped
9 | (3/3) Accurately ripped
10 | (3/3) Accurately ripped
11 | (3/3) Accurately ripped
12 | (3/3) Accurately ripped
13 | (3/3) Accurately ripped
14 | (3/3) Accurately ripped
15 | (3/3) Accurately ripped
16 | (3/3) Accurately ripped
17 | (3/3) Accurately ripped
18 | (3/3) Accurately ripped
19 | (3/3) Accurately ripped
20 | (3/3) Accurately ripped
21 | (3/3) Accurately ripped
22 | (3/3) Accurately ripped
23 | (3/3) Accurately ripped
24 | (3/3) Accurately ripped
25 | (3/3) Accurately ripped
[AccurateRip ID: 00451665-04d7612a-8d11ed19] found.
Track [ CRC | V2 ] Status
01 [e5d82d36|08b7ab5d] (1+0/1) Accurately ripped
02 [d2daf0b2|b1a816b3] (1+0/1) Accurately ripped
03 [4dff1fd5|a0cb5d5c] (1+0/1) Accurately ripped
04 [fd402e0f|84aab001] (1+0/1) Accurately ripped
05 [b1be7e11|533c6564] (1+0/1) Accurately ripped
06 [f69ce302|33b6b87a] (1+0/1) Accurately ripped
07 [695ed778|6f917121] (1+0/1) Accurately ripped
08 [b2bd62d1|fbb07d3c] (1+0/1) Accurately ripped
09 [11693348|05fb90d6] (1+0/1) Accurately ripped
10 [f78d89e7|0f76ac35] (1+0/1) Accurately ripped
11 [999627d3|4578d3b2] (1+0/1) Accurately ripped
12 [b9befea9|f3f2786e] (1+0/1) Accurately ripped
13 [7016eab4|32ffba7a] (1+0/1) Accurately ripped
14 [6b45d605|ff9c9a2e] (1+0/1) Accurately ripped
15 [10a30374|7d64e6f2] (1+0/1) Accurately ripped
16 [2a433ce0|dfda5d47] (1+0/1) Accurately ripped
17 [dec6aaa7|85d71ba0] (1+0/1) Accurately ripped
18 [4a2a4990|eafe611c] (1+0/1) Accurately ripped
19 [1ec40c04|1208bb60] (1+0/1) Accurately ripped
20 [d15043fc|781c89f3] (1+0/1) Accurately ripped
21 [68fdc829|bfc8e000] (1+0/1) Accurately ripped
22 [a4e8cb60|048dc9f6] (1+0/1) Accurately ripped
23 [a0e6e789|53808735] (1+0/1) Accurately ripped
24 [ef55b360|f4b677a9] (1+0/1) Accurately ripped
25 [c188f23d|842a8a05] (1+0/1) Accurately ripped

Track Peak [ CRC32 ] [W/O NULL] [ LOG ]
– 94.3 [E2B6DF9A] [88684AF3]
01 94.3 [76CAB551] [FF97296D] CRC32
02 94.3 [6952F195] [4E8183C8] CRC32
03 91.3 [2EA2863B] [2CB84A55] CRC32
04 84.0 [0EC29A4B] [FD652159] CRC32
05 94.3 [C5F0A139] [4B20A272] CRC32
06 89.0 [18D4B429] [F0514B40] CRC32
07 94.3 [E6DF5DCC] [B1601887] CRC32
08 89.0 [3857B6BA] [B1471FF7] CRC32
09 94.3 [8BD3AD5D] [A38BFC8A] CRC32
10 94.3 [A3A68820] [1B83A5E7] CRC32
11 94.3 [DA52423A] [C4C1303F] CRC32
12 89.0 [78C35BEF] [32309B70] CRC32
13 94.3 [D6B6A340] [2C9BAA46] CRC32
14 94.2 [7F97E4A2] [B12BCB4E] CRC32
15 89.0 [611B9CE4] [230D946D] CRC32
16 66.7 [3482975E] [766D5EF3] CRC32
17 94.3 [791A9F64] [A0A2E213] CRC32
18 66.7 [292C45E4] [571E37A5] CRC32
19 79.3 [DFA1B2AA] [0273BBE0] CRC32
20 89.0 [59F918FE] [20B9FFF3] CRC32
21 94.3 [6D8E5E4A] [92BA6E1F] CRC32
22 74.9 [D140C846] [4FB9B0A8] CRC32
23 84.0 [0478190E] [1863CBC8] CRC32
24 94.2 [04318C13] [A5730C08] CRC32
25 89.0 [209EC3C3] [6A460969] CRC32


CD4 - Disc D

01. Elmore James - Dust My Broom - 2:47
02. Homesick James - Long Lonesome Day - 2:25
03. 'Baby Face' Leroy Foster - Rollin' & Tumblin' (Parts 1&2) - 5:28
04. Homesick James - Johnnie Mae - 2:47
05. Baby Boy Warren - Stop Breaking My Heart - 2:35
06. Elmore James - Standing At The Crossroads - 2:47
07. Homesick James - Lonesome Blues - 2:21
08. Homesick James - Homesick - 3:07
09. Elmore James - I Believe - 3:16
10. Johnny Shines - Rambling Blues - 2:33
11. Johnny Shines - Maggie Lee Blues - 6:26
12. Johnny Shines - You're The One That I Love - 3:52
13. Johnny Shines - Sweet Home Chicago - 3:29
14. Johnny Shines - Shake 'Em On Down - 3:39
15. Johnny Shines - Moanin' & Groanin' The Blues - 5:24
16. Blind Will Dukes - Terraplane Blues - 3:04
17. Blind Will Dukes - Dead Shrimp Blues - 2:31
18. Blind Will Dukes - Steady Rollin' Man - 2:22
19. Blind Will Dukes - Me And The Devil - 2:20
20. Blind Will Dukes - Mean Hearted Woman - 2:29
21. Blind Will Dukes - Ramblin' Blues - 1:31
22. Blind Will Dukes - Hobo Blues - 1:41
23. Blind Will Dukes - Milk Cow Blues - 2:02
24. Blind Will Dukes - Mistreated So Long - 1:43
25. Blind Will Dukes - Sail On Little Woman - 2:06
26. Blind Will Dukes - Hoodoo Man - 2:08


Exact Audio Copy V1.0 beta 1 from 15. November 2010

EAC extraction logfile from 19. March 2011, 5:25

Various / The Road To Robert Johnson And Beyond - Disc D

Used drive : LITE-ON CD-RW SOHR-5238S Adapter: 6 ID: 3

Read mode : Secure
Utilize accurate stream : Yes
Defeat audio cache : Yes
Make use of C2 pointers : No

Read offset correction : 6
Overread into Lead-In and Lead-Out : No
Fill up missing offset samples with silence : Yes
Delete leading and trailing silent blocks : No
Null samples used in CRC calculations : Yes
Used interface : Installed external ASPI interface
Gap handling : Appended to previous track

Used output format : Internal WAV Routines
Sample format : 44.100 Hz; 16 Bit; Stereo


TOC of the extracted CD

Track | Start | Length | Start sector | End sector
––––––––––––––––––––––––––––-
1 | 0:00.00 | 2:47.39 | 0 | 12563
2 | 2:47.39 | 2:25.68 | 12564 | 23506
3 | 5:13.32 | 5:28.11 | 23507 | 48117
4 | 10:41.43 | 2:47.05 | 48118 | 60647
5 | 13:28.48 | 2:35.53 | 60648 | 72325
6 | 16:04.26 | 2:47.71 | 72326 | 84921
7 | 18:52.22 | 2:21.23 | 84922 | 95519
8 | 21:13.45 | 3:07.24 | 95520 | 109568
9 | 24:20.69 | 3:16.49 | 109569 | 124317
10 | 27:37.43 | 2:33.49 | 124318 | 135841
11 | 30:11.17 | 6:26.49 | 135842 | 164840
12 | 36:37.66 | 3:52.32 | 164841 | 182272
13 | 40:30.23 | 3:29.48 | 182273 | 197995
14 | 43:59.71 | 3:39.24 | 197996 | 214444
15 | 47:39.20 | 5:24.11 | 214445 | 238755
16 | 53:03.31 | 3:04.25 | 238756 | 252580
17 | 56:07.56 | 2:31.73 | 252581 | 263978
18 | 58:39.54 | 2:22.26 | 263979 | 274654
19 | 61:02.05 | 2:20.06 | 274655 | 285160
20 | 63:22.11 | 2:29.16 | 285161 | 296351
21 | 65:51.27 | 1:31.69 | 296352 | 303245
22 | 67:23.21 | 1:41.62 | 303246 | 310882
23 | 69:05.08 | 2:02.16 | 310883 | 320048
24 | 71:07.24 | 1:43.49 | 320049 | 327822
25 | 72:50.73 | 2:06.29 | 327823 | 337301
26 | 74:57.27 | 2:08.22 | 337302 | 346923


Track 1

Filename F:\eac\VA - The Road to Robert Johnson and Beyond\Disc D\01 - Elmore James - Dust My Broom.wav

Pre-gap length 0:00:02.00

Peak level 89.0 %
Extraction speed 5.6 X
Track quality 100.0 %
Test CRC A16661A5
Copy CRC A16661A5
Accurately ripped (confidence 1) [09EB1DDE]
Copy OK

Track 2

Filename F:\eac\VA - The Road to Robert Johnson and Beyond\Disc D\02 - Homesick James - Long Lonesome Day.wav

Pre-gap length 0:00:02.41

Peak level 94.3 %
Extraction speed 5.8 X
Track quality 100.0 %
Test CRC 837F20E8
Copy CRC 837F20E8
Accurately ripped (confidence 1) [0D58C001]
Copy OK

Track 3

Filename F:\eac\VA - The Road to Robert Johnson and Beyond\Disc D\03 - 'Baby Face' Leroy Foster - Rollin' & Tumblin' (Parts 1&2).wav

Pre-gap length 0:00:02.40

Peak level 89.0 %
Extraction speed 7.1 X
Track quality 100.0 %
Test CRC 554B22BF
Copy CRC 554B22BF
Accurately ripped (confidence 1) [B27C0A63]
Copy OK

Track 4

Filename F:\eac\VA - The Road to Robert Johnson and Beyond\Disc D\04 - Homesick James - Johnnie Mae.wav

Pre-gap length 0:00:02.41

Peak level 89.0 %
Extraction speed 6.9 X
Track quality 100.0 %
Test CRC 3D8F4F6E
Copy CRC 3D8F4F6E
Accurately ripped (confidence 1) [62455415]
Copy OK

Track 5

Filename F:\eac\VA - The Road to Robert Johnson and Beyond\Disc D\05 - Baby Boy Warren - Stop Breaking My Heart.wav

Pre-gap length 0:00:02.41

Peak level 74.8 %
Extraction speed 6.0 X
Track quality 99.9 %
Test CRC 3EF4D602
Copy CRC 3EF4D602
Accurately ripped (confidence 1) [AEA80030]
Copy OK

Track 6

Filename F:\eac\VA - The Road to Robert Johnson and Beyond\Disc D\06 - Elmore James - Standing At The Crossroads.wav

Pre-gap length 0:00:02.41

Peak level 94.2 %
Extraction speed 7.5 X
Track quality 100.0 %
Test CRC 21AA3CB4
Copy CRC 21AA3CB4
Accurately ripped (confidence 1) [0E65BA8B]
Copy OK

Track 7

Filename F:\eac\VA - The Road to Robert Johnson and Beyond\Disc D\07 - Homesick James - Lonesome Blues.wav

Pre-gap length 0:00:02.41

Peak level 89.0 %
Extraction speed 7.5 X
Track quality 100.0 %
Test CRC 36731225
Copy CRC 36731225
Accurately ripped (confidence 1) [A74F8656]
Copy OK

Track 8

Filename F:\eac\VA - The Road to Robert Johnson and Beyond\Disc D\08 - Homesick James - Homesick.wav

Pre-gap length 0:00:02.41

Peak level 94.2 %
Extraction speed 8.2 X
Track quality 100.0 %
Test CRC 0509397C
Copy CRC 0509397C
Accurately ripped (confidence 1) [A1745143]
Copy OK

Track 9

Filename F:\eac\VA - The Road to Robert Johnson and Beyond\Disc D\09 - Elmore James - I Believe.wav

Pre-gap length 0:00:02.41

Peak level 84.0 %
Extraction speed 8.6 X
Track quality 100.0 %
Test CRC 0D8C8EBF
Copy CRC 0D8C8EBF
Accurately ripped (confidence 1) [F12581F4]
Copy OK

Track 10

Filename F:\eac\VA - The Road to Robert Johnson and Beyond\Disc D\10 - Johnny Shines - Rambling Blues.wav

Pre-gap length 0:00:02.41

Peak level 94.2 %
Extraction speed 8.4 X
Track quality 100.0 %
Test CRC 08B10654
Copy CRC 08B10654
Accurately ripped (confidence 1) [1A913B81]
Copy OK

Track 11

Filename F:\eac\VA - The Road to Robert Johnson and Beyond\Disc D\11 - Johnny Shines - Maggie Lee Blues.wav

Pre-gap length 0:00:02.41

Peak level 94.3 %
Extraction speed 10.1 X
Track quality 100.0 %
Test CRC 6B88F69B
Copy CRC 6B88F69B
Accurately ripped (confidence 1) [217F6D36]
Copy OK

Track 12

Filename F:\eac\VA - The Road to Robert Johnson and Beyond\Disc D\12 - Johnny Shines - You're The One That I Love.wav

Pre-gap length 0:00:02.41

Peak level 94.3 %
Extraction speed 8.7 X
Track quality 99.9 %
Test CRC 423B4C31
Copy CRC 423B4C31
Accurately ripped (confidence 1) [C58B3B3A]
Copy OK

Track 13

Filename F:\eac\VA - The Road to Robert Johnson and Beyond\Disc D\13 - Johnny Shines - Sweet Home Chicago.wav

Pre-gap length 0:00:02.41

Peak level 94.2 %
Extraction speed 10.0 X
Track quality 100.0 %
Test CRC EC695230
Copy CRC EC695230
Accurately ripped (confidence 1) [66E57416]
Copy OK

Track 14

Filename F:\eac\VA - The Road to Robert Johnson and Beyond\Disc D\14 - Johnny Shines - Shake 'Em On Down.wav

Pre-gap length 0:00:02.40

Peak level 94.2 %
Extraction speed 10.5 X
Track quality 100.0 %
Test CRC 7ADA6081
Copy CRC 7ADA6081
Accurately ripped (confidence 1) [548F66D8]
Copy OK

Track 15

Filename F:\eac\VA - The Road to Robert Johnson and Beyond\Disc D\15 - Johnny Shines - Moanin' & Groanin' The Blues.wav

Pre-gap length 0:00:02.41

Peak level 94.2 %
Extraction speed 11.2 X
Track quality 100.0 %
Test CRC 591CF764
Copy CRC 591CF764
Accurately ripped (confidence 1) [1E94FB6D]
Copy OK

Track 16

Filename F:\eac\VA - The Road to Robert Johnson and Beyond\Disc D\16 - Blind Will Dukes - Terraplane Blues.wav

Pre-gap length 0:00:02.41

Peak level 94.3 %
Extraction speed 10.6 X
Track quality 100.0 %
Test CRC 83CB96D0
Copy CRC 83CB96D0
Accurately ripped (confidence 1) [1A38BFD4]
Copy OK

Track 17

Filename F:\eac\VA - The Road to Robert Johnson and Beyond\Disc D\17 - Blind Will Dukes - Dead Shrimp Blues.wav

Pre-gap length 0:00:02.41

Peak level 94.3 %
Extraction speed 10.4 X
Track quality 100.0 %
Test CRC CA7E0785
Copy CRC CA7E0785
Accurately ripped (confidence 1) [F6ACF1B2]
Copy OK

Track 18

Filename F:\eac\VA - The Road to Robert Johnson and Beyond\Disc D\18 - Blind Will Dukes - Steady Rollin' Man.wav

Pre-gap length 0:00:02.41

Peak level 94.3 %
Extraction speed 10.3 X
Track quality 100.0 %
Test CRC 38228A39
Copy CRC 38228A39
Accurately ripped (confidence 1) [14B3961A]
Copy OK

Track 19

Filename F:\eac\VA - The Road to Robert Johnson and Beyond\Disc D\19 - Blind Will Dukes - Me And The Devil.wav

Pre-gap length 0:00:02.41

Peak level 94.3 %
Extraction speed 10.4 X
Track quality 100.0 %
Test CRC A9D84A1D
Copy CRC A9D84A1D
Accurately ripped (confidence 1) [95623975]
Copy OK

Track 20

Filename F:\eac\VA - The Road to Robert Johnson and Beyond\Disc D\20 - Blind Will Dukes - Mean Hearted Woman.wav

Pre-gap length 0:00:02.41

Peak level 94.3 %
Extraction speed 10.9 X
Track quality 100.0 %
Test CRC E4902D8F
Copy CRC E4902D8F
Accurately ripped (confidence 1) [1CA3A32F]
Copy OK

Track 21

Filename F:\eac\VA - The Road to Robert Johnson and Beyond\Disc D\21 - Blind Will Dukes - Ramblin' Blues.wav

Pre-gap length 0:00:02.41

Peak level 94.3 %
Extraction speed 9.7 X
Track quality 100.0 %
Test CRC 0E177B32
Copy CRC 0E177B32
Accurately ripped (confidence 1) [9E64433B]
Copy OK

Track 22

Filename F:\eac\VA - The Road to Robert Johnson and Beyond\Disc D\22 - Blind Will Dukes - Hobo Blues.wav

Pre-gap length 0:00:02.41

Peak level 94.2 %
Extraction speed 10.2 X
Track quality 100.0 %
Test CRC C135893B
Copy CRC C135893B
Accurately ripped (confidence 1) [B0AC3337]
Copy OK

Track 23

Filename F:\eac\VA - The Road to Robert Johnson and Beyond\Disc D\23 - Blind Will Dukes - Milk Cow Blues.wav

Pre-gap length 0:00:02.41

Peak level 94.3 %
Extraction speed 8.6 X
Track quality 99.9 %
Test CRC 28F2E072
Copy CRC 28F2E072
Accurately ripped (confidence 1) [A02823BE]
Copy OK

Track 24

Filename F:\eac\VA - The Road to Robert Johnson and Beyond\Disc D\24 - Blind Will Dukes - Mistreated So Long.wav

Pre-gap length 0:00:02.41

Peak level 94.3 %
Extraction speed 10.3 X
Track quality 100.0 %
Test CRC B613FFDC
Copy CRC B613FFDC
Accurately ripped (confidence 1) [575934C1]
Copy OK

Track 25

Filename F:\eac\VA - The Road to Robert Johnson and Beyond\Disc D\25 - Blind Will Dukes - Sail On Little Woman.wav

Pre-gap length 0:00:02.41

Peak level 94.3 %
Extraction speed 10.9 X
Track quality 100.0 %
Test CRC 1788BFEB
Copy CRC 1788BFEB
Accurately ripped (confidence 1) [5BEF2CA0]
Copy OK

Track 26

Filename F:\eac\VA - The Road to Robert Johnson and Beyond\Disc D\26 - Blind Will Dukes - Hoodoo Man.wav

Pre-gap length 0:00:02.41

Peak level 94.3 %
Extraction speed 11.1 X
Track quality 100.0 %
Test CRC D64E4900
Copy CRC D64E4900
Accurately ripped (confidence 1) [8A0E9E21]
Copy OK


All tracks accurately ripped

No errors occurred

End of status report

==== Log checksum 284AF585469FC1F0D0C5F39C53364306626249D01B148EFCC3B3EE2E088885BD ====


[CUETools log; Date: 5/4/2014 6:02:08 PM; Version: 2.1.4]
[CTDB TOCID: CAMbMmFUT9YJ4mgHj5MNoo1GYHY-] found.
Track | CTDB Status
1 | (3/3) Accurately ripped
2 | (3/3) Accurately ripped
3 | (3/3) Accurately ripped
4 | (3/3) Accurately ripped
5 | (3/3) Accurately ripped
6 | (3/3) Accurately ripped
7 | (3/3) Accurately ripped
8 | (3/3) Accurately ripped
9 | (3/3) Accurately ripped
10 | (3/3) Accurately ripped
11 | (3/3) Accurately ripped
12 | (3/3) Accurately ripped
13 | (3/3) Accurately ripped
14 | (3/3) Accurately ripped
15 | (3/3) Accurately ripped
16 | (3/3) Accurately ripped
17 | (3/3) Accurately ripped
18 | (3/3) Accurately ripped
19 | (3/3) Accurately ripped
20 | (3/3) Accurately ripped
21 | (3/3) Accurately ripped
22 | (3/3) Accurately ripped
23 | (3/3) Accurately ripped
24 | (3/3) Accurately ripped
25 | (3/3) Accurately ripped
26 | (3/3) Accurately ripped
[AccurateRip ID: 004d95b8-059ebf0f-8f12111a] found.
Track [ CRC | V2 ] Status
01 [09eb1dde|ed0fc21e] (1+0/1) Accurately ripped
02 [0d58c001|ac928126] (1+0/1) Accurately ripped
03 [b27c0a63|bd5e17b2] (1+0/1) Accurately ripped
04 [62455415|52df08b7] (1+0/1) Accurately ripped
05 [aea80030|5ba0f3c5] (1+0/1) Accurately ripped
06 [0e65ba8b|f1bf587c] (1+0/1) Accurately ripped
07 [a74f8656|8c8af221] (1+0/1) Accurately ripped
08 [a1745143|4571295a] (1+0/1) Accurately ripped
09 [f12581f4|bb8e73f0] (1+0/1) Accurately ripped
10 [1a913b81|287504c4] (1+0/1) Accurately ripped
11 [217f6d36|ff9f3904] (1+0/1) Accurately ripped
12 [c58b3b3a|51322918] (1+0/1) Accurately ripped
13 [66e57416|c6f3ad5f] (1+0/1) Accurately ripped
14 [548f66d8|617c625e] (1+0/1) Accurately ripped
15 [1e94fb6d|f6df830e] (1+0/1) Accurately ripped
16 [1a38bfd4|e59d9cfb] (1+0/1) Accurately ripped
17 [f6acf1b2|2fec882f] (1+0/1) Accurately ripped
18 [14b3961a|8534603a] (1+0/1) Accurately ripped
19 [95623975|e22536e5] (1+0/1) Accurately ripped
20 [1ca3a32f|a4df49ca] (1+0/1) Accurately ripped
21 [9e64433b|c03f9c36] (1+0/1) Accurately ripped
22 [b0ac3337|1d6613c4] (1+0/1) Accurately ripped
23 [a02823be|b1bd42e3] (1+0/1) Accurately ripped
24 [575934c1|ebbd9ddb] (1+0/1) Accurately ripped
25 [5bef2ca0|cb3eaaec] (1+0/1) Accurately ripped
26 [8a0e9e21|e84f8b05] (1+0/1) Accurately ripped

Track Peak [ CRC32 ] [W/O NULL] [ LOG ]
– 94.3 [9256E8C9] [F12D0FC8]
01 89.0 [A16661A5] [41ECE59B] CRC32
02 94.3 [837F20E8] [8DC7929F] CRC32
03 89.0 [554B22BF] [AF659F6C] CRC32
04 89.0 [3D8F4F6E] [D8850A83] CRC32
05 74.8 [3EF4D602] [3986D276] CRC32
06 94.2 [21AA3CB4] [34D7207A] CRC32
07 89.0 [36731225] [C5F48640] CRC32
08 94.2 [0509397C] [45AFECA0] CRC32
09 84.0 [0D8C8EBF] [07282CDD] CRC32
10 94.2 [08B10654] [972772CC] CRC32
11 94.3 [6B88F69B] [A62952D9] CRC32
12 94.3 [423B4C31] [3382BEF4] CRC32
13 94.2 [EC695230] [34B27BBF] CRC32
14 94.2 [7ADA6081] [B47B6A06] CRC32
15 94.2 [591CF764] [0D2889F7] CRC32
16 94.3 [83CB96D0] [A61BCFF5] CRC32
17 94.3 [CA7E0785] [F2EEE15B] CRC32
18 94.3 [38228A39] [9F397205] CRC32
19 94.3 [A9D84A1D] [39305B39] CRC32
20 94.3 [E4902D8F] [77E277BA] CRC32
21 94.3 [0E177B32] [83062107] CRC32
22 94.2 [C135893B] [B4EB4EDD] CRC32
23 94.3 [28F2E072] [1119E860] CRC32
24 94.3 [B613FFDC] [4F1B2614] CRC32
25 94.3 [1788BFEB] [930D46B1] CRC32
26 94.3 [D64E4900] [245746EA] CRC32


Released Date: July 17, 2007
Format: 4 x CD, Box Set, Compilation
Length: 76:24 (CD1) + 76:48 (CD2) + 76:30 (CD3) + 77:06 (CD4)

VA - The Road To Robert Johnson And Beyond (2007)

VA - The Road To Robert Johnson And Beyond (2007)

Many thanks to the original releaser

Dead Links? please send me a private message.