VA - Flower Power: The Music of the Love Generation (2007) [Time Life Box]

Posted By: jclane
VA - Flower Power: The Music of the Love Generation (2007) [Time Life Box]

VA - Flower Power: The Music Of The Love Generation (2007) [Time Life Box]
EAC Rip | 10 x CD | FLAC Tracks + Cue + Log | Basic covers included | 3.52 GB | RAR 3% Recovery
Label: Time Life Records | Catalog#: TL090701 | Genre: Rock, Classic Rock, Psychedelic Rock
Pop Rock, Soft Rock | Total time: 9h, 53m, 57s

Time Life presents 'Flower Power: Music Of The Love Generation.' Our 10-CD, 175-track set is full
of the artists and songs who defined the Baby Boomer generation - it's a box full of memories that will bring listeners back in time to an unforgettable era.This late 60s and early-'70s pop culture phenomena had many facets, from free love and psychedelia to anti-war and hippies. This vivid youth movement was reflected in the music the world listened and has never been the same again.

_________________________________________________________


VA - Flower Power: The Music of the Love Generation (2007) [Time Life Box]

Flower Power: Groovin'
EAC Rip | 2 x CD | FLAC Tracks + Cue + Log | 715.4 MB | RAR 3% Recovery


Disc 1

01. Groovin' - The Young Rascals
02. Leaving on a Jet Plane - Peter, Paul & Mary
03. Summer Breeze - Seals & Crofts
04. Crystal Blue Persuasion - Tommy James and the Shondells
05. Sunshine - Jonathan Edwards
06. I Got You Babe - Sonny & Cher
07. How Can I Be Sure - The Young Rascals
08. Hello It's Me - Todd Rundgren
09. I Started a Joke - Bee Gees
10. Daydream Believer - The Monkees
11. Does Anybody Really Know What Time It Is? - Chicago
12. The City of New Orleans - Arlo Guthrie
13. Listen to the Music - The Doobie Brothers
14. Tired of Waiting for You - The Kinks
15. Never Ending Song of Love - Delaney & Bonnie & Friends
16. Both Sides Now - Judy Collins
17. Lucky Man - Emerson, Lake & Palmer

Disc 2

01. The Beat Goes On - Sonny & Cher
02. A Beautiful Morning - The Rascals
03. Blowin' in the Wind - Peter, Paul & Mary
04. Crimson and Clover - Tommy James and the Shondells
05. Ride Captain Ride - Blues Image
06. Blinded by the Light - Manfred Mann's Earth Band
07. Spirit in the Sky - Norman Greenbaum
08. You're So Vain - Carly Simon
09. You Really Got Me - The Kinks
10. In-a-Gadda-Da-Vida - Iron Butterfly
11. Long Train Runnin' - The Doobie Brothers
12. Beginnings - Chicago
13. People Got to Be Free - The Rascals
14. Wild Thing - The Troggs
15. Alice's Rock & Roll Restaurant - Arlo Guthrie
16. Me and You and a Dog Named Boo - Lobo
17. Amazing Grace - Judy Collins


EAC extraction logfile from 2. September 2007, 17:02 for CD
Various / Flower Power - Groovin' (Disc 1)

Used drive : LITE-ON COMBO SOHC-5235K Adapter: 1 ID: 1
Read mode : Secure with NO C2, accurate stream, disable cache
Read offset correction : 6
Overread into Lead-In and Lead-Out : No

Used output format : Internal WAV Routines
44.100 Hz; 16 Bit; Stereo

Other options :
Fill up missing offset samples with silence : Yes
Delete leading and trailing silent blocks : No
Native Win32 interface for Win NT & 2000


Track 1
Filename C:\VA - Flower Power {Time-Life} (2007) [FLAC]\Groovin'\Disc 1\01 - The Young Rascals - Groovin'.wav

Pre-gap length 0:00:02.00

Peak level 79.4 %
Track quality 100.0 %
Test CRC 6915D73F
Copy CRC 6915D73F
Copy OK

Track 2
Filename C:\VA - Flower Power {Time-Life} (2007) [FLAC]\Groovin'\Disc 1\02 - Peter, Paul & Mary - Leaving on a Jet Plane.wav

Pre-gap length 0:00:01.38

Peak level 78.7 %
Track quality 99.9 %
Test CRC 2163ED8E
Copy CRC 2163ED8E
Copy OK

Track 3
Filename C:\VA - Flower Power {Time-Life} (2007) [FLAC]\Groovin'\Disc 1\03 - Seals & Croft - Summer Breeze.wav

Pre-gap length 0:00:01.62

Peak level 66.9 %
Track quality 100.0 %
Test CRC 4A98A235
Copy CRC 4A98A235
Copy OK

Track 4
Filename C:\VA - Flower Power {Time-Life} (2007) [FLAC]\Groovin'\Disc 1\04 - Tommy James and the Shondells - Crystal Blue Persuasion.wav

Pre-gap length 0:00:01.05

Peak level 87.8 %
Track quality 99.9 %
Test CRC 49E989BF
Copy CRC 49E989BF
Copy OK

Track 5
Filename C:\VA - Flower Power {Time-Life} (2007) [FLAC]\Groovin'\Disc 1\05 - Jonathan Edwards - Sunshine (Go Away Today).wav

Pre-gap length 0:00:01.44

Peak level 89.3 %
Track quality 99.8 %
Test CRC 43D05A78
Copy CRC 43D05A78
Copy OK

Track 6
Filename C:\VA - Flower Power {Time-Life} (2007) [FLAC]\Groovin'\Disc 1\06 - Sonny & Cher - I Got You Babe.wav

Pre-gap length 0:00:01.55

Peak level 85.7 %
Track quality 99.9 %
Test CRC 835833A4
Copy CRC 835833A4
Copy OK

Track 7
Filename C:\VA - Flower Power {Time-Life} (2007) [FLAC]\Groovin'\Disc 1\07 - The Young Rascals - How Can I Be Sure.wav

Pre-gap length 0:00:02.10

Peak level 86.7 %
Track quality 99.9 %
Test CRC 52EA53CE
Copy CRC 52EA53CE
Copy OK

Track 8
Filename C:\VA - Flower Power {Time-Life} (2007) [FLAC]\Groovin'\Disc 1\08 - Todd Rundgren - Hello It's Me.wav

Pre-gap length 0:00:02.25

Peak level 85.8 %
Track quality 99.9 %
Test CRC 0863D9B8
Copy CRC 0863D9B8
Copy OK

Track 9
Filename C:\VA - Flower Power {Time-Life} (2007) [FLAC]\Groovin'\Disc 1\09 - Bee Gees - I Started A Joke.wav

Pre-gap length 0:00:01.55

Peak level 76.9 %
Track quality 100.0 %
Test CRC 29707FE1
Copy CRC 29707FE1
Copy OK

Track 10
Filename C:\VA - Flower Power {Time-Life} (2007) [FLAC]\Groovin'\Disc 1\10 - The Monkees - Daydream Believer.wav

Pre-gap length 0:00:01.20

Peak level 97.6 %
Track quality 100.0 %
Test CRC 1B628A3B
Copy CRC 1B628A3B
Copy OK

Track 11
Filename C:\VA - Flower Power {Time-Life} (2007) [FLAC]\Groovin'\Disc 1\11 - Chicago - Does Anybody Really Know What Time It Is.wav

Peak level 85.5 %
Track quality 99.8 %
Test CRC 8482C814
Copy CRC 8482C814
Copy OK

Track 12
Filename C:\VA - Flower Power {Time-Life} (2007) [FLAC]\Groovin'\Disc 1\12 - Arlo Guthrie - City of New Orleans.wav

Pre-gap length 0:00:02.05

Peak level 89.0 %
Track quality 100.0 %
Test CRC A180EB10
Copy CRC A180EB10
Copy OK

Track 13
Filename C:\VA - Flower Power {Time-Life} (2007) [FLAC]\Groovin'\Disc 1\13 - The Doobie Brothers - Listen To The Music.wav

Peak level 94.2 %
Track quality 100.0 %
Test CRC 88F4DE48
Copy CRC 88F4DE48
Copy OK

Track 14
Filename C:\VA - Flower Power {Time-Life} (2007) [FLAC]\Groovin'\Disc 1\14 - The Kinks - Tired of Waiting For You.wav

Pre-gap length 0:00:01.11

Peak level 82.2 %
Track quality 100.0 %
Test CRC 35AB5562
Copy CRC 35AB5562
Copy OK

Track 15
Filename C:\VA - Flower Power {Time-Life} (2007) [FLAC]\Groovin'\Disc 1\15 - Delaney & Bonnie & Friends - Never Ending Song of Love.wav

Pre-gap length 0:00:02.24

Peak level 86.3 %
Track quality 99.9 %
Test CRC 4E506B43
Copy CRC 4E506B43
Copy OK

Track 16
Filename C:\VA - Flower Power {Time-Life} (2007) [FLAC]\Groovin'\Disc 1\16 - Judy Collins - Both Sides Now.wav

Pre-gap length 0:00:01.68

Peak level 82.6 %
Track quality 99.8 %
Test CRC D4E1B41B
Copy CRC D4E1B41B
Copy OK

Track 17
Filename C:\VA - Flower Power {Time-Life} (2007) [FLAC]\Groovin'\Disc 1\17 - Emerson, Lake & Palmer - Lucky Man.wav

Peak level 85.9 %
Track quality 100.0 %
Test CRC 4BA0BFA2
Copy CRC 4BA0BFA2
Copy OK

No errors occured


End of status report



EAC extraction logfile from 2. September 2007, 17:46 for CD
Various / Flower Power - Groovin' (Disc 2)

Used drive : _NEC DVD_RW ND-3540A Adapter: 0 ID: 0
Read mode : Secure with NO C2, accurate stream, disable cache
Read offset correction : 48
Overread into Lead-In and Lead-Out : No

Used output format : Internal WAV Routines
44.100 Hz; 16 Bit; Stereo

Other options :
Fill up missing offset samples with silence : Yes
Delete leading and trailing silent blocks : No
Native Win32 interface for Win NT & 2000


Track 1
Filename C:\VA - Flower Power {Time-Life} (2007) [FLAC]\Groovin'\Disc 2\01 - Sonny & Cher - The Beat Goes On.wav

Pre-gap length 0:00:02.00

Peak level 89.3 %
Track quality 100.0 %
Test CRC 2C808E15
Copy CRC 2C808E15
Copy OK

Track 2
Filename C:\VA - Flower Power {Time-Life} (2007) [FLAC]\Groovin'\Disc 2\02 - The Rascals - A Beautiful Morning.wav

Pre-gap length 0:00:01.02

Peak level 80.6 %
Track quality 100.0 %
Test CRC E84FD767
Copy CRC E84FD767
Copy OK

Track 3
Filename C:\VA - Flower Power {Time-Life} (2007) [FLAC]\Groovin'\Disc 2\03 - Peter, Paul & Mary - Blowin' In The Wind.wav

Pre-gap length 0:00:02.27

Peak level 86.9 %
Track quality 100.0 %
Test CRC 7B637FA7
Copy CRC 7B637FA7
Copy OK

Track 4
Filename C:\VA - Flower Power {Time-Life} (2007) [FLAC]\Groovin'\Disc 2\04 - Tommy James and the Shondells - Crimson and Clover.wav

Pre-gap length 0:00:02.03

Peak level 89.1 %
Track quality 100.0 %
Test CRC 1C50BABF
Copy CRC 1C50BABF
Copy OK

Track 5
Filename C:\VA - Flower Power {Time-Life} (2007) [FLAC]\Groovin'\Disc 2\05 - Blues Image - Ride Captain Ride.wav

Pre-gap length 0:00:01.38

Peak level 85.7 %
Track quality 100.0 %
Test CRC 78684519
Copy CRC 78684519
Copy OK

Track 6
Filename C:\VA - Flower Power {Time-Life} (2007) [FLAC]\Groovin'\Disc 2\06 - Manfred Mann's Earth Band - Blinded by the Light.wav

Pre-gap length 0:00:02.19

Peak level 87.0 %
Track quality 100.0 %
Test CRC 21B54756
Copy CRC 21B54756
Copy OK

Track 7
Filename C:\VA - Flower Power {Time-Life} (2007) [FLAC]\Groovin'\Disc 2\07 - Norman Greenbaum - Spirit in the Sky.wav

Pre-gap length 0:00:01.23

Peak level 89.3 %
Track quality 100.0 %
Test CRC 01672020
Copy CRC 01672020
Copy OK

Track 8
Filename C:\VA - Flower Power {Time-Life} (2007) [FLAC]\Groovin'\Disc 2\08 - Carly Simon - You're So Vain.wav

Pre-gap length 0:00:01.26

Peak level 91.3 %
Track quality 100.0 %
Test CRC E9F9C497
Copy CRC E9F9C497
Copy OK

Track 9
Filename C:\VA - Flower Power {Time-Life} (2007) [FLAC]\Groovin'\Disc 2\09 - The Kinks - You Really Got Me.wav

Pre-gap length 0:00:01.53

Peak level 88.4 %
Track quality 99.9 %
Test CRC E01BEA41
Copy CRC E01BEA41
Copy OK

Track 10
Filename C:\VA - Flower Power {Time-Life} (2007) [FLAC]\Groovin'\Disc 2\10 - Iron Butterfly - In-A-Gadda-Da-Vida.wav

Pre-gap length 0:00:02.40

Peak level 93.1 %
Track quality 100.0 %
Test CRC 9717D774
Copy CRC 9717D774
Copy OK

Track 11
Filename C:\VA - Flower Power {Time-Life} (2007) [FLAC]\Groovin'\Disc 2\11 - The Doobie Brothers - Long Train Running.wav

Pre-gap length 0:00:01.62

Peak level 89.9 %
Track quality 99.9 %
Test CRC C1F24C44
Copy CRC C1F24C44
Copy OK

Track 12
Filename C:\VA - Flower Power {Time-Life} (2007) [FLAC]\Groovin'\Disc 2\12 - Chicago - Beginnings.wav

Pre-gap length 0:00:01.59

Peak level 85.3 %
Track quality 100.0 %
Test CRC B5679613
Copy CRC B5679613
Copy OK

Track 13
Filename C:\VA - Flower Power {Time-Life} (2007) [FLAC]\Groovin'\Disc 2\13 - The Rascals - People Got To Be Free.wav

Pre-gap length 0:00:01.23

Peak level 93.5 %
Track quality 100.0 %
Test CRC F154B265
Copy CRC F154B265
Copy OK

Track 14
Filename C:\VA - Flower Power {Time-Life} (2007) [FLAC]\Groovin'\Disc 2\14 - The Troggs - Wild Thing.wav

Pre-gap length 0:00:02.16

Peak level 88.2 %
Track quality 100.0 %
Test CRC 3FF98498
Copy CRC 3FF98498
Copy OK

Track 15
Filename C:\VA - Flower Power {Time-Life} (2007) [FLAC]\Groovin'\Disc 2\15 - Arlo Guthrie - Alice's Rock & Roll Restaurant.wav

Pre-gap length 0:00:01.63

Peak level 87.2 %
Track quality 99.9 %
Test CRC 1D1AC91F
Copy CRC 1D1AC91F
Copy OK

Track 16
Filename C:\VA - Flower Power {Time-Life} (2007) [FLAC]\Groovin'\Disc 2\16 - Lobo - Me and You and a Dog Named Boo.wav

Pre-gap length 0:00:01.13

Peak level 90.1 %
Track quality 100.0 %
Test CRC 3729531A
Copy CRC 3729531A
Copy OK

Track 17
Filename C:\VA - Flower Power {Time-Life} (2007) [FLAC]\Groovin'\Disc 2\17 - Judy Collins - Amazing Grace.wav

Pre-gap length 0:00:01.35

Peak level 80.3 %
Track quality 100.0 %
Test CRC 342DE886
Copy CRC 342DE886
Copy OK

No errors occured


End of status report


_________________________________________________________


VA - Flower Power: The Music of the Love Generation (2007) [Time Life Box]

Flower Power: The Time of the Season
EAC Rip | 2 x CD | FLAC Tracks + Cue + Log | 720.1 MB | RAR 3% Recovery


Disc 1

01. Nights in White Satin - The Moody Blues
02. One Toke over the Line - Brewer & Shipley
03. Only You Know and I Know - Delaney & Bonnie & Friends
04. The Night They Drove Old Dixie Down - Joan Baez
05. Land of 1000 Dances - Cannibal and the Headhunters
06. Venus - The Shocking Blue
07. Here Comes the Sun - Richie Havens
08. Summer Nights - Marianne Faithfull
09. Society's Child (Baby I've Been Thinking) - Janis Ian
10. Good Time Charlie's Got the Blues - Danny O'Keefe
11. I'd Like to Teach the World to Sing (In Perfect Harmony) - The New Seekers
12. Just a Little - The Beau Brummels
13. Hot Smoke and Sassafras - The Bubble Puppy
14. Don't Expect Me to Be Your Friend - Lobo
15. School's Out - Alice Cooper
16. Come to the Sunshine - Harpers Bizarre
17. Bridge over Troubled Water - Aretha Franklin

Disc 2

01. Time of the Season - The Zombies
02. Going Up the Country - Canned Heat
03. Different Drum - Stone Poneys featuring Linda Ronstadt
04. Good Morning Starshine - Oliver
05. Woodstock - Matthews' Southern Comfort
06. Signs Five Man Electrical Band
07. Up on Cripple Creek - The Band
08. Abraham, Martin and John - Dion
09. Mr. Bojangles - Nitty Gritty Dirt Band
10. We're an American Band - Grand Funk
11. Love Grows (Where My Rosemary Goes) - Edison Lighthouse
12. On the Road Again - Canned Heat
13. American Pie–Parts I & II - Don McLean
14. Hush - Deep Purple
15. What the World Needs Now Is Love - Jackie DeShannon
16. Living in the Past - Jethro Tull
17. Fresh Air Quicksilver Messenger Service
18. We Shall Overcome Joan Baez


EAC extraction logfile from 2. September 2007, 18:26 for CD
Various / Flower Power - Time of the Season (Disc 1)

Used drive : _NEC DVD_RW ND-3540A Adapter: 0 ID: 0
Read mode : Secure with NO C2, accurate stream, disable cache
Read offset correction : 48
Overread into Lead-In and Lead-Out : No

Used output format : Internal WAV Routines
44.100 Hz; 16 Bit; Stereo

Other options :
Fill up missing offset samples with silence : Yes
Delete leading and trailing silent blocks : No
Native Win32 interface for Win NT & 2000


Track 1
Filename C:\VA - Flower Power {Time-Life} (2007) [FLAC]\Time of the Season\Disc 1\01 - The Moody Blues - Nights in White Satin.wav

Pre-gap length 0:00:02.00

Peak level 87.7 %
Track quality 100.0 %
Test CRC 737C7B1D
Copy CRC 737C7B1D
Copy OK

Track 2
Filename C:\VA - Flower Power {Time-Life} (2007) [FLAC]\Time of the Season\Disc 1\02 - Brewer & Shipley - One Toke Over The Line.wav

Pre-gap length 0:00:01.44

Peak level 88.9 %
Track quality 100.0 %
Test CRC 5303FC93
Copy CRC 5303FC93
Copy OK

Track 3
Filename C:\VA - Flower Power {Time-Life} (2007) [FLAC]\Time of the Season\Disc 1\03 - Delaney & Bonnie - Only You Know And I Know.wav

Pre-gap length 0:00:01.57

Peak level 86.2 %
Track quality 99.9 %
Test CRC A35B3C6B
Copy CRC A35B3C6B
Copy OK

Track 4
Filename C:\VA - Flower Power {Time-Life} (2007) [FLAC]\Time of the Season\Disc 1\04 - Joan Baez - The Night They Drove Old Dixie Down.wav

Pre-gap length 0:00:01.63

Peak level 94.9 %
Track quality 100.0 %
Test CRC 99FB1F01
Copy CRC 99FB1F01
Copy OK

Track 5
Filename C:\VA - Flower Power {Time-Life} (2007) [FLAC]\Time of the Season\Disc 1\05 - Cannibal and the Headhunters - Land of 1000 Dances.wav

Pre-gap length 0:00:01.72

Peak level 79.2 %
Track quality 100.0 %
Test CRC 93651870
Copy CRC 93651870
Copy OK

Track 6
Filename C:\VA - Flower Power {Time-Life} (2007) [FLAC]\Time of the Season\Disc 1\06 - Shocking Blue - Venus.wav

Pre-gap length 0:00:01.15

Peak level 89.4 %
Track quality 100.0 %
Test CRC BB73FA4A
Copy CRC BB73FA4A
Copy OK

Track 7
Filename C:\VA - Flower Power {Time-Life} (2007) [FLAC]\Time of the Season\Disc 1\07 - Richie Havens - Here Comes The Sun.wav

Pre-gap length 0:00:01.71

Peak level 84.6 %
Track quality 100.0 %
Test CRC FF4BE96C
Copy CRC FF4BE96C
Copy OK

Track 8
Filename C:\VA - Flower Power {Time-Life} (2007) [FLAC]\Time of the Season\Disc 1\08 - Marianne Faithfull - Summer Nights.wav

Pre-gap length 0:00:02.17

Peak level 84.8 %
Track quality 100.0 %
Test CRC 37A2947E
Copy CRC 37A2947E
Copy OK

Track 9
Filename C:\VA - Flower Power {Time-Life} (2007) [FLAC]\Time of the Season\Disc 1\09 - Janis Ian - Society's Child (Baby I've Been Thinking).wav

Pre-gap length 0:00:01.03

Peak level 96.6 %
Track quality 100.0 %
Test CRC EA1B950D
Copy CRC EA1B950D
Copy OK

Track 10
Filename C:\VA - Flower Power {Time-Life} (2007) [FLAC]\Time of the Season\Disc 1\10 - Danny O'Keefe - Good Time Charlie's Got The Blues.wav

Pre-gap length 0:00:02.15

Peak level 89.1 %
Track quality 100.0 %
Test CRC 22E3D68F
Copy CRC 22E3D68F
Copy OK

Track 11
Filename C:\VA - Flower Power {Time-Life} (2007) [FLAC]\Time of the Season\Disc 1\11 - The New Seekers - I'd Like To Teach The World To Sing (In Perfect Harmony).wav

Pre-gap length 0:00:02.34

Peak level 85.4 %
Track quality 100.0 %
Test CRC C9659F9E
Copy CRC C9659F9E
Copy OK

Track 12
Filename C:\VA - Flower Power {Time-Life} (2007) [FLAC]\Time of the Season\Disc 1\12 - The Beau Brummels - Just A Little.wav

Pre-gap length 0:00:01.38

Peak level 91.1 %
Track quality 99.9 %
Test CRC FE579E79
Copy CRC FE579E79
Copy OK

Track 13
Filename C:\VA - Flower Power {Time-Life} (2007) [FLAC]\Time of the Season\Disc 1\13 - Bubble Puppy - Hot Smoke and Sasafrass.wav

Pre-gap length 0:00:02.18

Peak level 88.4 %
Track quality 100.0 %
Test CRC C298105A
Copy CRC C298105A
Copy OK

Track 14
Filename C:\VA - Flower Power {Time-Life} (2007) [FLAC]\Time of the Season\Disc 1\14 - Lobo - Don't Expect Me To Be Your Friend.wav

Pre-gap length 0:00:02.72

Peak level 90.4 %
Track quality 100.0 %
Test CRC CAB22061
Copy CRC CAB22061
Copy OK

Track 15
Filename C:\VA - Flower Power {Time-Life} (2007) [FLAC]\Time of the Season\Disc 1\15 - Alice Cooper - School's Out.wav

Pre-gap length 0:00:01.30

Peak level 97.4 %
Track quality 100.0 %
Test CRC 259E5CD0
Copy CRC 259E5CD0
Copy OK

Track 16
Filename C:\VA - Flower Power {Time-Life} (2007) [FLAC]\Time of the Season\Disc 1\16 - Harpers Bizarre - Come To The Sunshine.wav

Pre-gap length 0:00:02.26

Peak level 77.1 %
Track quality 100.0 %
Test CRC 45DEFFDB
Copy CRC 45DEFFDB
Copy OK

Track 17
Filename C:\VA - Flower Power {Time-Life} (2007) [FLAC]\Time of the Season\Disc 1\17 - Aretha Franklin - Bridge Over Troubled Water.wav

Pre-gap length 0:00:01.03

Peak level 87.3 %
Track quality 100.0 %
Test CRC C86C5583
Copy CRC C86C5583
Copy OK

No errors occured


End of status report



EAC extraction logfile from 2. September 2007, 18:57 for CD
Various / Flower Power - Time of the Season (Disc 2)

Used drive : _NEC DVD_RW ND-3540A Adapter: 0 ID: 0
Read mode : Secure with NO C2, accurate stream, disable cache
Read offset correction : 48
Overread into Lead-In and Lead-Out : No

Used output format : Internal WAV Routines
44.100 Hz; 16 Bit; Stereo

Other options :
Fill up missing offset samples with silence : Yes
Delete leading and trailing silent blocks : No
Native Win32 interface for Win NT & 2000


Track 1
Filename C:\VA - Flower Power {Time-Life} (2007) [FLAC]\Time of the Season\Disc 2\01 - The Zombies - Time of the Season.wav

Pre-gap length 0:00:02.00

Peak level 88.5 %
Track quality 100.0 %
Test CRC 800C5FB6
Copy CRC 800C5FB6
Copy OK

Track 2
Filename C:\VA - Flower Power {Time-Life} (2007) [FLAC]\Time of the Season\Disc 2\02 - Canned Heat - Going Up The Country.wav

Peak level 86.5 %
Track quality 100.0 %
Test CRC A876EF69
Copy CRC A876EF69
Copy OK

Track 3
Filename C:\VA - Flower Power {Time-Life} (2007) [FLAC]\Time of the Season\Disc 2\03 - Stone Poneys feat. Linda Ronstadt - Different Drum.wav

Pre-gap length 0:00:02.12

Peak level 89.8 %
Track quality 100.0 %
Test CRC 6B275316
Copy CRC 6B275316
Copy OK

Track 4
Filename C:\VA - Flower Power {Time-Life} (2007) [FLAC]\Time of the Season\Disc 2\04 - Oliver - Good Morning Starshine.wav

Pre-gap length 0:00:02.14

Peak level 85.8 %
Track quality 99.9 %
Test CRC D4C72284
Copy CRC D4C72284
Copy OK

Track 5
Filename C:\VA - Flower Power {Time-Life} (2007) [FLAC]\Time of the Season\Disc 2\05 - Matthews' Southern Comfort - Woodstock.wav

Pre-gap length 0:00:01.45

Peak level 89.9 %
Track quality 100.0 %
Test CRC 5DD33CC5
Copy CRC 5DD33CC5
Copy OK

Track 6
Filename C:\VA - Flower Power {Time-Life} (2007) [FLAC]\Time of the Season\Disc 2\06 - Five Man Electrical Band - Signs.wav

Pre-gap length 0:00:02.13

Peak level 90.0 %
Track quality 100.0 %
Test CRC 7B20C4C3
Copy CRC 7B20C4C3
Copy OK

Track 7
Filename C:\VA - Flower Power {Time-Life} (2007) [FLAC]\Time of the Season\Disc 2\07 - The Band - Up On Cripple Creek.wav

Peak level 88.3 %
Track quality 100.0 %
Test CRC F4745D42
Copy CRC F4745D42
Copy OK

Track 8
Filename C:\VA - Flower Power {Time-Life} (2007) [FLAC]\Time of the Season\Disc 2\08 - Dion - Abraham, Martin and John.wav

Pre-gap length 0:00:01.60

Peak level 85.7 %
Track quality 99.9 %
Test CRC 55693E57
Copy CRC 55693E57
Copy OK

Track 9
Filename C:\VA - Flower Power {Time-Life} (2007) [FLAC]\Time of the Season\Disc 2\09 - Nitty Gritty Dirt Band - Mr. Bojangles.wav

Pre-gap length 0:00:01.36

Peak level 82.5 %
Track quality 99.9 %
Test CRC F8D55723
Copy CRC F8D55723
Copy OK

Track 10
Filename C:\VA - Flower Power {Time-Life} (2007) [FLAC]\Time of the Season\Disc 2\10 - Grand Funk - We're An American Band.wav

Pre-gap length 0:00:01.49

Peak level 89.2 %
Track quality 100.0 %
Test CRC 4758CE50
Copy CRC 4758CE50
Copy OK

Track 11
Filename C:\VA - Flower Power {Time-Life} (2007) [FLAC]\Time of the Season\Disc 2\11 - Edison Lighthouse - Love Grows (Where My Rosemary Goes).wav

Pre-gap length 0:00:01.70

Peak level 88.2 %
Track quality 100.0 %
Test CRC 2BC31DB4
Copy CRC 2BC31DB4
Copy OK

Track 12
Filename C:\VA - Flower Power {Time-Life} (2007) [FLAC]\Time of the Season\Disc 2\12 - Canned Heat - On The Road Again.wav

Pre-gap length 0:00:01.47

Peak level 87.6 %
Track quality 100.0 %
Test CRC 5D673EE7
Copy CRC 5D673EE7
Copy OK

Track 13
Filename C:\VA - Flower Power {Time-Life} (2007) [FLAC]\Time of the Season\Disc 2\13 - Don McLean - American Pie (Parts I & II).wav

Pre-gap length 0:00:02.21

Peak level 86.7 %
Track quality 100.0 %
Test CRC 7A647794
Copy CRC 7A647794
Copy OK

Track 14
Filename C:\VA - Flower Power {Time-Life} (2007) [FLAC]\Time of the Season\Disc 2\14 - Deep Purple - Hush.wav

Pre-gap length 0:00:01.08

Peak level 91.7 %
Track quality 100.0 %
Test CRC C664FA3F
Copy CRC C664FA3F
Copy OK

Track 15
Filename C:\VA - Flower Power {Time-Life} (2007) [FLAC]\Time of the Season\Disc 2\15 - Jackie DeShannon - What The World Needs Now Is Love.wav

Pre-gap length 0:00:02.39

Peak level 88.4 %
Track quality 100.0 %
Test CRC 0D8EBB8C
Copy CRC 0D8EBB8C
Copy OK

Track 16
Filename C:\VA - Flower Power {Time-Life} (2007) [FLAC]\Time of the Season\Disc 2\16 - Jethro Tull - Living In The Past.wav

Pre-gap length 0:00:01.70

Peak level 87.9 %
Track quality 100.0 %
Test CRC 9814D405
Copy CRC 9814D405
Copy OK

Track 17
Filename C:\VA - Flower Power {Time-Life} (2007) [FLAC]\Time of the Season\Disc 2\17 - Quicksilver Messenger Service - Fresh Air.wav

Pre-gap length 0:00:01.05

Peak level 88.8 %
Track quality 100.0 %
Test CRC 9888F951
Copy CRC 9888F951
Copy OK

Track 18
Filename C:\VA - Flower Power {Time-Life} (2007) [FLAC]\Time of the Season\Disc 2\18 - Joan Baez - We Shall Overcome.wav

Pre-gap length 0:00:01.53

Peak level 85.6 %
Track quality 99.9 %
Test CRC AE64C06E
Copy CRC AE64C06E
Copy OK

No errors occured


End of status report


_________________________________________________________


VA - Flower Power: The Music of the Love Generation (2007) [Time Life Box]

Flower Power: Born to Be Wild
EAC Rip | 2 x CD | FLAC Tracks + Cue + Log | 693.9 MB | RAR 3% Recovery


Disc 1

01. Born to Be Wild - Steppenwolf
02. Midnight Confessions - The Grass Roots
03. California Dreamin' - The Mamas & the Papas
04. Sky Pilot (Part One) - Eric Burdon & the Animals
05. Something in the Air - Thunderclap Newman
06. With a Little Help from My Friends - Joe Cocker
07. What's Going On - Marvin Gaye
08. War - Edwin Starr
09. Bad, Bad Leroy Brown - Jim Croce
10. Morning Has Broken - Cat Stevens
11. Hair - The Cowsills
12. Cloud Nine - The Temptations
13. Rocket Man - Elton John
14. All Right Now - Free
15. Sometime Blues - Blue Cheer
16. Spill the Wine - Eric Burdon & War

Disc 2

01. Magic Carpet Ride - Steppenwolf
02. Monday, Monday - The Mamas & the Papas
03. Your Song - Elton John
04. Sooner or Later - The Grass Roots
05. The Letter - Joe Cocker with Leon Russell & the Shelter People
06. Eve of Destruction - Barry McGuire
07. Ball of Confusion (That's What the World Is Today) - The Temptations
08. Mercy Mercy Me (The Ecology) - Marvin Gaye
09. It's Getting Better - Mama Cass
10. Time in a Bottle - Jim Croce
11. People Get Ready - The Impressions
12. Baby It's You - Smith
13. Inner City Blues (Make Me Wanna Holler) - Marvin Gaye
14. Fire - The Crazy World of Arthur Brown
15. The Rain, the Park & Other Things - The Cowsills
16. Reach Out of the Darkness - Friend and Lover


EAC extraction logfile from 2. September 2007, 19:49 for CD
Various / Flower Power - Born To Be Wild (Disc 1)

Used drive : _NEC DVD_RW ND-3540A Adapter: 0 ID: 0
Read mode : Secure with NO C2, accurate stream, disable cache
Read offset correction : 48
Overread into Lead-In and Lead-Out : No

Used output format : Internal WAV Routines
44.100 Hz; 16 Bit; Stereo

Other options :
Fill up missing offset samples with silence : Yes
Delete leading and trailing silent blocks : No
Native Win32 interface for Win NT & 2000


Track 1
Filename C:\VA - Flower Power {Time-Life} (2007) [FLAC]\Born To Be Wild\Disc 1\01 - Steppenwolf - Born To Be Wild.wav

Pre-gap length 0:00:02.00

Peak level 94.4 %
Track quality 99.9 %
Test CRC D432C806
Copy CRC D432C806
Copy OK

Track 2
Filename C:\VA - Flower Power {Time-Life} (2007) [FLAC]\Born To Be Wild\Disc 1\02 - The Grass Roots - Midnight Confessions.wav

Pre-gap length 0:00:01.46

Peak level 100.0 %
Track quality 100.0 %
Test CRC 92C9BDF0
Copy CRC 92C9BDF0
Copy OK

Track 3
Filename C:\VA - Flower Power {Time-Life} (2007) [FLAC]\Born To Be Wild\Disc 1\03 - The Mamas & The Papas - California Dreamin'.wav

Pre-gap length 0:00:01.71

Peak level 84.5 %
Track quality 100.0 %
Test CRC D8E09C73
Copy CRC D8E09C73
Copy OK

Track 4
Filename C:\VA - Flower Power {Time-Life} (2007) [FLAC]\Born To Be Wild\Disc 1\04 - Eric Burdon & The Animals - Sky Pilot (Part One).wav

Pre-gap length 0:00:01.39

Peak level 99.2 %
Track quality 100.0 %
Test CRC FBD28EAA
Copy CRC FBD28EAA
Copy OK

Track 5
Filename C:\VA - Flower Power {Time-Life} (2007) [FLAC]\Born To Be Wild\Disc 1\05 - Thunderclap Newman - Something in the Air.wav

Pre-gap length 0:00:01.48

Peak level 88.7 %
Track quality 100.0 %
Test CRC 470AA1F7
Copy CRC 470AA1F7
Copy OK

Track 6
Filename C:\VA - Flower Power {Time-Life} (2007) [FLAC]\Born To Be Wild\Disc 1\06 - Joe Cocker - With A Little Help From My Friends.wav

Pre-gap length 0:00:01.10

Peak level 88.4 %
Track quality 100.0 %
Test CRC 172C8685
Copy CRC 172C8685
Copy OK

Track 7
Filename C:\VA - Flower Power {Time-Life} (2007) [FLAC]\Born To Be Wild\Disc 1\07 - Marvin Gaye - What's Going On.wav

Peak level 89.0 %
Track quality 100.0 %
Test CRC DDA30727
Copy CRC DDA30727
Copy OK

Track 8
Filename C:\VA - Flower Power {Time-Life} (2007) [FLAC]\Born To Be Wild\Disc 1\08 - Edwin Starr - War.wav

Pre-gap length 0:00:01.04

Peak level 85.9 %
Track quality 100.0 %
Test CRC 3E0D4FFD
Copy CRC 3E0D4FFD
Copy OK

Track 9
Filename C:\VA - Flower Power {Time-Life} (2007) [FLAC]\Born To Be Wild\Disc 1\09 - Jim Croce - Bad, Bad Leroy Brown.wav

Pre-gap length 0:00:01.04

Peak level 87.6 %
Track quality 99.9 %
Test CRC C165C9EB
Copy CRC C165C9EB
Copy OK

Track 10
Filename C:\VA - Flower Power {Time-Life} (2007) [FLAC]\Born To Be Wild\Disc 1\10 - Cat Stevens - Morning Has Broken.wav

Pre-gap length 0:00:01.11

Peak level 80.7 %
Track quality 100.0 %
Test CRC 70BB2443
Copy CRC 70BB2443
Copy OK

Track 11
Filename C:\VA - Flower Power {Time-Life} (2007) [FLAC]\Born To Be Wild\Disc 1\11 - The Cowsills - Hair.wav

Peak level 84.1 %
Track quality 100.0 %
Test CRC BF983774
Copy CRC BF983774
Copy OK

Track 12
Filename C:\VA - Flower Power {Time-Life} (2007) [FLAC]\Born To Be Wild\Disc 1\12 - The Temptations - Cloud Nine.wav

Pre-gap length 0:00:01.26

Peak level 58.4 %
Track quality 100.0 %
Test CRC 5EA409FE
Copy CRC 5EA409FE
Copy OK

Track 13
Filename C:\VA - Flower Power {Time-Life} (2007) [FLAC]\Born To Be Wild\Disc 1\13 - Elton John - Rocket Man.wav

Pre-gap length 0:00:01.29

Peak level 76.5 %
Track quality 100.0 %
Test CRC 8325308D
Copy CRC 8325308D
Copy OK

Track 14
Filename C:\VA - Flower Power {Time-Life} (2007) [FLAC]\Born To Be Wild\Disc 1\14 - Free - All Right Now.wav

Pre-gap length 0:00:01.41

Peak level 97.9 %
Track quality 99.9 %
Test CRC 03DCB060
Copy CRC 03DCB060
Copy OK

Track 15
Filename C:\VA - Flower Power {Time-Life} (2007) [FLAC]\Born To Be Wild\Disc 1\15 - Blue Cheer - Summertime Blues.wav

Peak level 89.7 %
Track quality 100.0 %
Test CRC CE371281
Copy CRC CE371281
Copy OK

Track 16
Filename C:\VA - Flower Power {Time-Life} (2007) [FLAC]\Born To Be Wild\Disc 1\16 - Eric Burdon and War - Spill The Wine.wav

Pre-gap length 0:00:01.70

Peak level 80.3 %
Track quality 100.0 %
Test CRC FB8A37B9
Copy CRC FB8A37B9
Copy OK

No errors occured


End of status report



EAC extraction logfile from 2. September 2007, 20:17 for CD
Various / Flower Power - Born To Be Wild (Disc 2)

Used drive : _NEC DVD_RW ND-3540A Adapter: 0 ID: 0
Read mode : Secure with NO C2, accurate stream, disable cache
Read offset correction : 48
Overread into Lead-In and Lead-Out : No

Used output format : Internal WAV Routines
44.100 Hz; 16 Bit; Stereo

Other options :
Fill up missing offset samples with silence : Yes
Delete leading and trailing silent blocks : No
Native Win32 interface for Win NT & 2000


Track 1
Filename C:\VA - Flower Power {Time-Life} (2007) [FLAC]\Born To Be Wild\Disc 2\01 - Steppenwolf - Magic Carpet Ride.wav

Pre-gap length 0:00:02.00

Peak level 66.5 %
Track quality 100.0 %
Test CRC 98BC1A83
Copy CRC 98BC1A83
Copy OK

Track 2
Filename C:\VA - Flower Power {Time-Life} (2007) [FLAC]\Born To Be Wild\Disc 2\02 - The Mamas & The Papas - Monday, Monday.wav

Pre-gap length 0:00:01.26

Peak level 87.3 %
Track quality 99.9 %
Test CRC D9D3A3BE
Copy CRC D9D3A3BE
Copy OK

Track 3
Filename C:\VA - Flower Power {Time-Life} (2007) [FLAC]\Born To Be Wild\Disc 2\03 - Elton John - Your Song.wav

Peak level 84.4 %
Track quality 100.0 %
Test CRC C5B48A94
Copy CRC C5B48A94
Copy OK

Track 4
Filename C:\VA - Flower Power {Time-Life} (2007) [FLAC]\Born To Be Wild\Disc 2\04 - The Grass Roots - Sooner or Later.wav

Peak level 99.8 %
Track quality 100.0 %
Test CRC ACF99E57
Copy CRC ACF99E57
Copy OK

Track 5
Filename C:\VA - Flower Power {Time-Life} (2007) [FLAC]\Born To Be Wild\Disc 2\05 - Joe Cocker with Leon Russell & the Shelter People - The Letter.wav

Pre-gap length 0:00:02.72

Peak level 88.0 %
Track quality 100.0 %
Test CRC DF79CA78
Copy CRC DF79CA78
Copy OK

Track 6
Filename C:\VA - Flower Power {Time-Life} (2007) [FLAC]\Born To Be Wild\Disc 2\06 - Barry McGuire - Eve of Destruction.wav

Peak level 92.3 %
Track quality 100.0 %
Test CRC 1ECB4210
Copy CRC 1ECB4210
Copy OK

Track 7
Filename C:\VA - Flower Power {Time-Life} (2007) [FLAC]\Born To Be Wild\Disc 2\07 - The Temptations - Ball of Confusion (That's What The World Is Today).wav

Peak level 97.2 %
Track quality 99.9 %
Test CRC D7C0A6F8
Copy CRC D7C0A6F8
Copy OK

Track 8
Filename C:\VA - Flower Power {Time-Life} (2007) [FLAC]\Born To Be Wild\Disc 2\08 - Marvin Gaye - Mercy Mercy Me (The Ecology).wav

Pre-gap length 0:00:01.36

Peak level 83.4 %
Track quality 100.0 %
Test CRC 23643B2E
Copy CRC 23643B2E
Copy OK

Track 9
Filename C:\VA - Flower Power {Time-Life} (2007) [FLAC]\Born To Be Wild\Disc 2\09 - Mama Cass - It's Getting Better.wav

Pre-gap length 0:00:01.57

Peak level 80.6 %
Track quality 100.0 %
Test CRC 5CE98D50
Copy CRC 5CE98D50
Copy OK

Track 10
Filename C:\VA - Flower Power {Time-Life} (2007) [FLAC]\Born To Be Wild\Disc 2\10 - Jim Croce - Time In A Bottle.wav

Pre-gap length 0:00:01.01

Peak level 88.6 %
Track quality 100.0 %
Test CRC F7CD92CA
Copy CRC F7CD92CA
Copy OK

Track 11
Filename C:\VA - Flower Power {Time-Life} (2007) [FLAC]\Born To Be Wild\Disc 2\11 - The Impressions - People Get Ready.wav

Pre-gap length 0:00:01.60

Peak level 89.8 %
Track quality 100.0 %
Test CRC 06724E14
Copy CRC 06724E14
Copy OK

Track 12
Filename C:\VA - Flower Power {Time-Life} (2007) [FLAC]\Born To Be Wild\Disc 2\12 - Smith - Baby It's You.wav

Peak level 89.8 %
Track quality 100.0 %
Test CRC 17C45D7D
Copy CRC 17C45D7D
Copy OK

Track 13
Filename C:\VA - Flower Power {Time-Life} (2007) [FLAC]\Born To Be Wild\Disc 2\13 - Marvin Gaye - Inner City Blues (Make Me Wanna Holler).wav

Peak level 84.6 %
Track quality 100.0 %
Test CRC 5110165E
Copy CRC 5110165E
Copy OK

Track 14
Filename C:\VA - Flower Power {Time-Life} (2007) [FLAC]\Born To Be Wild\Disc 2\14 - The Crazy World of Arthur Brown - Fire.wav

Pre-gap length 0:00:01.09

Peak level 89.5 %
Track quality 100.0 %
Test CRC 332D1D99
Copy CRC 332D1D99
Copy OK

Track 15
Filename C:\VA - Flower Power {Time-Life} (2007) [FLAC]\Born To Be Wild\Disc 2\15 - The Cowsills - The Rain, The Park & Other Things.wav

Pre-gap length 0:00:01.02

Peak level 99.8 %
Track quality 99.9 %
Test CRC 44AFFF2F
Copy CRC 44AFFF2F
Copy OK

Track 16
Filename C:\VA - Flower Power {Time-Life} (2007) [FLAC]\Born To Be Wild\Disc 2\16 - Friend and Lover - Reach Out of the Darkness.wav

Peak level 99.8 %
Track quality 100.0 %
Test CRC 2161CC2E
Copy CRC 2161CC2E
Copy OK

No errors occured


End of status report


_________________________________________________________


VA - Flower Power: The Music of the Love Generation (2007) [Time Life Box]

Flower Power: Age of Aquarius
EAC Rip | 2 x CD | FLAC Tracks + Cue + Log | 714.3 MB | RAR 3% Recovery


Disc 1

01. Piece of My Heart Big Brother & the Holding Company
02. Mr. Tambourine Man The Byrds
03. Summer in the City - The Lovin' Spoonful
04. White Rabbit - Jefferson Airplane
05. I Want to Take You Higher - Sly & the Family Stone
06. Mellow Yellow - Donovan
07. American Woman - The Guess Who
08. He Ain't Heavy, He's My Brother - The Hollies
09. Brand New Key - Melanie
10. Everybody's Talkin' - Nilsson
11. Angel of the Morning - Merrilee Rush
12. Black Magic Woman - Santana
13. And When I Die - Blood, Sweat & Tears
14. Stoned Soul Picnic - The 5th Dimension
15. It's All Over Now, Baby Blue - Bob Dylan
16. Light My Fire - José Feliciano
17. Eight Miles High - The Byrds

Disc 2

01. Turn! Turn! Turn! (To Everything There Is a Season) - The Byrds
02. Spinning Wheel - Blood, Sweat & Tears
03. Green Tambourine - The Lemon Pipers
04. Daydream - The Lovin' Spoonful
05. Aquarius/Let the Sunshine In (The Flesh Failures) - The 5th Dimension
06. Evil Ways - Santana
07. In the Year 2525 (Exordium & Terminus) - Zager & Evans
08. It Never Rains in Southern California - Albert Hammond
09. Time Has Come Today - The Chambers Brothers
10. These Eyes - The Guess Who
11. Sunshine Superman - Donovan
12. Lay Down (Candles in the Rain) - Melanie with the Edwin Hawkins Singers
13. Subterranean Homesick Blues - Bob Dylan
14. All the Young Dudes - Mott the Hoople
15. Mercedes Benz - Janis Joplin
16. Hurdy Gurdy Man - Donvan
17. Love, Peace and Happiness - The Chambers Brothers


EAC extraction logfile from 2. September 2007, 20:44 for CD
Various / Flower Power - Age of Aquarius (Disc 1)

Used drive : _NEC DVD_RW ND-3540A Adapter: 0 ID: 0
Read mode : Secure with NO C2, accurate stream, disable cache
Read offset correction : 48
Overread into Lead-In and Lead-Out : No

Used output format : Internal WAV Routines
44.100 Hz; 16 Bit; Stereo

Other options :
Fill up missing offset samples with silence : Yes
Delete leading and trailing silent blocks : No
Native Win32 interface for Win NT & 2000


Track 1
Filename C:\VA - Flower Power {Time-Life} (2007) [FLAC]\Age of Aquarius\Disc 1\01 - Big Brother & The Holding Company - Piece of My Heart.wav

Pre-gap length 0:00:02.00

Peak level 93.3 %
Track quality 99.9 %
Test CRC D99ADA3C
Copy CRC D99ADA3C
Copy OK

Track 2
Filename C:\VA - Flower Power {Time-Life} (2007) [FLAC]\Age of Aquarius\Disc 1\02 - The Byrds - Mr. Tambourine Man.wav

Peak level 90.1 %
Track quality 100.0 %
Test CRC DB062936
Copy CRC DB062936
Copy OK

Track 3
Filename C:\VA - Flower Power {Time-Life} (2007) [FLAC]\Age of Aquarius\Disc 1\03 - The Lovin' Spoonful - Summer in the City.wav

Peak level 79.1 %
Track quality 100.0 %
Test CRC BF4F5BB5
Copy CRC BF4F5BB5
Copy OK

Track 4
Filename C:\VA - Flower Power {Time-Life} (2007) [FLAC]\Age of Aquarius\Disc 1\04 - Jefferson Airplane - White Rabbit.wav

Pre-gap length 0:00:01.11

Peak level 86.8 %
Track quality 100.0 %
Test CRC 0AD202A2
Copy CRC 0AD202A2
Copy OK

Track 5
Filename C:\VA - Flower Power {Time-Life} (2007) [FLAC]\Age of Aquarius\Disc 1\05 - Sly & The Family Stone - I Want To Take You Higher.wav

Peak level 91.6 %
Track quality 100.0 %
Test CRC 5237CB5A
Copy CRC 5237CB5A
Copy OK

Track 6
Filename C:\VA - Flower Power {Time-Life} (2007) [FLAC]\Age of Aquarius\Disc 1\06 - Donovan - Mellow Yellow.wav

Peak level 82.2 %
Track quality 100.0 %
Test CRC 36052D98
Copy CRC 36052D98
Copy OK

Track 7
Filename C:\VA - Flower Power {Time-Life} (2007) [FLAC]\Age of Aquarius\Disc 1\07 - The Guess Who - American Woman.wav

Pre-gap length 0:00:01.07

Peak level 87.2 %
Track quality 100.0 %
Test CRC FEDF2E58
Copy CRC FEDF2E58
Copy OK

Track 8
Filename C:\VA - Flower Power {Time-Life} (2007) [FLAC]\Age of Aquarius\Disc 1\08 - The Hollies - He Ain't Heavy, He's My Brother.wav

Pre-gap length 0:00:01.31

Peak level 88.2 %
Track quality 100.0 %
Test CRC 94B2E289
Copy CRC 94B2E289
Copy OK

Track 9
Filename C:\VA - Flower Power {Time-Life} (2007) [FLAC]\Age of Aquarius\Disc 1\09 - Melanie - Brand New Key.wav

Peak level 79.9 %
Track quality 100.0 %
Test CRC 643EDE3D
Copy CRC 643EDE3D
Copy OK

Track 10
Filename C:\VA - Flower Power {Time-Life} (2007) [FLAC]\Age of Aquarius\Disc 1\10 - Nilsson - Everybody's Talkin'.wav

Pre-gap length 0:00:01.24

Peak level 74.4 %
Track quality 100.0 %
Test CRC 6ECDB77B
Copy CRC 6ECDB77B
Copy OK

Track 11
Filename C:\VA - Flower Power {Time-Life} (2007) [FLAC]\Age of Aquarius\Disc 1\11 - Merrilee Rush - Angel of the Morning.wav

Pre-gap length 0:00:01.35

Peak level 80.0 %
Track quality 100.0 %
Test CRC 8B52DA94
Copy CRC 8B52DA94
Copy OK

Track 12
Filename C:\VA - Flower Power {Time-Life} (2007) [FLAC]\Age of Aquarius\Disc 1\12 - Santana - Black Magic Woman.wav

Pre-gap length 0:00:01.05

Peak level 85.8 %
Track quality 100.0 %
Test CRC B304B5C4
Copy CRC B304B5C4
Copy OK

Track 13
Filename C:\VA - Flower Power {Time-Life} (2007) [FLAC]\Age of Aquarius\Disc 1\13 - Blood, Sweat & Tears - And When I Die.wav

Pre-gap length 0:00:01.05

Peak level 82.9 %
Track quality 100.0 %
Test CRC 8050287C
Copy CRC 8050287C
Copy OK

Track 14
Filename C:\VA - Flower Power {Time-Life} (2007) [FLAC]\Age of Aquarius\Disc 1\14 - The 5th Dimension - Stoned Soul Picnic.wav

Peak level 91.2 %
Track quality 100.0 %
Test CRC E8FA5F45
Copy CRC E8FA5F45
Copy OK

Track 15
Filename C:\VA - Flower Power {Time-Life} (2007) [FLAC]\Age of Aquarius\Disc 1\15 - Bob Dylan - It's All Over Now, Baby Blue.wav

Pre-gap length 0:00:01.01

Peak level 80.1 %
Track quality 100.0 %
Test CRC 94FFC86B
Copy CRC 94FFC86B
Copy OK

Track 16
Filename C:\VA - Flower Power {Time-Life} (2007) [FLAC]\Age of Aquarius\Disc 1\16 - José Feliciano - Light My Fire.wav

Pre-gap length 0:00:01.03

Peak level 85.6 %
Track quality 100.0 %
Test CRC 88F14874
Copy CRC 88F14874
Copy OK

Track 17
Filename C:\VA - Flower Power {Time-Life} (2007) [FLAC]\Age of Aquarius\Disc 1\17 - The Byrds - Eight Miles High.wav

Pre-gap length 0:00:02.04

Peak level 85.0 %
Track quality 100.0 %
Test CRC 621905CB
Copy CRC 621905CB
Copy OK

No errors occured


End of status report



EAC extraction logfile from 2. September 2007, 21:25 for CD
Various / Flower Power - Age of Aquarius (Disc 2)

Used drive : _NEC DVD_RW ND-3540A Adapter: 0 ID: 0
Read mode : Secure with NO C2, accurate stream, disable cache
Read offset correction : 48
Overread into Lead-In and Lead-Out : No

Used output format : Internal WAV Routines
44.100 Hz; 16 Bit; Stereo

Other options :
Fill up missing offset samples with silence : Yes
Delete leading and trailing silent blocks : No
Native Win32 interface for Win NT & 2000


Track 1
Filename C:\VA - Flower Power {Time-Life} (2007) [FLAC]\Age of Aquarius\Disc 2\01 - The Byrds - Turn! Turn! Turn! (To Everything There Is A Season).wav

Pre-gap length 0:00:02.00

Peak level 86.2 %
Track quality 100.0 %
Test CRC 6DDBB91E
Copy CRC 6DDBB91E
Copy OK

Track 2
Filename C:\VA - Flower Power {Time-Life} (2007) [FLAC]\Age of Aquarius\Disc 2\02 - Blood, Sweat & Tears - Spinning Wheel.wav

Pre-gap length 0:00:01.12

Peak level 90.4 %
Track quality 100.0 %
Test CRC 7D969C72
Copy CRC 7D969C72
Copy OK

Track 3
Filename C:\VA - Flower Power {Time-Life} (2007) [FLAC]\Age of Aquarius\Disc 2\03 - The Lemon Pipers - Green Tambourine.wav

Pre-gap length 0:00:01.30

Peak level 86.4 %
Track quality 100.0 %
Test CRC ADFD073C
Copy CRC ADFD073C
Copy OK

Track 4
Filename C:\VA - Flower Power {Time-Life} (2007) [FLAC]\Age of Aquarius\Disc 2\04 - The Lovin' Spoonful - Daydream.wav

Pre-gap length 0:00:01.23

Peak level 75.3 %
Track quality 99.9 %
Test CRC 2A8A14D0
Copy CRC 2A8A14D0
Copy OK

Track 5
Filename C:\VA - Flower Power {Time-Life} (2007) [FLAC]\Age of Aquarius\Disc 2\05 - Let The Sunshine In (The Flesh Failures).wav

Pre-gap length 0:00:01.08

Peak level 86.9 %
Track quality 100.0 %
Test CRC 06B573E1
Copy CRC 06B573E1
Copy OK

Track 6
Filename C:\VA - Flower Power {Time-Life} (2007) [FLAC]\Age of Aquarius\Disc 2\06 - Santana - Evil Ways.wav

Peak level 84.9 %
Track quality 100.0 %
Test CRC 07F71049
Copy CRC 07F71049
Copy OK

Track 7
Filename C:\VA - Flower Power {Time-Life} (2007) [FLAC]\Age of Aquarius\Disc 2\07 - Zager & Evans - In The Year 2525 (Exordium & Terminus).wav

Pre-gap length 0:00:01.02

Peak level 88.3 %
Track quality 100.0 %
Test CRC 1BF57B77
Copy CRC 1BF57B77
Copy OK

Track 8
Filename C:\VA - Flower Power {Time-Life} (2007) [FLAC]\Age of Aquarius\Disc 2\08 - Albert Hammond - It Never Rains In Southern California.wav

Pre-gap length 0:00:01.07

Peak level 83.2 %
Track quality 99.9 %
Test CRC 9B69ACA8
Copy CRC 9B69ACA8
Copy OK

Track 9
Filename C:\VA - Flower Power {Time-Life} (2007) [FLAC]\Age of Aquarius\Disc 2\09 - The Chambers Brothers - Time Has Come Today.wav

Peak level 78.7 %
Track quality 100.0 %
Test CRC F0D86BA2
Copy CRC F0D86BA2
Copy OK

Track 10
Filename C:\VA - Flower Power {Time-Life} (2007) [FLAC]\Age of Aquarius\Disc 2\10 - The Guess Who - These Eyes.wav

Pre-gap length 0:00:01.08

Peak level 87.8 %
Track quality 99.9 %
Test CRC 1B6597FC
Copy CRC 1B6597FC
Copy OK

Track 11
Filename C:\VA - Flower Power {Time-Life} (2007) [FLAC]\Age of Aquarius\Disc 2\11 - Donovan - Sunshine Superman.wav

Peak level 90.2 %
Track quality 99.9 %
Test CRC 50530180
Copy CRC 50530180
Copy OK

Track 12
Filename C:\VA - Flower Power {Time-Life} (2007) [FLAC]\Age of Aquarius\Disc 2\12 - Melanie with the Edwin Hawkins Singers - Lay Down (Candles in the Rain).wav

Peak level 88.8 %
Track quality 100.0 %
Test CRC BD1157B4
Copy CRC BD1157B4
Copy OK

Track 13
Filename C:\VA - Flower Power {Time-Life} (2007) [FLAC]\Age of Aquarius\Disc 2\13 - Bob Dylan - Subterranean Homesick Blues.wav

Pre-gap length 0:00:01.17

Peak level 84.0 %
Track quality 100.0 %
Test CRC 8466FE21
Copy CRC 8466FE21
Copy OK

Track 14
Filename C:\VA - Flower Power {Time-Life} (2007) [FLAC]\Age of Aquarius\Disc 2\14 - Mott The Hoople - All The Young Dudes.wav

Peak level 88.2 %
Track quality 100.0 %
Test CRC C03607AD
Copy CRC C03607AD
Copy OK

Track 15
Filename C:\VA - Flower Power {Time-Life} (2007) [FLAC]\Age of Aquarius\Disc 2\15 - Janis Joplin - Mercedes Benz.wav

Peak level 65.4 %
Track quality 100.0 %
Test CRC 66B13979
Copy CRC 66B13979
Copy OK

Track 16
Filename C:\VA - Flower Power {Time-Life} (2007) [FLAC]\Age of Aquarius\Disc 2\16 - Donovan - Hurdy Gurdy Man.wav

Pre-gap length 0:00:01.13

Peak level 88.4 %
Track quality 100.0 %
Test CRC 8902AD8F
Copy CRC 8902AD8F
Copy OK

Track 17
Filename C:\VA - Flower Power {Time-Life} (2007) [FLAC]\Age of Aquarius\Disc 2\17 - The Chambers Brothers - Love, Peace and Happiness.wav

Pre-gap length 0:00:01.12

Peak level 86.7 %
Track quality 100.0 %
Test CRC 16C8F2EA
Copy CRC 16C8F2EA
Copy OK

No errors occured


End of status report


_________________________________________________________


VA - Flower Power: The Music of the Love Generation (2007) [Time Life Box]

Summer of Love (The Hits of 1967)
EAC Rip | 2 x CD | FLAC Tracks + Cue + Log | 757.9 MB | RAR 3% Recovery


Disc 1

01. San Francisco (Be Sure to Wear Flowers in Your Hair) - Scott McKenzie
02. Happy Together - The Turtles
03. Windy - The Association
04. Creeque Alley - The Mamas & the Papas
05. Gimme Some Lovin' - The Spencer Davis Group
06. Incense and Peppermints - Strawberry Alarm Clock
07. Little Bit o' Soul - The Music Explosion
08. The 59th Street Bridge Song (Feelin' Groovy) - Harpers Bizarre
09. The Letter - The Box Tops
10. Heroes and Villains (single version) - The Beach Boys
11. Reflections - Diana Ross and the Supremes
12. Let's Live for Today - The Grass Roots
13. Darling Be Home Soon - The Lovin' Spoonful
14. I Was Made to Love Her - Stevie Wonder
15. Pleasant Valley Sunday - The Monkees
16. Carrie-Anne - The Hollies
17. Talk Talk - The Music Machine
18. Sunday Will Never Be the Same - Spanky and Our Gang
19. Kind of a Drag - The Buckinghams
20. A Whiter Shade of Pale - Procol Harum

Disc 2

01. I Feel Free - Cream
02. So You Want to Be a Rock 'n' Roll Star - The Byrds
03. Somebody to Love - Jefferson Airplane
04. I Had Too Much to Dream (Last Night) - The Electric Prunes
05. Get Together - The Youngbloods
06. I'm a Man - The Spencer Davis Group
07. Brown Eyed Girl - Van Morrison
08. Friday on My Mind - The Easybeats
09. San Franciscan Nights - Eric Burdon & the Animals
10. (We Ain't Got) Nothin' Yet - Blues Magoos
11. Season of the Witch - Donovan
12. Wake Me, Shake Me - The Blues Project
13. Down on Me - Big Brother & the Holding Company
14. You Keep Me Hangin' On (single version) - Vanilla Fudge
15. Not So Sweet Martha Lorraine (single version) - Country Joe and the Fish
16. Paper Sun - Traffic featuring Steve Winwood
17. Pushin' Too Hard - The Seeds
18. It's a Happening Thing - The Peanut Butter Conspiracy
19. Mary, Mary - The Butterfield Blues Band
20. Stroll On - The Yardbirds


EAC extraction logfile from 2. September 2007, 21:49 for CD
Various / Summer of Love (Disc 1)

Used drive : _NEC DVD_RW ND-3540A Adapter: 0 ID: 0
Read mode : Secure with NO C2, accurate stream, disable cache
Read offset correction : 48
Overread into Lead-In and Lead-Out : No

Used output format : Internal WAV Routines
44.100 Hz; 16 Bit; Stereo

Other options :
Fill up missing offset samples with silence : Yes
Delete leading and trailing silent blocks : No
Native Win32 interface for Win NT & 2000


Track 1
Filename D:\VA - Flower Power {Time-Life} (2007) [FLAC]\Summer Of Love\Disc 1\01 - Scott McKenzie - San Francisco (Be Sure to Wear Flowers in Your Hair).wav

Pre-gap length 0:00:02.00

Peak level 98.8 %
Track quality 100.0 %
Test CRC CEDBB2CE
Copy CRC CEDBB2CE
Copy OK

Track 2
Filename D:\VA - Flower Power {Time-Life} (2007) [FLAC]\Summer Of Love\Disc 1\02 - The Turtles - Happy Together.wav

Pre-gap length 0:00:00.71

Peak level 98.8 %
Track quality 100.0 %
Test CRC B1B63138
Copy CRC B1B63138
Copy OK

Track 3
Filename D:\VA - Flower Power {Time-Life} (2007) [FLAC]\Summer Of Love\Disc 1\03 - The Association - Windy.wav

Pre-gap length 0:00:00.29

Peak level 98.8 %
Track quality 100.0 %
Test CRC 5C011E08
Copy CRC 5C011E08
Copy OK

Track 4
Filename D:\VA - Flower Power {Time-Life} (2007) [FLAC]\Summer Of Love\Disc 1\04 - The Mamas & The Papas - Creeque Alley.wav

Pre-gap length 0:00:00.36

Peak level 98.8 %
Track quality 100.0 %
Test CRC 24AD9905
Copy CRC 24AD9905
Copy OK

Track 5
Filename D:\VA - Flower Power {Time-Life} (2007) [FLAC]\Summer Of Love\Disc 1\05 - The Spencer Davis Group - Gimme Some Lovin'.wav

Pre-gap length 0:00:00.36

Peak level 98.8 %
Track quality 100.0 %
Test CRC 9A8A7E2E
Copy CRC 9A8A7E2E
Copy OK

Track 6
Filename D:\VA - Flower Power {Time-Life} (2007) [FLAC]\Summer Of Love\Disc 1\06 - Strawberry Alarm Clock - Incense and Peppermints.wav

Pre-gap length 0:00:00.19

Peak level 94.4 %
Track quality 99.9 %
Test CRC BAC88E53
Copy CRC BAC88E53
Copy OK

Track 7
Filename D:\VA - Flower Power {Time-Life} (2007) [FLAC]\Summer Of Love\Disc 1\07 - The Music Explosion - Little Bit O' Soul.wav

Pre-gap length 0:00:00.13

Peak level 93.7 %
Track quality 100.0 %
Test CRC D6779963
Copy CRC D6779963
Copy OK

Track 8
Filename D:\VA - Flower Power {Time-Life} (2007) [FLAC]\Summer Of Love\Disc 1\08 - Harpers Bizarre - The 59th Street Bridge Song (Feelin' Groovy).wav

Pre-gap length 0:00:00.65

Peak level 98.8 %
Track quality 99.9 %
Test CRC 074C3059
Copy CRC 074C3059
Copy OK

Track 9
Filename D:\VA - Flower Power {Time-Life} (2007) [FLAC]\Summer Of Love\Disc 1\09 - The Box Tops - The Letter.wav

Pre-gap length 0:00:00.52

Peak level 98.8 %
Track quality 100.0 %
Test CRC 6534D3FE
Copy CRC 6534D3FE
Copy OK

Track 10
Filename D:\VA - Flower Power {Time-Life} (2007) [FLAC]\Summer Of Love\Disc 1\10 - The Beach Boys - Heroes and Villians.wav

Pre-gap length 0:00:00.38

Peak level 98.8 %
Track quality 100.0 %
Test CRC 4486A318
Copy CRC 4486A318
Copy OK

Track 11
Filename D:\VA - Flower Power {Time-Life} (2007) [FLAC]\Summer Of Love\Disc 1\11 - Diana Ross and the Supremes - Reflections.wav

Pre-gap length 0:00:00.32

Peak level 98.8 %
Track quality 100.0 %
Test CRC 1C60AA3C
Copy CRC 1C60AA3C
Copy OK

Track 12
Filename D:\VA - Flower Power {Time-Life} (2007) [FLAC]\Summer Of Love\Disc 1\12 - The Grass Roots - Let's Live for Today.wav

Pre-gap length 0:00:00.50

Peak level 98.8 %
Track quality 100.0 %
Test CRC EFDC49A7
Copy CRC EFDC49A7
Copy OK

Track 13
Filename D:\VA - Flower Power {Time-Life} (2007) [FLAC]\Summer Of Love\Disc 1\13 - The Lovin' Spoonful - Darling Be Home Soon.wav

Pre-gap length 0:00:00.41

Peak level 98.8 %
Track quality 100.0 %
Test CRC D25167AA
Copy CRC D25167AA
Copy OK

Track 14
Filename D:\VA - Flower Power {Time-Life} (2007) [FLAC]\Summer Of Love\Disc 1\14 - Stevie Wonder - I Was Made to Love Her.wav

Pre-gap length 0:00:00.47

Peak level 98.8 %
Track quality 100.0 %
Test CRC 3BBED223
Copy CRC 3BBED223
Copy OK

Track 15
Filename D:\VA - Flower Power {Time-Life} (2007) [FLAC]\Summer Of Love\Disc 1\15 - The Monkees - Pleasant Valley Sunday.wav

Pre-gap length 0:00:00.55

Peak level 95.5 %
Track quality 100.0 %
Test CRC EC3B7387
Copy CRC EC3B7387
Copy OK

Track 16
Filename D:\VA - Flower Power {Time-Life} (2007) [FLAC]\Summer Of Love\Disc 1\16 - The Hollies - Carrie-Anne.wav

Pre-gap length 0:00:00.14

Peak level 97.7 %
Track quality 99.9 %
Test CRC A81A8C58
Copy CRC A81A8C58
Copy OK

Track 17
Filename D:\VA - Flower Power {Time-Life} (2007) [FLAC]\Summer Of Love\Disc 1\17 - The Music Machine - Talk Talk.wav

Pre-gap length 0:00:00.33

Peak level 97.7 %
Track quality 100.0 %
Test CRC E5AEDB4C
Copy CRC E5AEDB4C
Copy OK

Track 18
Filename D:\VA - Flower Power {Time-Life} (2007) [FLAC]\Summer Of Love\Disc 1\18 - Spanky and Our Gang - Sunday Will Never Be the Same.wav

Pre-gap length 0:00:00.30

Peak level 98.8 %
Track quality 100.0 %
Test CRC 6141D2ED
Copy CRC 6141D2ED
Copy OK

Track 19
Filename D:\VA - Flower Power {Time-Life} (2007) [FLAC]\Summer Of Love\Disc 1\19 - The Buckinghams - Kind of a Drag.wav

Pre-gap length 0:00:01.08

Peak level 98.8 %
Track quality 100.0 %
Test CRC 6506FF71
Copy CRC 6506FF71
Copy OK

Track 20
Filename D:\VA - Flower Power {Time-Life} (2007) [FLAC]\Summer Of Love\Disc 1\20 - Procol Harum - A Whiter Shade of Pale.wav

Pre-gap length 0:00:00.54

Peak level 98.8 %
Track quality 100.0 %
Test CRC 645A0132
Copy CRC 645A0132
Copy OK

No errors occured


End of status report



EAC extraction logfile from 2. September 2007, 22:14 for CD
Various / Summer of Love (Disc 2)

Used drive : _NEC DVD_RW ND-3540A Adapter: 0 ID: 0
Read mode : Secure with NO C2, accurate stream, disable cache
Read offset correction : 48
Overread into Lead-In and Lead-Out : No

Used output format : Internal WAV Routines
44.100 Hz; 16 Bit; Stereo

Other options :
Fill up missing offset samples with silence : Yes
Delete leading and trailing silent blocks : No
Native Win32 interface for Win NT & 2000


Track 1
Filename D:\VA - Flower Power {Time-Life} (2007) [FLAC]\Summer Of Love\Disc 2\01 - Cream - I Feel Free.wav

Pre-gap length 0:00:02.00

Peak level 98.8 %
Track quality 100.0 %
Test CRC 8A9D4B3A
Copy CRC 8A9D4B3A
Copy OK

Track 2
Filename D:\VA - Flower Power {Time-Life} (2007) [FLAC]\Summer Of Love\Disc 2\02 - The Byrds - So You Want to Be a Rock 'n' Roll Star.wav

Pre-gap length 0:00:00.54

Peak level 95.5 %
Track quality 100.0 %
Test CRC 7D075A5A
Copy CRC 7D075A5A
Copy OK

Track 3
Filename D:\VA - Flower Power {Time-Life} (2007) [FLAC]\Summer Of Love\Disc 2\03 - Jefferson Airplane - Somebody to Love.wav

Pre-gap length 0:00:00.67

Peak level 98.8 %
Track quality 100.0 %
Test CRC 902D4F53
Copy CRC 902D4F53
Copy OK

Track 4
Filename D:\VA - Flower Power {Time-Life} (2007) [FLAC]\Summer Of Love\Disc 2\04 - The Electric Prunes - I Had Too Much to Dream (Last Night).wav

Pre-gap length 0:00:00.10

Peak level 98.8 %
Track quality 100.0 %
Test CRC 94067CB8
Copy CRC 94067CB8
Copy OK

Track 5
Filename D:\VA - Flower Power {Time-Life} (2007) [FLAC]\Summer Of Love\Disc 2\05 - The Youngbloods - Get Together.wav

Pre-gap length 0:00:01.19

Peak level 98.8 %
Track quality 100.0 %
Test CRC FD27DC09
Copy CRC FD27DC09
Copy OK

Track 6
Filename D:\VA - Flower Power {Time-Life} (2007) [FLAC]\Summer Of Love\Disc 2\06 - The Spencer Davis Group - I'm a Man.wav

Pre-gap length 0:00:00.18

Peak level 98.8 %
Track quality 100.0 %
Test CRC DADD9508
Copy CRC DADD9508
Copy OK

Track 7
Filename D:\VA - Flower Power {Time-Life} (2007) [FLAC]\Summer Of Love\Disc 2\07 - Van Morrison - Brown Eyed Girl.wav

Pre-gap length 0:00:00.58

Peak level 98.8 %
Track quality 99.9 %
Test CRC 00F76F88
Copy CRC 00F76F88
Copy OK

Track 8
Filename D:\VA - Flower Power {Time-Life} (2007) [FLAC]\Summer Of Love\Disc 2\08 - The Easybeats - Friday on My Mind.wav

Pre-gap length 0:00:01.23

Peak level 98.8 %
Track quality 100.0 %
Test CRC 1B539113
Copy CRC 1B539113
Copy OK

Track 9
Filename D:\VA - Flower Power {Time-Life} (2007) [FLAC]\Summer Of Love\Disc 2\09 - Eric Burdon & The Animals - San Francisco Nights.wav

Pre-gap length 0:00:00.70

Peak level 98.8 %
Track quality 100.0 %
Test CRC 88C64C9D
Copy CRC 88C64C9D
Copy OK

Track 10
Filename D:\VA - Flower Power {Time-Life} (2007) [FLAC]\Summer Of Love\Disc 2\10 - Blues Magoos - (We Ain't Got) Nothin' Yet.wav

Pre-gap length 0:00:01.26

Peak level 98.8 %
Track quality 100.0 %
Test CRC DB198029
Copy CRC DB198029
Copy OK

Track 11
Filename D:\VA - Flower Power {Time-Life} (2007) [FLAC]\Summer Of Love\Disc 2\11 - Donovan - Season of the Witch.wav

Pre-gap length 0:00:00.42

Peak level 96.6 %
Track quality 100.0 %
Test CRC 8446B70E
Copy CRC 8446B70E
Copy OK

Track 12
Filename D:\VA - Flower Power {Time-Life} (2007) [FLAC]\Summer Of Love\Disc 2\12 - The Blues Project - Wake Me, Shake Me.wav

Pre-gap length 0:00:01.43

Peak level 98.8 %
Track quality 100.0 %
Test CRC 820AF2B6
Copy CRC 820AF2B6
Copy OK

Track 13
Filename D:\VA - Flower Power {Time-Life} (2007) [FLAC]\Summer Of Love\Disc 2\13 - Big Brother and the Holding Company - Down on Me.wav

Pre-gap length 0:00:01.13

Peak level 98.8 %
Track quality 99.9 %
Test CRC 14288B19
Copy CRC 14288B19
Copy OK

Track 14
Filename D:\VA - Flower Power {Time-Life} (2007) [FLAC]\Summer Of Love\Disc 2\14 - Vanilla Fudge - You Keep Me Hangin' On.wav

Pre-gap length 0:00:00.34

Peak level 96.6 %
Track quality 100.0 %
Test CRC CB5891A7
Copy CRC CB5891A7
Copy OK

Track 15
Filename D:\VA - Flower Power {Time-Life} (2007) [FLAC]\Summer Of Love\Disc 2\15 - Country Joe and the Fish - Not So Sweet Martha Lorraine.wav

Pre-gap length 0:00:00.61

Peak level 93.3 %
Track quality 100.0 %
Test CRC 0DFC02C0
Copy CRC 0DFC02C0
Copy OK

Track 16
Filename D:\VA - Flower Power {Time-Life} (2007) [FLAC]\Summer Of Love\Disc 2\16 - Traffic - Paper Sun.wav

Pre-gap length 0:00:01.31

Peak level 98.8 %
Track quality 100.0 %
Test CRC 10CC9E8C
Copy CRC 10CC9E8C
Copy OK

Track 17
Filename D:\VA - Flower Power {Time-Life} (2007) [FLAC]\Summer Of Love\Disc 2\17 - The Seeds - Pushin' Too Hard.wav

Pre-gap length 0:00:01.68

Peak level 98.8 %
Track quality 100.0 %
Test CRC DA27B1B4
Copy CRC DA27B1B4
Copy OK

Track 18
Filename D:\VA - Flower Power {Time-Life} (2007) [FLAC]\Summer Of Love\Disc 2\18 - The Peanut Butter Conspiracy - It's A Happening Thing.wav

Pre-gap length 0:00:00.53

Peak level 98.8 %
Track quality 100.0 %
Test CRC F681FAF9
Copy CRC F681FAF9
Copy OK

Track 19
Filename D:\VA - Flower Power {Time-Life} (2007) [FLAC]\Summer Of Love\Disc 2\19 - The Butterfield Blues Band - Mary, Mary.wav

Pre-gap length 0:00:01.45

Peak level 99.2 %
Track quality 100.0 %
Test CRC 9CD8435B
Copy CRC 9CD8435B
Copy OK

Track 20
Filename D:\VA - Flower Power {Time-Life} (2007) [FLAC]\Summer Of Love\Disc 2\20 - The Yardbirds - Stroll On.wav

Pre-gap length 0:00:01.30

Peak level 97.7 %
Track quality 99.9 %
Test CRC 73110333
Copy CRC 73110333
Copy OK

No errors occured


End of status report


––––––––––––––––––––––––––––––––––––––––


Many Thanks to anmi04

The files are interchangeable!

No Mirrors Please!!!