Subcategories

Trio Rococo - Norwegian Wood (1994)

Posted By: popsakov
Trio Rococo - Norwegian Wood (1994)

Trio Rococo - Norwegian Wood (1994)
EAC Rip | FLAC (Img) + Cue + Log ~ 146 Mb | MP3 CBR320 ~ 134 Mb
Scans (PNG, 350 dpi) ~ 61 Mb | RAR 5% Recovery
Classical Crossover, Chamber Music | BMG Music / RCA Victor #74321-22488-2

There are literally hundreds of muzak albums by the likes of 101 Strings, Ferrante & Teicher, and Mitch Miller. Each album has a theme, like 101 Strings Plays the Ramones or Ferrante & Teicher Salute Root Boy Slim & the Sex Change Band. Most of them are easily ignored. Every so often, however, a true gem arises from the fog. Norwegian Wood by Trio Rococo is such a gem. Niels Eje (oboe and oboe d'amore), Inge Mulvad (cello), and Berit Spaelling (harp) have translated 15 John Lennon/Paul McCartney songs and one George Harrison song lovingly and meticulously. These familiar pieces take on a whole new texture in the hands of these gifted musicians. Mulvad's cello playing "lead guitar" on "Day Tripper" and Spaelling's harp solo on "And I Love Her" are highlights. "I Am the Walrus" is heavier than heavy. There is something reassuring about hearing such friendly pieces in a new light. This is truly ambient and truly unique.
~ Jim Brenholts, All Music

***************

Trio Rococo - Norwegian Wood (1994)

Track List:

01. Eleanor Rigby [3:25]
02. Yesterday [2:23]
03. Here Comes the Sun [3:08]
04. Because [3:31]
05. Day Tripper [4:47]
06. Michelle [4:18]
07. And I Love Her [3:12]
08. Blackbird [4:24]
09. In My Life [2:53]
10. For No One [2:06]
11. All My Loving [3:50]
12. Here, There and Everywhere [2:30]
13. I Am the Walrus [2:48]
14. She's Leaving Home [2:36]
15. The Fool on the Hill [4:43]
16. Norwegian Wood [5:14]

Personnel:

Inge Mulvad - Cello
Berit Spaelling - Harp
Niels Eje - Oboe, Oboe d'Amore

Exact Audio Copy V1.3 from 2. September 2016

Отчёт EAC об извлечении, выполненном 17. октября 2016, 19:35

Trio Rococo / Norwegian Wood

Дисковод: _NEC DVD_RW ND-3550A Adapter: 1 ID: 3

Режим чтения : Достоверность
Использование точного потока : Да
Отключение кэша аудио : Да
Использование указателей C2 : Нет

Коррекция смещения при чтении : 48
Способность читать области Lead-in и Lead-out : Нет
Заполнение пропущенных сэмплов тишиной : Да
Удаление блоков с тишиной в начале и конце : Нет
При вычислениях CRC использовались нулевые сэмплы : Да
Интерфейс : Встроенный Win32-интерфейс для Win NT/2000

Выходной формат : Пользовательский кодировщик
Выбранный битрейт : 1024 kBit/s
Качество : Высокий
Добавление ID3-тега : Нет
Утилита сжатия : C:\Program Files (x86)\Exact Audio Copy\FLAC\FLAC.EXE
Дополнительные параметры : -6 -V -T "ARTIST=%artist%" -T "TITLE=%title%" -T "ALBUM=%albumtitle%" -T "DATE=%year%" -T "TRACKNUMBER=%tracknr%" -T "GENRE=%genre%" -T "COMMENT=%comment%" -T "BAND=%albuminterpret%" -T "ALBUMARTIST=%albuminterpret%" -T "COMPOSER=%composer%" %haslyrics%–tag-from-file=LYRICS="%lyricsfile%"%haslyrics% -T "DISCNUMBER=%cdnumber%" -T "TOTALDISCS=%totalcds%" -T "TOTALTRACKS=%numtracks%" %hascover%–picture="%coverfile%"%hascover% %source% -o %dest%


TOC извлечённого CD

Трек | Старт | Длительность | Начальный сектор | Конечный сектор
––––––––––––––––––––––––––––––––––-
1 | 0:00.00 | 3:25.10 | 0 | 15384
2 | 3:25.10 | 2:23.15 | 15385 | 26124
3 | 5:48.25 | 3:08.20 | 26125 | 40244
4 | 8:56.45 | 3:31.10 | 40245 | 56079
5 | 12:27.55 | 4:46.55 | 56080 | 77584
6 | 17:14.35 | 4:17.57 | 77585 | 96916
7 | 21:32.17 | 3:11.68 | 96917 | 111309
8 | 24:44.10 | 4:24.07 | 111310 | 131116
9 | 29:08.17 | 2:53.03 | 131117 | 144094
10 | 32:01.20 | 2:06.05 | 144095 | 153549
11 | 34:07.25 | 3:50.22 | 153550 | 170821
12 | 37:57.47 | 2:29.40 | 170822 | 182036
13 | 40:27.12 | 2:48.18 | 182037 | 194654
14 | 43:15.30 | 2:35.70 | 194655 | 206349
15 | 45:51.25 | 4:42.47 | 206350 | 227546
16 | 50:33.72 | 5:14.30 | 227547 | 251126


Характеристики диапазона извлечения и сообщения об ошибках

Выбранный диапазон

Имя файла C:\Users\Desktop\Trio Rococo - Norwegian Wood (1994)\Trio Rococo - Norwegian Wood.wav

Пиковый уровень 93.3 %
Скорость извлечения 6.9 X
Качество диапазона 100.0 %
CRC копии A6A7C666
Копирование… OK

Ошибок не произошло


AccurateRip: сводка

Трек 1 : извлечено точно (доверие 5) [39F0D919] (AR v2)
Трек 2 : извлечено точно (доверие 5) [A6124DE7] (AR v2)
Трек 3 : извлечено точно (доверие 5) [200E19C3] (AR v2)
Трек 4 : извлечено точно (доверие 5) [92044015] (AR v2)
Трек 5 : извлечено точно (доверие 5) [38BF2482] (AR v2)
Трек 6 : извлечено точно (доверие 5) [D7A504EB] (AR v2)
Трек 7 : извлечено точно (доверие 5) [5D5EE3A7] (AR v2)
Трек 8 : извлечено точно (доверие 5) [3D492FFA] (AR v2)
Трек 9 : извлечено точно (доверие 5) [04145AC6] (AR v2)
Трек 10 : извлечено точно (доверие 5) [F097F2F7] (AR v2)
Трек 11 : извлечено точно (доверие 5) [858D19A9] (AR v2)
Трек 12 : извлечено точно (доверие 5) [2516C5B1] (AR v2)
Трек 13 : извлечено точно (доверие 5) [B2CE2EB0] (AR v2)
Трек 14 : извлечено точно (доверие 5) [E038F4A8] (AR v2)
Трек 15 : извлечено точно (доверие 5) [DAACAFAD] (AR v2)
Трек 16 : извлечено точно (доверие 5) [8DF60C6D] (AR v2)

Все треки извлечены точно

Конец отчёта

–– CUETools DB Plugin V2.1.6

[CTDB TOCID: XTlnJ5CFVk44owwEADMzHazmyDo-] found
Submit result: Время ожидания операции истекло
Track | CTDB Status
1 | (7/7) Accurately ripped
2 | (7/7) Accurately ripped
3 | (7/7) Accurately ripped
4 | (7/7) Accurately ripped
5 | (7/7) Accurately ripped
6 | (7/7) Accurately ripped
7 | (7/7) Accurately ripped
8 | (7/7) Accurately ripped
9 | (7/7) Accurately ripped
10 | (7/7) Accurately ripped
11 | (7/7) Accurately ripped
12 | (7/7) Accurately ripped
13 | (7/7) Accurately ripped
14 | (7/7) Accurately ripped
15 | (7/7) Accurately ripped
16 | (7/7) Accurately ripped


==== Контрольная сумма отчёта DC5325150963A62464865F8FCCFC07E61F3E4A8810E9F43B48FF87DB776A707A ====

foobar2000 1.2.6 / Dynamic Range Meter 1.1.1
log date: 2016-10-18 02:23:18

––––––––––––––––––––––––––––––––––––––––
Analyzed: Trio Rococo / Norwegian Wood
––––––––––––––––––––––––––––––––––––––––

DR Peak RMS Duration Track
––––––––––––––––––––––––––––––––––––––––
DR12 -0.60 dB -17.40 dB 3:25 01-Eleanor Rigby
DR11 -1.19 dB -17.75 dB 2:23 02-Yesterday
DR12 -0.97 dB -17.37 dB 3:08 03-Here Comes the Sun
DR11 -1.15 dB -16.65 dB 3:31 04-Because
DR14 -0.60 dB -18.68 dB 4:47 05-Day Tripper
DR13 -0.60 dB -18.57 dB 4:18 06-Michelle
DR14 -1.63 dB -21.36 dB 3:12 07-And I Love Her
DR13 -1.25 dB -21.22 dB 4:24 08-Blackbird
DR11 -0.85 dB -16.47 dB 2:53 09-In My Life
DR12 -1.18 dB -16.86 dB 2:06 10-For No One
DR13 -0.81 dB -17.29 dB 3:50 11-All My Loving
DR11 -0.93 dB -16.35 dB 2:30 12-Here, There and Everywhere
DR12 -0.60 dB -16.64 dB 2:48 13-I Am the Walrus
DR11 -1.03 dB -16.36 dB 2:36 14-She's Leaving Home
DR13 -0.60 dB -18.20 dB 4:43 15-The Fool on the Hill
DR13 -0.89 dB -18.85 dB 5:14 16-Norwegian Wood
––––––––––––––––––––––––––––––––––––––––

Number of tracks: 16
Official DR value: DR12

Samplerate: 44100 Hz
Channels: 2
Bits per sample: 16
Bitrate: 585 kbps
Codec: FLAC
================================================================================

[CUETools log; Date: 18.10.2016 2:23:17; Version: 2.1.5]
[CTDB TOCID: XTlnJ5CFVk44owwEADMzHazmyDo-] found.
Track | CTDB Status
1 | (7/7) Accurately ripped
2 | (7/7) Accurately ripped
3 | (7/7) Accurately ripped
4 | (7/7) Accurately ripped
5 | (7/7) Accurately ripped
6 | (7/7) Accurately ripped
7 | (7/7) Accurately ripped
8 | (7/7) Accurately ripped
9 | (7/7) Accurately ripped
10 | (7/7) Accurately ripped
11 | (7/7) Accurately ripped
12 | (7/7) Accurately ripped
13 | (7/7) Accurately ripped
14 | (7/7) Accurately ripped
15 | (7/7) Accurately ripped
16 | (7/7) Accurately ripped
[AccurateRip ID: 001fd053-017e1b00-e70d1410] found.
Track [ CRC | V2 ] Status
01 [fa8b91e6|39f0d919] (0+5/8) Accurately ripped
02 [9b14cdc9|a6124de7] (0+5/8) Accurately ripped
03 [5373a292|200e19c3] (0+5/8) Accurately ripped
04 [864f994a|92044015] (0+5/8) Accurately ripped
05 [27e6c8be|38bf2482] (0+5/8) Accurately ripped
06 [42b08ee4|d7a504eb] (0+5/8) Accurately ripped
07 [b7eab7fd|5d5ee3a7] (0+5/8) Accurately ripped
08 [f90c1477|3d492ffa] (0+5/8) Accurately ripped
09 [afb705e0|04145ac6] (0+5/8) Accurately ripped
10 [0fb9e95f|f097f2f7] (0+5/8) Accurately ripped
11 [02fc1ebf|858d19a9] (0+5/8) Accurately ripped
12 [5beea2c6|2516c5b1] (0+5/8) Accurately ripped
13 [22a72277|b2ce2eb0] (0+5/8) Accurately ripped
14 [ecad9dfa|e038f4a8] (0+5/8) Accurately ripped
15 [3939272c|daacafad] (0+5/8) Accurately ripped
16 [da5399ef|8df60c6d] (0+5/8) Accurately ripped
Offsetted by -66:
01 [75a4535a] (3/8) Accurately ripped
02 [35cf3bf9] (3/8) Accurately ripped
03 [e8388356] (3/8) Accurately ripped
04 [1dba0e60] (3/8) Accurately ripped
05 [0369167c] (3/8) Accurately ripped
06 [1596ca88] (3/8) Accurately ripped
07 [2c4b4003] (3/8) Accurately ripped
08 [c99ee42b] (3/8) Accurately ripped
09 [54b8f37a] (3/8) Accurately ripped
10 [62936c07] (3/8) Accurately ripped
11 [6fe5703f] (3/8) Accurately ripped
12 [741966e8] (3/8) Accurately ripped
13 [2e1a590d] (3/8) Accurately ripped
14 [48f4134c] (3/8) Accurately ripped
15 [dc6a4b52] (3/8) Accurately ripped
16 [2f90acc7] (3/8) Accurately ripped

Track Peak [ CRC32 ] [W/O NULL] [ LOG ]
– 93,3 [A6A7C666] [FBC31A7F] CRC32
01 93,3 [E14D868C] [480AD52B]
02 87,2 [58AF48ED] [C8BCBA66]
03 89,4 [EA3E54A0] [BF2C255A]
04 87,6 [6B94A404] [5EFD31CC]
05 93,3 [1F3E2C4A] [9DBCDC6D]
06 93,3 [AB7C3809] [0A2F87A9]
07 82,8 [FF3B864E] [7BC7B84A]
08 86,6 [4932B5C5] [5355DB53]
09 90,7 [ACBC16B2] [B2F8D5EB]
10 87,2 [7C4B1DBC] [0BE58F91]
11 91,1 [F6C832A6] [8711CA33]
12 89,8 [147BF24F] [53AA5E2D]
13 93,3 [FFB7411B] [237373B0]
14 88,8 [8F29BD1C] [DDB3A875]
15 93,3 [F6BA919F] [6BE36E9C]
16 90,2 [9C2CB14F] [05CE60AE]

Trio Rococo - Norwegian Wood (1994)

Trio Rococo - Norwegian Wood (1994)

All thanks go to Olegator

> Visit my blog <

Download: