Subcategories

Tom Waits - Original Album Series (2011) [5CD Box Set] RE-UP

Posted By: perfecta
Tom Waits - Original Album Series (2011) [5CD Box Set] RE-UP

Tom Waits - Original Album Series (2011) [5CD Box Set]
5x EAC-FLAC Images with CUEs & LOGs - 1,36 GB | Full PNG Scans | MP3 CBR 320 Kbps - 585 MB
Rock / Blues Rock / Indie Folk | Total Time - 253:26 minutes | Label: Rhino U.K. | Cat. # 8122-797470

UK five CD box set containing a quintet of reissued albums from the highly acclaimed and eclectic singer/songwriter, each housed in a mini LP sleeve. Includes the albums Closing Time (1973), The Heart Of Saturday Night (1974), Nighthawks At The Diner (1975), Small Change (1976) and Foreign Affairs (1977).

Tom Waits @ Wikipedia

Tom Waits - Original Album Series (2011) [5CD Box Set] RE-UP

allmusic.com biography: In the 1970s, Tom Waits combined a lyrical focus on desperate, low-life characters with a persona that seemed to embody the same lifestyle, which he sang about in a raspy, gravelly voice. From the '80s on, his work became increasingly theatrical as he moved into acting and composing. Growing up in Southern California, Waits attracted the attention of manager Herb Cohen, who also handled Frank Zappa, and was signed by him at the beginning of the 1970s, resulting in the material later released as The Early Years and The Early Years, Vol. 2. His formal recording debut came with Closing Time (1973) on Asylum Records, an album that contained "Ol' 55," which was covered by labelmates the Eagles for their On the Border album. Waits attracted critical acclaim and a cult audience for his subsequent albums, The Heart of Saturday Night (1974), the two-LP live set Nighthawks at the Diner (1975), Small Change (1976), Foreign Affairs (1977), Blue Valentine (1978), and Heart Attack and Vine (1980). His music and persona proved highly cinematic, and, starting in 1978, he launched parallel careers as an actor and as a composer of movie music.

_______ Tom Waits - Original Album Series Box Set contains: _______


Tom Waits - Original Album Series (2011) [5CD Box Set] RE-UP

Tom Waits - Closing Time (1973)
EAC-FLAC with CUE & LOG - 252 MB | 45:52 mins | MP3 CBR 320 Kbps - 104 MB

Tom Waits - Original Album Series (2011) [5CD Box Set] RE-UP

Tracks:

01. Ol' '55
02. I Hope That I Don't Fall In Love With You
03. Virginia Avenue
04. Old Shoes (& Picture Postcards)
05. Midnight Lullaby
06. Martha
07. Rosie
08. Lonely
09. Ice Cream Man
10. Little Trip Heaven (On The Wings Of Your Love)
11. Grapefruit Moon
12. Closing Time

allmusic.com says: Tom Waits' debut album is a minor-key masterpiece filled with songs of late-night loneliness. Within the apparently narrow range of the cocktail bar pianistics and muttered vocals, Waits and producer Jerry Yester manage a surprisingly broad collection of styles, from the jazzy "Virginia Avenue" to the up-tempo funk of "Ice Cream Man" and from the acoustic guitar folkiness of "I Hope That I Don't Fall in Love With You" to the saloon song "Midnight Lullaby," which would have been a perfect addition to the repertoires of Frank Sinatra or Tony Bennett. Waits' entire musical approach is stylized, of course, and at times derivative – "Lonely" borrows a little too much from Randy Newman's "I Think It's Going to Rain Today" – and his lovelorn lyrics can be sentimental without being penetrating. But he also has a gift for gently rolling pop melodies, and he can come up with striking, original scenarios, as on the best songs, "Ol' 55" and "Martha," which Yester discreetly augments with strings. Closing Time announces the arrival of a talented songwriter whose self-conscious melancholy can be surprisingly moving.

Exact Audio Copy V1.0 beta 3 from 29. August 2011

EAC extraction logfile from 18. November 2011, 20:25

Tom Waits / Closing Time

Used drive : HL-DT-STDVDRAM GSA-H60N Adapter: 2 ID: 0

Read mode : Secure
Utilize accurate stream : Yes
Defeat audio cache : Yes
Make use of C2 pointers : No

Read offset correction : 667
Overread into Lead-In and Lead-Out : No
Fill up missing offset samples with silence : Yes
Delete leading and trailing silent blocks : No
Null samples used in CRC calculations : Yes
Used interface : Native Win32 interface for Win NT & 2000

Used output format : Internal WAV Routines
Sample format : 44.100 Hz; 16 Bit; Stereo


TOC of the extracted CD

Track | Start | Length | Start sector | End sector
––––––––––––––––––––––––––––-
1 | 0:00.32 | 3:57.38 | 32 | 17844
2 | 3:57.70 | 3:54.40 | 17845 | 35434
3 | 7:52.35 | 3:10.25 | 35435 | 49709
4 | 11:02.60 | 3:40.55 | 49710 | 66264
5 | 14:43.40 | 3:26.62 | 66265 | 81776
6 | 18:10.27 | 4:30.55 | 81777 | 102081
7 | 22:41.07 | 4:03.25 | 102082 | 120331
8 | 26:44.32 | 3:12.60 | 120332 | 134791
9 | 29:57.17 | 3:05.50 | 134792 | 148716
10 | 33:02.67 | 3:38.05 | 148717 | 165071
11 | 36:40.72 | 4:50.30 | 165072 | 186851
12 | 41:31.27 | 4:20.48 | 186852 | 206399


Range status and errors

Selected range

Filename C:\Documents and Settings\Admin\Рабочий стол\Rip by ALLexxess\2011 Tom Waits Original Album Series (5CD Box Set Rhino Records)\1973 Closing Time\Tom Waits - Closing Time.wav

Peak level 97.3 %
Extraction speed 5.8 X
Range quality 100.0 %
Test CRC 866CCFFD
Copy CRC 866CCFFD
Copy OK

No errors occurred


AccurateRip summary

Track 1 cannot be verified as accurate (confidence 43) [2055D365], AccurateRip returned [29BFFFE5] (AR v2)
Track 2 cannot be verified as accurate (confidence 44) [2A03470F], AccurateRip returned [90F51CE0] (AR v2)
Track 3 cannot be verified as accurate (confidence 44) [94E9C1F2], AccurateRip returned [31461292] (AR v2)
Track 4 cannot be verified as accurate (confidence 44) [F338AA85], AccurateRip returned [C252718F] (AR v2)
Track 5 cannot be verified as accurate (confidence 43) [939110F3], AccurateRip returned [6098AD46] (AR v2)
Track 6 cannot be verified as accurate (confidence 44) [AE627671], AccurateRip returned [E0C44F58] (AR v2)
Track 7 cannot be verified as accurate (confidence 44) [01995E37], AccurateRip returned [CF960369] (AR v2)
Track 8 cannot be verified as accurate (confidence 44) [FB931E4B], AccurateRip returned [AC40D517] (AR v2)
Track 9 cannot be verified as accurate (confidence 44) [6631388A], AccurateRip returned [46D9123B] (AR v2)
Track 10 cannot be verified as accurate (confidence 43) [0D47766F], AccurateRip returned [B975E4FE] (AR v2)
Track 11 cannot be verified as accurate (confidence 44) [5C4F1EC2], AccurateRip returned [0CDC648D] (AR v2)
Track 12 cannot be verified as accurate (confidence 43) [0860F320], AccurateRip returned [505855A1] (AR v2)

No tracks could be verified as accurate
You may have a different pressing from the one(s) in the database

End of status report

==== Log checksum 303FFF87D7079B4D00C6D23BAB0613433BD35176D84FD048D2EB73E96BD53077 ====



_________________________________________________________________________________________


Tom Waits - Original Album Series (2011) [5CD Box Set] RE-UP

Tom Waits - The Heart Of Saturday Night (1974)
EAC-FLAC with CUE & LOG - 230 MB | 41:34 mins | MP3 CBR 320 Kbps - 101 MB


Tracks:

01. New Coat Of Paint
02. San Diego Serenade
03. Semi Suite
04. Shiver Me Timbers
05. Diamonds On My Windshield
06. (Looking For) The Heart Of Saturday Night
07. Fumblin' With The Blues
08. Please Call Me, Baby
09. Depot, Depot
10. Drunk On The Moon
11. The Ghosts Of Saturday Night (After Hours At Napoleone's Pizza House)

allmusic.com says: If Closing Time, Tom Waits' debut album, consisted of love songs set in a late-night world of bars and neon signs, its follow-up, The Heart of Saturday Night, largely dispenses with the romance in favor of poetic depictions of the same setting. On "Diamonds on My Windshield" and "The Ghosts of Saturday Night," Waits doesn't even sing, instead reciting his verse rhythmically against bass and drums like a Beat hipster. Musically, the album contains the same mixture of folk, blues, and jazz as its predecessor, with producer Bones Howe occasionally bringing in an orchestra to underscore the loping melodies. Waits' songs are sometimes sketchier in addition to being more impersonal, but "(Looking For) The Heart of Saturday Night" and "Semi Suite" are the equal of anything on Closing Time. Still, with lines such as "…the clouds are like headlines/Upon a new front page sky" and references to "a 24-hour moon" and "champagne stars," Waits' imagery is beginning to get florid, and in material this stylized, the danger of self-parody is always present.

Exact Audio Copy V1.0 beta 3 from 29. August 2011

EAC extraction logfile from 18. November 2011, 22:38

Tom Waits / The Heart Of Saturday Night

Used drive : HL-DT-STDVDRAM GSA-H60N Adapter: 2 ID: 0

Read mode : Secure
Utilize accurate stream : Yes
Defeat audio cache : Yes
Make use of C2 pointers : No

Read offset correction : 667
Overread into Lead-In and Lead-Out : No
Fill up missing offset samples with silence : Yes
Delete leading and trailing silent blocks : No
Null samples used in CRC calculations : Yes
Used interface : Native Win32 interface for Win NT & 2000

Used output format : Internal WAV Routines
Sample format : 44.100 Hz; 16 Bit; Stereo


TOC of the extracted CD

Track | Start | Length | Start sector | End sector
––––––––––––––––––––––––––––-
1 | 0:00.32 | 3:22.73 | 32 | 15254
2 | 3:23.30 | 3:30.02 | 15255 | 31006
3 | 6:53.32 | 3:29.23 | 31007 | 46704
4 | 10:22.55 | 4:26.42 | 46705 | 66696
5 | 14:49.22 | 3:12.33 | 66697 | 81129
6 | 18:01.55 | 3:53.07 | 81130 | 98611
7 | 21:54.62 | 3:02.60 | 98612 | 112321
8 | 24:57.47 | 4:25.55 | 112322 | 132251
9 | 29:23.27 | 3:46.43 | 132252 | 149244
10 | 33:09.70 | 5:06.65 | 149245 | 172259
11 | 38:16.60 | 3:16.60 | 172260 | 187019


Range status and errors

Selected range

Filename C:\Documents and Settings\Admin\Рабочий стол\Rip by ALLexxess\2011 Tom Waits Original Album Series (5CD Box Set Rhino Records)\1974 The Heart Of Saturday Night\Tom Waits - The Heart Of Saturday Night.wav

Peak level 100.0 %
Extraction speed 5.6 X
Range quality 100.0 %
Test CRC 82142D19
Copy CRC 82142D19
Copy OK

No errors occurred


AccurateRip summary

Track 1 cannot be verified as accurate (confidence 46) [E47918FE], AccurateRip returned [AF80E9D1] (AR v2)
Track 2 cannot be verified as accurate (confidence 47) [3F4B1D5F], AccurateRip returned [4C3292C4] (AR v2)
Track 3 cannot be verified as accurate (confidence 46) [1CA9E39A], AccurateRip returned [CC44C737] (AR v2)
Track 4 cannot be verified as accurate (confidence 46) [8D22CD37], AccurateRip returned [FF9F6A89] (AR v2)
Track 5 cannot be verified as accurate (confidence 46) [EBF8F377], AccurateRip returned [A35CDFAA] (AR v2)
Track 6 cannot be verified as accurate (confidence 46) [E9F1828C], AccurateRip returned [39094980] (AR v2)
Track 7 cannot be verified as accurate (confidence 47) [5F891685], AccurateRip returned [713EE0DF] (AR v2)
Track 8 cannot be verified as accurate (confidence 47) [7E5496CC], AccurateRip returned [8DF4BB20] (AR v2)
Track 9 cannot be verified as accurate (confidence 46) [F87AAE20], AccurateRip returned [8EB02597] (AR v2)
Track 10 cannot be verified as accurate (confidence 45) [ADCE9E91], AccurateRip returned [C1457D2B] (AR v2)
Track 11 cannot be verified as accurate (confidence 46) [AB83E341], AccurateRip returned [3CC6C459] (AR v2)

No tracks could be verified as accurate
You may have a different pressing from the one(s) in the database

End of status report

==== Log checksum 5279E52A11E088397F0424FCFD9455FEA737075A0A79EBE001D8BAD7374B9951 ====



_________________________________________________________________________________________


Tom Waits - Original Album Series (2011) [5CD Box Set] RE-UP

Tom Waits - Nighthawks At The Diner (1975)
EAC-FLAC with CUE & LOG - 435 MB | 73:54 mins | MP3 CBR 320 Kbps - 166 MB


Tracks:

01. (Opening Intro)
02. Emotional Weather Report
03. (Intro)
04. On A Foggy Night
05. (Intro)
06. Eggs And Sausage (In A Cadillac With Susan Michelson)
07. (Intro)
08. Better Off Without A Wife
09. Nighthawk Postcards (From Easy Street)
10. (Intro)
11. Warm Beer And Cold Women
12. (Intro)
13. Putnam County
14. Spare Parts I (A Nocturnal Emission)
15. Nobody
16. (Intro)
17. Big Joe And Phantom 309
18. Spare Parts II And Closing

allmusic.com says: For his third album, Nighthawks at the Diner, Tom Waits set up a nightclub in the studio, invited an audience, and cut a 70-minute, two-LP set of new songs. It's an appropriate format for compositions that deal even more graphically and, for the first time, humorously with Waits' late-night world of bars and diners. The love lyrics of his debut album had long since given way to a comic lonely-guy stance glimpsed in "Emotional Weather Report" and "Better Off Without a Wife." But what really matters is the elaborate scene-setting of songs like the six-and-a-half-minute "Spare Parts," the seven-and-a-half-minute "Putnam County," and especially the 11-and-a-half-minute "Nighthawk Postcards" that are essentially poetry recitations with jazz backing. Waits is a colorful tour guide of midnight L.A., raving over a swinging rhythm section of Jim Hughart (bass) and Bill Goodwin (drums), with Pete Christlieb wailing away on tenor sax between paragraphs and Mike Melvoin trading off with Waits on piano runs. You could call it overdone, but then, this kind of material made its impact through an accumulation of miscellaneous detail, and who's to say how much is too much?

Exact Audio Copy V1.0 beta 3 from 29. August 2011

EAC extraction logfile from 19. November 2011, 10:18

Tom Waits / Nighthawks At The Diner

Used drive : HL-DT-STDVDRAM GSA-H60N Adapter: 2 ID: 0

Read mode : Secure
Utilize accurate stream : Yes
Defeat audio cache : Yes
Make use of C2 pointers : No

Read offset correction : 667
Overread into Lead-In and Lead-Out : No
Fill up missing offset samples with silence : Yes
Delete leading and trailing silent blocks : No
Null samples used in CRC calculations : Yes
Used interface : Native Win32 interface for Win NT & 2000

Used output format : Internal WAV Routines
Sample format : 44.100 Hz; 16 Bit; Stereo


TOC of the extracted CD

Track | Start | Length | Start sector | End sector
––––––––––––––––––––––––––––-
1 | 0:00.32 | 2:57.30 | 32 | 13336
2 | 2:57.62 | 3:47.28 | 13337 | 30389
3 | 6:45.15 | 2:16.35 | 30390 | 40624
4 | 9:01.50 | 3:48.55 | 40625 | 57779
5 | 12:50.30 | 1:53.10 | 57780 | 66264
6 | 14:43.40 | 4:19.35 | 66265 | 85724
7 | 19:03.00 | 3:02.02 | 85725 | 99376
8 | 22:05.02 | 3:59.35 | 99377 | 117336
9 | 26:04.37 | 11:29.70 | 117337 | 169081
10 | 37:34.32 | 0:56.05 | 169082 | 173286
11 | 38:30.37 | 5:21.03 | 173287 | 197364
12 | 43:51.40 | 0:47.62 | 197365 | 200951
13 | 44:39.27 | 7:35.18 | 200952 | 235094
14 | 52:14.45 | 6:25.62 | 235095 | 264031
15 | 58:40.32 | 2:50.48 | 264032 | 276829
16 | 61:31.05 | 0:41.60 | 276830 | 279964
17 | 62:12.65 | 6:28.72 | 279965 | 309136
18 | 68:41.62 | 5:13.03 | 309137 | 332614


Range status and errors

Selected range

Filename C:\Documents and Settings\Admin\Рабочий стол\Rip by ALLexxess\2011 Tom Waits Original Album Series (5CD Box Set Rhino Records)\1975 Nighthawks At The Diner\Tom Waits - Nighthawks At The Diner.wav

Peak level 100.0 %
Extraction speed 6.2 X
Range quality 99.9 %
Test CRC DE290E36
Copy CRC DE290E36
Copy OK

No errors occurred


AccurateRip summary

Track 1 cannot be verified as accurate (confidence 51) [7DA40055], AccurateRip returned [61F07D3E] (AR v2)
Track 2 cannot be verified as accurate (confidence 49) [F62ADD50], AccurateRip returned [394C7A5F] (AR v2)
Track 3 cannot be verified as accurate (confidence 52) [24C4CA63], AccurateRip returned [5D2912F7] (AR v2)
Track 4 cannot be verified as accurate (confidence 52) [800122B8], AccurateRip returned [105BC009] (AR v2)
Track 5 cannot be verified as accurate (confidence 52) [A01D9797], AccurateRip returned [0EEF9778] (AR v2)
Track 6 cannot be verified as accurate (confidence 53) [04C7886D], AccurateRip returned [5B004E99] (AR v2)
Track 7 cannot be verified as accurate (confidence 50) [A1438B81], AccurateRip returned [E27A491F] (AR v2)
Track 8 cannot be verified as accurate (confidence 53) [5DDC4FEE], AccurateRip returned [3EA5DAC3] (AR v2)
Track 9 cannot be verified as accurate (confidence 46) [8D5C6C9A], AccurateRip returned [51251B6A] (AR v2)
Track 10 cannot be verified as accurate (confidence 51) [830F0AF8], AccurateRip returned [9C52602F] (AR v2)
Track 11 cannot be verified as accurate (confidence 49) [2F2D1D45], AccurateRip returned [292EE42D] (AR v2)
Track 12 cannot be verified as accurate (confidence 48) [DADC2135], AccurateRip returned [159B2A12] (AR v2)
Track 13 cannot be verified as accurate (confidence 46) [6C920B04], AccurateRip returned [8F46BA75] (AR v2)
Track 14 cannot be verified as accurate (confidence 48) [0CA27297], AccurateRip returned [F7F1DC10] (AR v2)
Track 15 cannot be verified as accurate (confidence 51) [C8D5797E], AccurateRip returned [D8249041] (AR v2)
Track 16 cannot be verified as accurate (confidence 53) [96A77B5C], AccurateRip returned [E77BE874] (AR v2)
Track 17 cannot be verified as accurate (confidence 52) [93F18E11], AccurateRip returned [485D1367] (AR v2)
Track 18 cannot be verified as accurate (confidence 50) [089B8180], AccurateRip returned [97133F9A] (AR v2)

No tracks could be verified as accurate
You may have a different pressing from the one(s) in the database

End of status report

==== Log checksum 6092D13DD5F2FB1750561910375C824A7675119CF07541CE5A1F33AFDE8EDF28 ====



_________________________________________________________________________________________


Tom Waits - Original Album Series (2011) [5CD Box Set] RE-UP

Tom Waits - Small Change (1976)
EAC-FLAC with CUE & LOG - 272 MB | 49:59 mins | MP3 CBR 320 Kbps - 113 MB


Tracks:

01. Tom Traubert's Blues (Four Sheets To The Wind In Copenhagen)
02. Step Right Up
03. Jitterbug Boy (Sharing A Curbstone With Chuck E. Weiss, Robert Marchese, Paul Body And The Mug And Artie)
04. I Wish I Was In New Orleans (In The Ninth Ward)
05. The Piano Has Been Drinking (Not Me) (An Evening With Pete King)
06. Invitation To The Blues
07. Pasties And A G-String (At The Two O'Clock Club)
08. Bad Liver And A Broken Heart (In Lowell)
09. The One That Got Away
10. Small Change (Got Rained On With His Own .38)
11. I Can'T Wait To Get Off Work (And See My Baby On Montgomery Avenue)

allmusic.com says: The fourth release in Tom Waits' series of skid row travelogues, Small Change proves to be the archetypal album of his '70s work. A jazz trio comprising tenor sax player Lew Tabackin, bassist Jim Hughart, and drummer Shelly Manne, plus an occasional string section, back Waits and his piano on songs steeped in whiskey and atmosphere in which he alternately sings in his broken-beaned drunk's voice (now deeper and overtly influenced by Louis Armstrong) and recites jazzy poetry. It's as if Waits were determined to combine the Humphrey Bogart and Dooley Wilson characters from Casablanca with a dash of On the Road's Dean Moriarty to illuminate a dark world of bars and all-night diners. Of course, he'd been in that world before, but in songs like "The Piano Has Been Drinking" and "Bad Liver and a Broken Heart," Waits gives it its clearest expression. Small Change isn't his best album. Like most of the albums Waits made in the '70s, it's uneven, probably because he was putting out one a year and didn't have time to come up with enough first-rate material. But it is the most obvious and characteristic of his albums for Asylum Records. If you like it, you also will like the ones before and after; otherwise, you're not Tom Waits' kind of listener.

Exact Audio Copy V1.0 beta 3 from 29. August 2011

EAC extraction logfile from 18. November 2011, 21:14

Tom Waits / Small Change

Used drive : HL-DT-STDVDRAM GSA-H60N Adapter: 2 ID: 0

Read mode : Secure
Utilize accurate stream : Yes
Defeat audio cache : Yes
Make use of C2 pointers : No

Read offset correction : 667
Overread into Lead-In and Lead-Out : No
Fill up missing offset samples with silence : Yes
Delete leading and trailing silent blocks : No
Null samples used in CRC calculations : Yes
Used interface : Native Win32 interface for Win NT & 2000

Used output format : Internal WAV Routines
Sample format : 44.100 Hz; 16 Bit; Stereo


TOC of the extracted CD

Track | Start | Length | Start sector | End sector
––––––––––––––––––––––––––––-
1 | 0:00.32 | 6:39.05 | 32 | 29961
2 | 6:39.37 | 5:43.28 | 29962 | 55714
3 | 12:22.65 | 3:44.07 | 55715 | 72521
4 | 16:06.72 | 4:53.33 | 72522 | 94529
5 | 21:00.30 | 3:40.02 | 94530 | 111031
6 | 24:40.32 | 5:24.55 | 111032 | 135386
7 | 30:05.12 | 2:32.15 | 135387 | 146801
8 | 32:37.27 | 4:50.05 | 146802 | 168556
9 | 37:27.32 | 4:07.55 | 168557 | 187136
10 | 41:35.12 | 5:07.23 | 187137 | 210184
11 | 46:42.35 | 3:17.25 | 210185 | 224984


Range status and errors

Selected range

Filename C:\Documents and Settings\Admin\Рабочий стол\Rip by ALLexxess\2011 Tom Waits Original Album Series (5CD Box Set Rhino Records)\1976 Small Change\Tom Waits - Small Change.wav

Peak level 98.0 %
Extraction speed 5.9 X
Range quality 100.0 %
Test CRC 85A8E5BA
Copy CRC 85A8E5BA
Copy OK

No errors occurred


AccurateRip summary

Track 1 cannot be verified as accurate (confidence 66) [63AD4ED8], AccurateRip returned [6786E1A7] (AR v2)
Track 2 cannot be verified as accurate (confidence 65) [F95E2B37], AccurateRip returned [576370E4] (AR v2)
Track 3 cannot be verified as accurate (confidence 64) [2FD955BE], AccurateRip returned [9C117355] (AR v2)
Track 4 cannot be verified as accurate (confidence 64) [2EEE97C2], AccurateRip returned [FC0CEBAB] (AR v2)
Track 5 cannot be verified as accurate (confidence 64) [62A2BDCF], AccurateRip returned [50899F83] (AR v2)
Track 6 cannot be verified as accurate (confidence 64) [7A891250], AccurateRip returned [6029729F] (AR v2)
Track 7 cannot be verified as accurate (confidence 63) [C886CCD7], AccurateRip returned [8F4702FB] (AR v2)
Track 8 cannot be verified as accurate (confidence 62) [8D73F34A], AccurateRip returned [4D7129DF] (AR v2)
Track 9 cannot be verified as accurate (confidence 64) [159898BA], AccurateRip returned [B4E1AC4F] (AR v2)
Track 10 cannot be verified as accurate (confidence 64) [C6C43AF5], AccurateRip returned [542D37B1] (AR v2)
Track 11 cannot be verified as accurate (confidence 62) [78EE98F2], AccurateRip returned [7B04ABE3] (AR v2)

No tracks could be verified as accurate
You may have a different pressing from the one(s) in the database

End of status report

==== Log checksum 42FF9D2CB7241B49227820F55CD696DF2B59D0B7FCC67DE1F0B2483180019748 ====



_________________________________________________________________________________________


Tom Waits - Original Album Series (2011) [5CD Box Set] RE-UP

Tom Waits - Foreign Affairs (1977)
EAC-FLAC with CUE & LOG - 209 MB | 42:07 mins | MP3 CBR 320 Kbps - 102 MB


Tracks:

01. Cinny's Waltz
02. Muriel
03. I Never Talk To Strangers
04. Medley- Jack & Neal / California, Here I Come
05. A Sight For Sore Eyes
06. Potter's Field
07. Burma-Shave
08. Barber Shop
09. Foreign Affair

allmusic.com says: Tom Waits gives one side of his fifth album, Foreign Affairs, to his more structured, bluesy ballads and the other to his jazz raps. On side one, you get his duet with Bette Midler on the singles-bar dialogue "I Never Talk to Strangers" and his take on his Beat predecessors Jack Kerouac and Neal Cassidy on "Jack & Neal." On side two, you find the extended observations of "Potter's Field" and "Burma-shave." Waits' voice is becoming ever more gravelly, but his basic musical approach remaines the same, and by this point he'd attracted a steady cult audience that enjoyed his verbal flights and boozy philosopher persona, even as critics began to complain that he was repeating himself. By the way, that's Waits' then-girlfriend, the then-unknown Rickie Lee Jones, on the cover with him.

Exact Audio Copy V1.0 beta 3 from 29. August 2011

EAC extraction logfile from 18. November 2011, 21:49

Tom Waits / Foreign Affairs

Used drive : HL-DT-STDVDRAM GSA-H60N Adapter: 2 ID: 0

Read mode : Secure
Utilize accurate stream : Yes
Defeat audio cache : Yes
Make use of C2 pointers : No

Read offset correction : 667
Overread into Lead-In and Lead-Out : No
Fill up missing offset samples with silence : Yes
Delete leading and trailing silent blocks : No
Null samples used in CRC calculations : Yes
Used interface : Native Win32 interface for Win NT & 2000

Used output format : Internal WAV Routines
Sample format : 44.100 Hz; 16 Bit; Stereo


TOC of the extracted CD

Track | Start | Length | Start sector | End sector
––––––––––––––––––––––––––––-
1 | 0:00.32 | 2:17.20 | 32 | 10326
2 | 2:17.52 | 3:33.70 | 10327 | 26371
3 | 5:51.47 | 3:38.35 | 26372 | 42756
4 | 9:30.07 | 5:01.23 | 42757 | 65354
5 | 14:31.30 | 4:40.27 | 65355 | 86381
6 | 19:11.57 | 8:40.33 | 86382 | 125414
7 | 27:52.15 | 6:34.60 | 125415 | 155024
8 | 34:27.00 | 3:54.50 | 155025 | 172624
9 | 38:21.50 | 3:46.12 | 172625 | 189586


Range status and errors

Selected range

Filename C:\Documents and Settings\Admin\Рабочий стол\Rip by ALLexxess\2011 Tom Waits Original Album Series (5CD Box Set Rhino Records)\1977 Foreign Affairs\Tom Waits - Foreign Affairs.wav

Peak level 96.8 %
Extraction speed 5.7 X
Range quality 100.0 %
Test CRC DEF3E0F2
Copy CRC DEF3E0F2
Copy OK

No errors occurred


AccurateRip summary

Track 1 cannot be verified as accurate (confidence 18) [0F559CAF], AccurateRip returned [67FAD6D0] (AR v2)
Track 2 cannot be verified as accurate (confidence 18) [8467CA1E], AccurateRip returned [DEF84C80] (AR v2)
Track 3 cannot be verified as accurate (confidence 18) [97CA5F21], AccurateRip returned [77A824C0] (AR v2)
Track 4 cannot be verified as accurate (confidence 18) [7AEAD469], AccurateRip returned [0C287E06] (AR v2)
Track 5 cannot be verified as accurate (confidence 18) [884ED1FD], AccurateRip returned [0A1C6D35] (AR v2)
Track 6 cannot be verified as accurate (confidence 18) [F63AA3B4], AccurateRip returned [B8BA39A8] (AR v2)
Track 7 cannot be verified as accurate (confidence 18) [B7749725], AccurateRip returned [4E303C1D] (AR v2)
Track 8 cannot be verified as accurate (confidence 18) [4829149F], AccurateRip returned [6E800353] (AR v2)
Track 9 cannot be verified as accurate (confidence 18) [6D0F66D9], AccurateRip returned [BB3DBBEE] (AR v2)

No tracks could be verified as accurate
You may have a different pressing from the one(s) in the database

End of status report

==== Log checksum 6CC773BED62BE439B46C33916FAECF00171E761222994ECAC62D447C05C2D490 ====


Dynamic range(s): 14 / 15 / 15 / 17 / 16.
all thanks goes to ALLexxess!
Closing Time (1973)
FLAC lossless | MP3 320

The Heart Of Saturday Night (1974)
FLAC lossless | MP3 320

Nighthawks At The Diner (1975)
FLAC lossless | MP3 320

Small Change (1976)
FLAC lossless | MP3 320

Foreign Affairs (1977)
FLAC lossless | MP3 320

All Covers & Box Scans

Closing Time (1973)
FLAC lossless | MP3 320

The Heart Of Saturday Night (1974)
FLAC lossless | MP3 320

Nighthawks At The Diner (1975)
FLAC lossless | MP3 320

Small Change (1976)
FLAC lossless | MP3 320

Foreign Affairs (1977)
FLAC lossless | MP3 320

All Covers & Box Scans