Tom Browne - S' Up (2010) {Japanese CD}

Posted By: tiburon
Tom Browne - S' Up (2010) {Japanese CD}

Tom Browne - S' Up (2010) {Japanese CD}
EAC 0.99pb4 | FLAC tracks level | Cue+Log+M3U | Full Scans 200dpi | 346MB + 5% Recovery
MP3 CBR 320 Kbps | 136MB + 5% Recovery
Genre: Jazz, Smooth Jazz, Jazz Funk

Consider the songs in our hearts that inspire us toward uplifted continence; melodies that ring out in a manner that is soulful … even funky! Now think of an artist; an artist who George Benson describes as "joy filled in expressiveness" and "believable in any musical style," topping the jazz and adult contemporary / R & B charts with his kickin' trumpet and rich jazz melodies. That artist … is trumpeter Tom Browne. His new CD entitled "S' Up" features Fred Wesley and Groove Collective.
Track List
01. Lament 4:26
02. Freeway 4:35
03. T's Groove 4:53
04. Rolling 5:10
05. I'll Be There 4:25
06. Miss Mary 6:15
07. From Above 5:52
08. Three Chords And The Truth 4:45
09. (East) Kakalak Swang 3:58
10. When Will They Learn… 6:32
11. Soul Strut 5:36

musicians
Tom Browne - trumpet, drum programming, synths
Fred Wesley - trombone
Onaje Allan Gumbs - piano, Fender Rhodes
Jay Rodriguez - tenor sax, clarinet, woodwinds
Pablo Vergara - piano, Fender Rhodes, Yamaha CP-70
Al Macdowell - bass
Chris Theberge - percussion
Genji Siriasi - drums
William Patterson - guitar
Bill Ware - vibraphone
Chuggy Carter - percussion
DJ Logic - turntables

Produced by Teruo Nakamura


CUERipper v2.1.0 Copyright (C) 2008-10 Gregory S. Chudov

EAC extraction logfile from 1. December 2011, 20:40

Tom Browne / S' Up

Used drive : HL-DT-ST BDDVDRW CH08LS10 Adapter: 1 ID: 0

Read mode : Secure
Utilize accurate stream : Yes
Defeat audio cache : Yes
Make use of C2 pointers : No

Read offset correction : 667
Overread into Lead-In and Lead-Out : No
Fill up missing offset samples with silence : Yes
Delete leading and trailing silent blocks : No
Null samples used in CRC calculations : Yes
Used interface : Native Win32 interface for Win NT & 2000
Gap handling : Appended to previous track

Used output format : Internal WAV Routines
Sample format : 44.100 Hz; 16 Bit; Stereo


TOC of the extracted CD

Track | Start | Length | Start sector | End sector
––––––––––––––––––––––––––––-
1 | 0:00.00 | 4:26.25 | 0 | 19974
2 | 4:26.25 | 4:35.08 | 19975 | 40607
3 | 9:01.33 | 4:52.50 | 40608 | 62557
4 | 13:54.08 | 5:09.20 | 62558 | 85752
5 | 19:03.28 | 4:27.34 | 85753 | 105811
6 | 23:30.62 | 6:15.63 | 105812 | 133999
7 | 29:46.50 | 5:53.46 | 134000 | 160520
8 | 35:40.21 | 4:49.27 | 160521 | 182222
9 | 40:29.48 | 3:58.73 | 182223 | 200145
10 | 44:28.46 | 6:31.23 | 200146 | 229493
11 | 50:59.69 | 5:32.24 | 229494 | 254417


Track 1

Filename C:\Users\Rene\Music\Tom Browne - S' Up (2010) [FLAC]\01 - Lament.wav

Pre-gap length 0:00:02.00

Peak level 99.6 %
Track quality 100.0 %
Test CRC A053443C
Copy CRC A053443C
Accurately ripped (confidence 1) [580DFEE1]
Copy OK

Track 2

Filename C:\Users\Rene\Music\Tom Browne - S' Up (2010) [FLAC]\02 - Freeway.wav

Pre-gap length 0:00:03.00

Peak level 99.6 %
Track quality 100.0 %
Test CRC AB737A4A
Copy CRC AB737A4A
Accurately ripped (confidence 1) [015ED946]
Copy OK

Track 3

Filename C:\Users\Rene\Music\Tom Browne - S' Up (2010) [FLAC]\03 - T's Groove.wav

Pre-gap length 0:00:03.00

Peak level 99.6 %
Track quality 100.0 %
Test CRC B7B18C7A
Copy CRC B7B18C7A
Cannot be verified as accurate (confidence 1) [9FD95A00], AccurateRip returned [9ECCA377]
Copy OK

Track 4

Filename C:\Users\Rene\Music\Tom Browne - S' Up (2010) [FLAC]\04 - Rolling.wav

Pre-gap length 0:00:03.00

Peak level 99.6 %
Track quality 100.0 %
Test CRC DA50437B
Copy CRC DA50437B
Accurately ripped (confidence 1) [C2F2E409]
Copy OK

Track 5

Filename C:\Users\Rene\Music\Tom Browne - S' Up (2010) [FLAC]\05 - I'll Be There.wav

Pre-gap length 0:00:03.00

Peak level 99.6 %
Track quality 100.0 %
Test CRC E8AB5238
Copy CRC E8AB5238
Accurately ripped (confidence 1) [84A59835]
Copy OK

Track 6

Filename C:\Users\Rene\Music\Tom Browne - S' Up (2010) [FLAC]\06 - Miss Mary.wav

Pre-gap length 0:00:03.00

Peak level 99.6 %
Track quality 100.0 %
Test CRC 7CCCBD11
Copy CRC 7CCCBD11
Accurately ripped (confidence 1) [B900233F]
Copy OK

Track 7

Filename C:\Users\Rene\Music\Tom Browne - S' Up (2010) [FLAC]\07 - From Above.wav

Pre-gap length 0:00:03.00

Peak level 99.6 %
Track quality 100.0 %
Test CRC F0CC463E
Copy CRC F0CC463E
Accurately ripped (confidence 1) [E6F7E19C]
Copy OK

Track 8

Filename C:\Users\Rene\Music\Tom Browne - S' Up (2010) [FLAC]\08 - Three Chords And The Truth.wav

Pre-gap length 0:00:03.00

Peak level 99.6 %
Track quality 100.0 %
Test CRC E8E2052D
Copy CRC E8E2052D
Accurately ripped (confidence 1) [D911EC41]
Copy OK

Track 9

Filename C:\Users\Rene\Music\Tom Browne - S' Up (2010) [FLAC]\09 - (East) Kakalak Swang.wav

Pre-gap length 0:00:03.00

Peak level 99.6 %
Track quality 100.0 %
Test CRC 820EF0BC
Copy CRC 820EF0BC
Accurately ripped (confidence 1) [FF56702B]
Copy OK

Track 10

Filename C:\Users\Rene\Music\Tom Browne - S' Up (2010) [FLAC]\10 - When Will They Learn….wav

Pre-gap length 0:00:03.00

Peak level 99.6 %
Track quality 100.0 %
Test CRC C8E5696D
Copy CRC C8E5696D
Accurately ripped (confidence 1) [08358CE6]
Copy OK

Track 11

Filename C:\Users\Rene\Music\Tom Browne - S' Up (2010) [FLAC]\11 - Soul Strut.wav

Pre-gap length 0:00:03.00

Peak level 99.6 %
Track quality 100.0 %
Test CRC 0958A822
Copy CRC 0958A822
Accurately ripped (confidence 1) [D4540777]
Copy OK


10 track(s) accurately ripped

Some tracks could not be verified as accurate

No errors occurred

End of status report


––––––––––––––––––––––––––––––––––––––––
Analyzed: Tom Browne / S' Up
––––––––––––––––––––––––––––––––––––––––

DR Peak RMS Duration Track
––––––––––––––––––––––––––––––––––––––––
DR9 -0.03 dB -11.30 dB 4:26 01/11-Lament
DR8 -0.03 dB -9.86 dB 4:35 02/11-Freeway
DR8 -0.03 dB -9.56 dB 4:53 03/11-T's Groove
DR8 -0.03 dB -9.96 dB 5:09 04/11-Rolling
DR12 -0.03 dB -14.61 dB 4:27 05/11-I'll Be There
DR9 -0.03 dB -10.15 dB 6:16 06/11-Miss Mary
DR8 -0.03 dB -9.79 dB 5:54 07/11-From Above
DR8 -0.03 dB -9.23 dB 4:49 08/11-Three Chords And The Truth
DR8 -0.03 dB -8.63 dB 3:59 09/11-(East) Kakalak Swang
DR7 -0.03 dB -9.32 dB 6:31 10/11-When Will They Learn…
DR9 -0.03 dB -11.06 dB 5:32 11/11-Soul Strut
––––––––––––––––––––––––––––––––––––––––

Number of tracks: 11
Official DR value: DR9

Samplerate: 44100 Hz
Channels: 2
Bits per sample: 16
Bitrate: 871 kbps
Codec: FLAC
================================================================================

Tom Browne - S' Up (2010) {Japanese CD}
Tom Browne - S' Up (2010) {Japanese CD}


Rip by Wiscon