Tom Browne - R 'N' Browne (1999) {HIBD 8020}

Posted By: tiburon
Tom Browne - R 'N' Browne (1999) {HIBD 8020}

Tom Browne - R 'N' Browne (1999) {HIBD 8020}
EAC 0.99pb4 | FLAC tracks level 8 | Cue+Log+M3u | Full Scans 600dpi | 326 MB + 5% Recovery
Genre: Smooth Jazz,R&B

After his recent straightahead record, "Another Shade of Browne," trumpeter Tom Browne returns to the funky R&B he is best-known for with "R'n'Browne." Still, Browne solos all over the new disc with eyebrow-raising authority, combining a crackling fire reminiscent of Lee Morgan with Miles Davis' architecture.

Track List

01. Joy and Pain
02. Back to Life
03. Someday We'll All Be Free
04. Hangin' on a String
05. Never Stop
06. Un Break My Heart
07. Can't You See Me
08. Juicy Fruit
09. The Wind Cries Mary

musicians

Tom Browne - trumpet,flugelhorn,electric trumpet
Chieli Minucci - acoustic guitar
Stephanie McKay - vocals
John Hart - guitar
Bob Belden - keyboards,acoustic piano
Adam Holzman - drum programming
Sybil - vocals
Marc Pfafflin - drums and bass programming
Dianne Reeves - vocals
Billy Kilson - drums
Craig Johnson - trumpet
James Zollar - trumpet
Clark Gayton - trombone
Tim Ries - baritone sax
Hank Bones - background vocals
Christian McBride - electric bass
DJ Smash - drum programming
KCB - rap vocal

Produced by Bob Belden


Exact Audio Copy V0.99 prebeta 4 from 23. January 2008

EAC extraction logfile from 25. June 2008, 18:01

Tom Browne / R 'N' Browne

Used drive : PLEXTOR CD-R PREMIUM2 Adapter: 1 ID: 1

Read mode : Secure
Utilize accurate stream : Yes
Defeat audio cache : Yes
Make use of C2 pointers : No

Read offset correction : 30
Overread into Lead-In and Lead-Out : No
Fill up missing offset samples with silence : Yes
Delete leading and trailing silent blocks : No
Null samples used in CRC calculations : Yes
Used interface : Installed external ASPI interface
Gap handling : Appended to previous track

Used output format : User Defined Encoder
Selected bitrate : 32 kBit/s
Quality : High
Add ID3 tag : No
Command line compressor : C:\Programmi\FLAC\flac.exe
Additional command line options : -8 -V -T "ARTIST=%a" -T "TITLE=%t" -T "ALBUM=%g" -T "DATE=%y" -T "TRACKNUMBER=%n" -T "GENRE=%m" -T "COMMENT=EAC FLAC -8" %s


TOC of the extracted CD

Track | Start | Length | Start sector | End sector
––––––––––––––––––––––––––––-
1 | 0:00.00 | 6:37.30 | 0 | 29804
2 | 6:37.30 | 5:54.35 | 29805 | 56389
3 | 12:31.65 | 4:48.00 | 56390 | 77989
4 | 17:19.65 | 4:39.37 | 77990 | 98951
5 | 21:59.27 | 5:28.23 | 98952 | 123574
6 | 27:27.50 | 5:27.30 | 123575 | 148129
7 | 32:55.05 | 4:09.60 | 148130 | 166864
8 | 37:04.65 | 7:54.15 | 166865 | 202429
9 | 44:59.05 | 7:18.52 | 202430 | 235331


Track 1

Filename C:\My Rip\01 - Joy And Pain.wav

Pre-gap length 0:00:02.00

Peak level 100.0 %
Track quality 100.0 %
Test CRC 7C0101C1
Copy CRC 7C0101C1
Track not present in AccurateRip database
Copy OK

Track 2

Filename C:\My Rip\02 - Back To Life.wav

Pre-gap length 0:00:02.64

Peak level 100.0 %
Track quality 100.0 %
Test CRC 53D283E5
Copy CRC 53D283E5
Track not present in AccurateRip database
Copy OK

Track 3

Filename C:\My Rip\03 - Someday We'll All Be Free.wav

Pre-gap length 0:00:02.57

Peak level 100.0 %
Track quality 100.0 %
Test CRC D36C2261
Copy CRC D36C2261
Track not present in AccurateRip database
Copy OK

Track 4

Filename C:\My Rip\04 - Hangin' On A String.wav

Pre-gap length 0:00:01.70

Peak level 100.0 %
Track quality 100.0 %
Test CRC 7D08300E
Copy CRC 7D08300E
Track not present in AccurateRip database
Copy OK

Track 5

Filename C:\My Rip\05 - Never Stop.wav

Pre-gap length 0:00:02.89

Peak level 100.0 %
Track quality 100.0 %
Test CRC 02368A8D
Copy CRC 02368A8D
Track not present in AccurateRip database
Copy OK

Track 6

Filename C:\My Rip\06 - Un-Break My Heart.wav

Pre-gap length 0:00:01.37

Peak level 100.0 %
Track quality 99.9 %
Test CRC 5DEB2A6D
Copy CRC 5DEB2A6D
Track not present in AccurateRip database
Copy OK

Track 7

Filename C:\My Rip\07 - Can't You See Me.wav

Pre-gap length 0:00:02.73

Peak level 100.0 %
Track quality 100.0 %
Test CRC A41B48E6
Copy CRC A41B48E6
Track not present in AccurateRip database
Copy OK

Track 8

Filename C:\My Rip\08 - Juicy Fruit.wav

Pre-gap length 0:00:02.53

Peak level 100.0 %
Track quality 99.9 %
Test CRC 16BDB9D4
Copy CRC 16BDB9D4
Track not present in AccurateRip database
Copy OK

Track 9

Filename C:\My Rip\09 - The Wind Cries Mary.wav

Pre-gap length 0:00:02.57

Peak level 100.0 %
Track quality 99.9 %
Test CRC 68F87E5F
Copy CRC 68F87E5F
Track not present in AccurateRip database
Copy OK


None of the tracks are present in the AccurateRip database

No errors occurred

End of status report
Tom Browne - R 'N' Browne (1999) {HIBD 8020}

Tom Browne - R 'N' Browne (1999) {HIBD 8020}





The Files Are Interchangeable