Subcategories

Toby Keith - Big Dog Daddy (2007)

Posted By: popsakov
Toby Keith - Big Dog Daddy (2007)

Toby Keith - Big Dog Daddy (2007)
EAC Rip | FLAC (Img) + Cue + Log ~ 268 Mb | MP3 CBR320 ~ 91 Mb
Scans (JPG, 600 dpi) ~ 152 Mb | RAR 5% Recovery
Country, Country Rock | Show Dog Nashville #SDN-005

Big Dog Daddy is the eleventh studio album released by country singer Toby Keith. It was released June 12, 2007. Its first single, "High Maintenance Woman," which was released before the album came out, peaked at number three on the country charts. The album debuted at #1 on the Billboard 200 and the Billboard Top Country Albums chart. It was Keith's third number one on the Billboard 200 and his fifth on the Top Country Albums chart. In addition, this was the first album of Keith's career that he produced entirely on his own, having previously co-produced all but his first two albums.
~ Wiki


After becoming a bona fide superstar in the wake of "Courtesy of the Red White and Blue," Toby Keith refused to play it safe, blowing up his persona to mythic heights on 2003's Shock'n Y'All, stretching his musical legs on Honkytonk University, and calling off all bets with the Lari White-produced White Trash with Money, where he got soulful and soft in equal measures. After that trilogy of exploration, Keith snaps back to the basics on Big Dog Daddy, his first self-produced album and his first album of nothing but pure, hardcore country since his star rose in the early years of the new millennium. This isn't a retreat as much as it's a reaffirmation of his strengths as a singer, songwriter, performer, and interpreter. Indeed, two of the highlights here are covers of Craig Wiseman's sighing "Love Me If You Can" and Fred Eaglesmith's "White Rose," a warm, bittersweet slice of nostalgia that highlights how Keith really tells a story when he sings. But if these, along with a handful of Keith originals, highlight his often overlooked sensitive side – love songs rarely come as sweet as "I Know She Hung the Moon," heartbreak songs are rarely as aching as "Walk It Off" – this album swings and swaggers as much as the title boasts. There's the galloping "Get My Drink On," the old-time rock & roll title track (Chuck Berry turned into country-rock via Bob Seger), and the irresistible Bobby Pinson collaboration "Pump Jack," and Keith finds the middle ground between these extremes with the remarkable "Wouldn't Want to Be Ya," which turns a cliché inside out, rendering it remarkably affecting. And that's the real secret to Keith's success: underneath all the bragging he's a songwriter and a damn good one at that, which this lean, sinewy, stripped-to-the-basics record makes clear.
~ Stephen Thomas Erlewine, All Music

***************

Toby Keith - Big Dog Daddy (2007)

Track List:

01. High Maintenance Woman [0:03:21.25]
02. Love Me If You Can [0:03:36.65]
03. White Rose [0:03:47.65]
04. Get My Drink On [0:03:07.50]
05. Wouldn't Wanna Be Ya [0:03:18.07]
06. Big Dog Daddy [0:03:53.52]
07. I Know She Hung The Moon [0:03:35.04]
08. Pump Jack [0:03:29.69]
09. Burnin' Moonlight [0:03:51.07]
10. Walk It Off [0:03:02.67]
11. Hit It [0:02:52.00]

Personnel:
Toby Keith – lead and background vocals
Brent Mason, Jerry MacPherson, Kenny Greenberg, Tom Bukovac – electric guitar
Mac McAnally, Randy Scruggs – acoustic guitar
Paul Franklin – steel guitar, Dobro
Rob Ickes – Dobro
Dave Pomeroy, Glenn Worf – bass guitar
Aubrey Haynie – fiddle, mandolin
Jonathan Yudkin – strings
Eric Darken – percussion
Clayton Ivey, Steve Nathan – piano, keyboards
Carter's Chord (Becky, Emily and Joanna Robertson), Perry Coleman – background vocals
Chad Cromwell, Shannon Forrest – drums

Exact Audio Copy V1.0 beta 3 from 29. August 2011

EAC extraction logfile from 9. October 2015, 18:02

Toby Keith / Big Dog Daddy

Used drive : ATAPI iHAS124 D Adapter: 0 ID: 2

Read mode : Secure
Utilize accurate stream : Yes
Defeat audio cache : Yes
Make use of C2 pointers : No

Read offset correction : 6
Overread into Lead-In and Lead-Out : No
Fill up missing offset samples with silence : Yes
Delete leading and trailing silent blocks : No
Null samples used in CRC calculations : Yes
Used interface : Installed external ASPI interface

Used output format : User Defined Encoder
Selected bitrate : 1024 kBit/s
Quality : High
Add ID3 tag : No
Command line compressor : C:\Program Files (x86)\Exact Audio Copy\Flac\flac.exe
Additional command line options : -6 -V -T "ARTIST=%artist%" -T "TITLE=%title%" -T "ALBUM=%albumtitle%" -T "DATE=%year%" -T "TRACKNUMBER=%tracknr%" -T "GENRE=%genre%" -T "COMMENT=%comment%" -T "BAND=%albuminterpret%" -T "COMPOSER=%composer%" %haslyrics%–tag-from-file=LYRICS="%lyricsfile%"%haslyrics% -T "DISCNUMBER=%cdnumber%" -T "TOTALDISCS=%totalcds%" -T "TOTALTRACKS=%numtracks%" %hascover%–picture="%coverfile%"%hascover% %source% -o %dest%


TOC of the extracted CD

Track | Start | Length | Start sector | End sector
––––––––––––––––––––––––––––-
1 | 0:01.00 | 3:21.25 | 75 | 15174
2 | 3:22.25 | 3:36.65 | 15175 | 31439
3 | 6:59.15 | 3:47.65 | 31440 | 48529
4 | 10:47.05 | 3:07.50 | 48530 | 62604
5 | 13:54.55 | 3:18.07 | 62605 | 77461
6 | 17:12.62 | 3:53.52 | 77462 | 94988
7 | 21:06.39 | 3:35.04 | 94989 | 111117
8 | 24:41.43 | 3:29.69 | 111118 | 126861
9 | 28:11.37 | 3:51.07 | 126862 | 144193
10 | 32:02.44 | 3:02.67 | 144194 | 157910
11 | 35:05.36 | 2:52.00 | 157911 | 170810


Range status and errors

Selected range

Filename C:\mm\Toby Keith\2007 - Big Dog Daddy [SDN-005]\Toby Keith - Big Dog Daddy.wav

Peak level 98.1 %
Extraction speed 8.8 X
Range quality 100.0 %
Test CRC 485AD222
Copy CRC 485AD222
Copy OK

No errors occurred


AccurateRip summary

Track 1 accurately ripped (confidence 46) [D330CB87] (AR v2)
Track 2 accurately ripped (confidence 47) [DFAF62D4] (AR v2)
Track 3 accurately ripped (confidence 45) [14E1C826] (AR v2)
Track 4 accurately ripped (confidence 46) [5DE6345A] (AR v2)
Track 5 accurately ripped (confidence 46) [9E4C56D4] (AR v2)
Track 6 accurately ripped (confidence 45) [9244F72F] (AR v2)
Track 7 accurately ripped (confidence 46) [97C86A55] (AR v2)
Track 8 accurately ripped (confidence 46) [DB668D91] (AR v2)
Track 9 accurately ripped (confidence 46) [FD1FE152] (AR v2)
Track 10 accurately ripped (confidence 46) [7C27664A] (AR v2)
Track 11 accurately ripped (confidence 45) [EFF0CD27] (AR v2)

All tracks accurately ripped

End of status report

foobar2000 1.2.6 / Dynamic Range Meter 1.1.1
log date: 2017-01-11 20:46:50

––––––––––––––––––––––––––––––––––––––––
Analyzed: Toby Keith / Big Dog Daddy
––––––––––––––––––––––––––––––––––––––––

DR Peak RMS Duration Track
––––––––––––––––––––––––––––––––––––––––
DR6 -0.21 dB -7.60 dB 3:21 01-High Maintenance Woman
DR7 -0.18 dB -9.37 dB 3:37 02-Love Me If You Can
DR7 -0.16 dB -9.00 dB 3:48 03-White Rose
DR6 -0.25 dB -7.29 dB 3:08 04-Get My Drink On
DR6 -0.20 dB -7.76 dB 3:18 05-Wouldn't Wanna Be Ya
DR6 -0.20 dB -7.60 dB 3:54 06-Big Dog Daddy
DR6 -0.28 dB -8.56 dB 3:35 07-I Know She Hung The Moon
DR5 -0.19 dB -6.75 dB 3:30 08-Pump Jack
DR7 -0.19 dB -9.77 dB 3:51 09-Burnin' Moonlight
DR7 -0.33 dB -10.63 dB 3:03 10-Walk It Off
DR6 -0.17 dB -7.51 dB 2:52 11-Hit It
––––––––––––––––––––––––––––––––––––––––

Number of tracks: 11
Official DR value: DR6

Samplerate: 44100 Hz
Channels: 2
Bits per sample: 16
Bitrate: 941 kbps
Codec: FLAC
================================================================================

[CUETools log; Date: 11.01.2017 20:46:50; Version: 2.1.5]
Pregap length 00:01:00.
[CTDB TOCID: SywgoyIDJqzbGYkyff368AS1cCw-] found.
Track | CTDB Status
1 | (22/22) Accurately ripped
2 | (22/22) Accurately ripped
3 | (22/22) Accurately ripped
4 | (22/22) Accurately ripped
5 | (22/22) Accurately ripped
6 | (22/22) Accurately ripped
7 | (22/22) Accurately ripped
8 | (22/22) Accurately ripped
9 | (22/22) Accurately ripped
10 | (22/22) Accurately ripped
11 | (22/22) Accurately ripped
[AccurateRip ID: 000fe314-0089a634-8a08e40b] found.
Track [ CRC | V2 ] Status
01 [1d8408bf|d330cb87] (067+054/121) Accurately ripped
02 [acbaed7a|dfaf62d4] (067+054/121) Accurately ripped
03 [e86a0ca8|14e1c826] (067+053/120) Accurately ripped
04 [6111519e|5de6345a] (067+053/120) Accurately ripped
05 [bf7645cc|9e4c56d4] (067+053/120) Accurately ripped
06 [569c331e|9244f72f] (067+053/120) Accurately ripped
07 [627e8c34|97c86a55] (067+053/120) Accurately ripped
08 [d3ff43c8|db668d91] (066+053/119) Accurately ripped
09 [cdec4fc4|fd1fe152] (067+054/121) Accurately ripped
10 [3742fdd5|7c27664a] (067+054/121) Accurately ripped
11 [d073a5c9|eff0cd27] (067+053/120) Accurately ripped
Offsetted by -18:
01 [c3f175db] (000/121) No match (V2 was not tested)
02 [b728ddbe] (000/121) No match
03 [22eb6ebf] (000/120) No match (V2 was not tested)
04 [362eb379] (000/120) No match (V2 was not tested)
05 [3c5065fe] (000/120) No match (V2 was not tested)
06 [020fdbf1] (000/120) No match (V2 was not tested)
07 [b5391c4e] (000/120) No match (V2 was not tested)
08 [d97f2864] (000/119) No match (V2 was not tested)
09 [ba06b115] (000/121) No match (V2 was not tested)
10 [ad45a57b] (000/121) No match (V2 was not tested)
11 [84dd93ed] (000/120) No match (V2 was not tested)

Track Peak [ CRC32 ] [W/O NULL] [ LOG ]
– 98,1 [485AD222] [B27F7C13] CRC32
01 97,5 [787DFEBF] [FA9E6DE1]
02 97,9 [4B8D66DC] [4D4D7F0F]
03 98,1 [873846FE] [79E20E26]
04 97,2 [26808CE0] [1BAB4CAA]
05 97,7 [BB296823] [90068FD2]
06 97,6 [08FD2400] [A21E1DDE]
07 96,7 [94A85C69] [F1D1152A]
08 97,8 [FC2611CF] [128C4C5D]
09 97,8 [017C93FE] [958C9D66]
10 96,3 [A8C63793] [F0AD8EB4]
11 98,0 [CD58D7FA] [73B1DBCA]

Toby Keith - Big Dog Daddy (2007)

See also:
Toby Keith - Boomtown (1994) {2005, Reissue}
Toby Keith - Drinks After Work (2013) {Deluxe 'Zinepak Edition}

All thanks go to sergych

> Visit my blog <